  0
SECTION
  2
HEADER
  9
$ACADVER
  1
AC1015
  9
$ACADMAINTVER
 70
    13
  9
$DWGCODEPAGE
  3
ANSI_932
  9
$INSBASE
 10
0.0
 20
0.0
 30
0.0
  9
$EXTMIN
 10
0.0
 20
0.0
 30
0.0
  9
$EXTMAX
 10
630.0
 20
445.4996795999997
 30
0.0
  9
$LIMMIN
 10
0.0
 20
0.0
  9
$LIMMAX
 10
420.0
 20
318.4997863999999
  9
$ORTHOMODE
 70
     1
  9
$REGENMODE
 70
     1
  9
$FILLMODE
 70
     1
  9
$QTEXTMODE
 70
     0
  9
$MIRRTEXT
 70
     1
  9
$LTSCALE
 40
1.0
  9
$ATTMODE
 70
     1
  9
$TEXTSIZE
 40
4.0
  9
$TRACEWID
 40
0.05
  9
$TEXTSTYLE
  7
STANDARD
  9
$CLAYER
  8
MEASURE
  9
$CELTYPE
  6
BYLAYER
  9
$CECOLOR
 62
   256
  9
$CELTSCALE
 40
1.0
  9
$DISPSILH
 70
     0
  9
$DIMSCALE
 40
1.5
  9
$DIMASZ
 40
2.5
  9
$DIMEXO
 40
1.0
  9
$DIMDLI
 40
0.38
  9
$DIMRND
 40
0.0
  9
$DIMDLE
 40
0.0
  9
$DIMEXE
 40
2.0
  9
$DIMTP
 40
0.0
  9
$DIMTM
 40
0.0
  9
$DIMTXT
 40
3.0
  9
$DIMCEN
 40
-2.0
  9
$DIMTSZ
 40
0.0
  9
$DIMTOL
 70
     0
  9
$DIMLIM
 70
     0
  9
$DIMTIH
 70
     0
  9
$DIMTOH
 70
     0
  9
$DIMSE1
 70
     0
  9
$DIMSE2
 70
     0
  9
$DIMTAD
 70
     1
  9
$DIMZIN
 70
     8
  9
$DIMBLK
  1

  9
$DIMASO
 70
     1
  9
$DIMSHO
 70
     0
  9
$DIMPOST
  1

  9
$DIMAPOST
  1

  9
$DIMALT
 70
     0
  9
$DIMALTD
 70
     2
  9
$DIMALTF
 40
25.4
  9
$DIMLFAC
 40
1.0
  9
$DIMTOFL
 70
     1
  9
$DIMTVP
 40
0.0
  9
$DIMTIX
 70
     0
  9
$DIMSOXD
 70
     0
  9
$DIMSAH
 70
     0
  9
$DIMBLK1
  1

  9
$DIMBLK2
  1

  9
$DIMSTYLE
  2
AD-STANDARD
  9
$DIMCLRD
 70
     9
  9
$DIMCLRE
 70
     9
  9
$DIMCLRT
 70
     2
  9
$DIMTFAC
 40
1.0
  9
$DIMGAP
 40
0.5
  9
$DIMJUST
 70
     0
  9
$DIMSD1
 70
     0
  9
$DIMSD2
 70
     0
  9
$DIMTOLJ
 70
     1
  9
$DIMTZIN
 70
     8
  9
$DIMALTZ
 70
     0
  9
$DIMALTTZ
 70
     0
  9
$DIMUPT
 70
     0
  9
$DIMDEC
 70
     4
  9
$DIMTDEC
 70
     4
  9
$DIMALTU
 70
     2
  9
$DIMALTTD
 70
     2
  9
$DIMTXSTY
  7
AD-STANDARD
  9
$DIMAUNIT
 70
     0
  9
$DIMADEC
 70
     0
  9
$DIMALTRND
 40
0.0
  9
$DIMAZIN
 70
     0
  9
$DIMDSEP
 70
    46
  9
$DIMATFIT
 70
     3
  9
$DIMFRAC
 70
     0
  9
$DIMLDRBLK
  1

  9
$DIMLUNIT
 70
     2
  9
$DIMLWD
 70
    -2
  9
$DIMLWE
 70
    -2
  9
$DIMTMOVE
 70
     0
  9
$LUNITS
 70
     2
  9
$LUPREC
 70
     4
  9
$SKETCHINC
 40
0.1
  9
$FILLETRAD
 40
0.0
  9
$AUNITS
 70
     0
  9
$AUPREC
 70
     0
  9
$MENU
  1
acad
  9
$ELEVATION
 40
0.0
  9
$PELEVATION
 40
0.0
  9
$THICKNESS
 40
0.0
  9
$LIMCHECK
 70
     0
  9
$CHAMFERA
 40
0.0
  9
$CHAMFERB
 40
0.0
  9
$CHAMFERC
 40
0.0
  9
$CHAMFERD
 40
0.0
  9
$SKPOLY
 70
     0
  9
$TDCREATE
 40
2448026.600810185
  9
$TDUCREATE
 40
2448026.225810185
  9
$TDUPDATE
 40
2454256.577272453
  9
$TDUUPDATE
 40
2454256.202272453
  9
$TDINDWG
 40
0.0446168287
  9
$TDUSRTIMER
 40
0.0446168287
  9
$USRTIMER
 70
     1
  9
$ANGBASE
 50
0.0
  9
$ANGDIR
 70
     0
  9
$PDMODE
 70
     0
  9
$PDSIZE
 40
0.0
  9
$PLINEWID
 40
0.0
  9
$SPLFRAME
 70
     0
  9
$SPLINETYPE
 70
     6
  9
$SPLINESEGS
 70
     8
  9
$HANDSEED
  5
60F
  9
$SURFTAB1
 70
     6
  9
$SURFTAB2
 70
     6
  9
$SURFTYPE
 70
     6
  9
$SURFU
 70
     6
  9
$SURFV
 70
     6
  9
$UCSBASE
  2

  9
$UCSNAME
  2

  9
$UCSORG
 10
0.0
 20
0.0
 30
0.0
  9
$UCSXDIR
 10
1.0
 20
0.0
 30
0.0
  9
$UCSYDIR
 10
0.0
 20
1.0
 30
0.0
  9
$UCSORTHOREF
  2

  9
$UCSORTHOVIEW
 70
     0
  9
$UCSORGTOP
 10
0.0
 20
0.0
 30
0.0
  9
$UCSORGBOTTOM
 10
0.0
 20
0.0
 30
0.0
  9
$UCSORGLEFT
 10
0.0
 20
0.0
 30
0.0
  9
$UCSORGRIGHT
 10
0.0
 20
0.0
 30
0.0
  9
$UCSORGFRONT
 10
0.0
 20
0.0
 30
0.0
  9
$UCSORGBACK
 10
0.0
 20
0.0
 30
0.0
  9
$PUCSBASE
  2

  9
$PUCSNAME
  2

  9
$PUCSORG
 10
0.0
 20
0.0
 30
0.0
  9
$PUCSXDIR
 10
1.0
 20
0.0
 30
0.0
  9
$PUCSYDIR
 10
0.0
 20
1.0
 30
0.0
  9
$PUCSORTHOREF
  2

  9
$PUCSORTHOVIEW
 70
     0
  9
$PUCSORGTOP
 10
0.0
 20
0.0
 30
0.0
  9
$PUCSORGBOTTOM
 10
0.0
 20
0.0
 30
0.0
  9
$PUCSORGLEFT
 10
0.0
 20
0.0
 30
0.0
  9
$PUCSORGRIGHT
 10
0.0
 20
0.0
 30
0.0
  9
$PUCSORGFRONT
 10
0.0
 20
0.0
 30
0.0
  9
$PUCSORGBACK
 10
0.0
 20
0.0
 30
0.0
  9
$USERI1
 70
     0
  9
$USERI2
 70
     0
  9
$USERI3
 70
     0
  9
$USERI4
 70
     0
  9
$USERI5
 70
     0
  9
$USERR1
 40
0.0
  9
$USERR2
 40
0.0
  9
$USERR3
 40
0.0
  9
$USERR4
 40
0.0
  9
$USERR5
 40
0.0
  9
$WORLDVIEW
 70
     1
  9
$SHADEDGE
 70
     3
  9
$SHADEDIF
 70
    70
  9
$TILEMODE
 70
     0
  9
$MAXACTVP
 70
    48
  9
$PINSBASE
 10
0.0
 20
0.0
 30
0.0
  9
$PLIMCHECK
 70
     0
  9
$PEXTMIN
 10
5.466135713473477
 20
4.71020259663669
 30
0.0
  9
$PEXTMAX
 10
414.2849486231969
 20
290.773191210329
 30
0.0
  9
$PLIMMIN
 10
-0.432522602572476
 20
-1.003069115354037
  9
$PLIMMAX
 10
419.72580259274
 20
296.0287607186303
  9
$UNITMODE
 70
     0
  9
$VISRETAIN
 70
     1
  9
$PLINEGEN
 70
     0
  9
$PSLTSCALE
 70
     1
  9
$TREEDEPTH
 70
  3020
  9
$CMLSTYLE
  2
STANDARD
  9
$CMLJUST
 70
     0
  9
$CMLSCALE
 40
1.0
  9
$PROXYGRAPHICS
 70
     1
  9
$MEASUREMENT
 70
     0
  9
$CELWEIGHT
370
    -1
  9
$ENDCAPS
280
     0
  9
$JOINSTYLE
280
     0
  9
$LWDISPLAY
290
     0
  9
$INSUNITS
 70
     0
  9
$HYPERLINKBASE
  1

  9
$STYLESHEET
  1

  9
$XEDIT
290
     1
  9
$CEPSNTYPE
380
     0
  9
$PSTYLEMODE
290
     1
  9
$FINGERPRINTGUID
  2
{2995B18C-6F84-4BA8-A513-28C8426A8C54}
  9
$VERSIONGUID
  2
{227BE891-1130-4EE3-A884-6005BA156ED2}
  9
$EXTNAMES
290
     1
  9
$PSVPSCALE
 40
0.0
  9
$OLESTARTUP
290
     0
  0
ENDSEC
  0
SECTION
  2
CLASSES
  0
CLASS
  1
ACDBDICTIONARYWDFLT
  2
AcDbDictionaryWithDefault
  3
AutoCAD 2000
 90
        0
280
     0
281
     0
  0
CLASS
  1
ACDBPLACEHOLDER
  2
AcDbPlaceHolder
  3
AutoCAD 2000
 90
        0
280
     0
281
     0
  0
CLASS
  1
LAYOUT
  2
AcDbLayout
  3
AutoCAD 2000
 90
        0
280
     0
281
     0
  0
CLASS
  1
LONG_TRANSACTION
  2
AcDbLongTransaction
  3
AutoCAD 2000
 90
    32768
280
     0
281
     0
  0
CLASS
  1
LWPOLYLINE
  2
AcDbPolyline
  3
AutoCAD 2000
 90
    32768
280
     0
281
     1
  0
CLASS
  1
HATCH
  2
AcDbHatch
  3
AutoCAD 2000
 90
    32768
280
     0
281
     1
  0
CLASS
  1
XRECORD
  2
AcDbXrecord
  3
AutoCAD 2000
 90
    32768
280
     0
281
     0
  0
CLASS
  1
LONG_TRANSACTION
  2
AcDbLongTransaction
  3
AutoCAD 2000
 90
    32768
280
     0
281
     0
  0
CLASS
  1
LWPOLYLINE
  2
AcDbPolyline
  3
AutoCAD 2000
 90
    32768
280
     0
281
     1
  0
CLASS
  1
HATCH
  2
AcDbHatch
  3
AutoCAD 2000
 90
    32768
280
     0
281
     1
  0
CLASS
  1
XRECORD
  2
AcDbXrecord
  3
AutoCAD 2000
 90
    32768
280
     0
281
     0
  0
CLASS
  1
DICTIONARYVAR
  2
AcDbDictionaryVar
  3
AutoCAD 2000
 90
        0
280
     0
281
     0
  0
ENDSEC
  0
SECTION
  2
TABLES
  0
TABLE
  2
VPORT
  5
8
330
0
100
AcDbSymbolTable
 70
     5
  0
VPORT
  5
60E
330
8
100
AcDbSymbolTableRecord
100
AcDbViewportTableRecord
  2
*Active
 70
     0
 10
0.0
 20
0.0
 11
1.0
 21
1.0
 12
338.18380848332
 22
222.0146303734628
 13
0.0
 23
0.0
 14
1.0
 24
1.0
 15
0.0
 25
0.0
 16
0.0
 26
0.0
 36
1.0
 17
0.0
 27
0.0
 37
0.0
 40
652.3784562015435
 41
1.21859296482412
 42
50.0
 43
0.0
 44
0.0
 50
0.0
 51
0.0
 71
     0
 72
   100
 73
     1
 74
     1
 75
     0
 76
     0
 77
     0
 78
     0
281
     0
 65
     1
110
0.0
120
0.0
130
0.0
111
1.0
121
0.0
131
0.0
112
0.0
122
1.0
132
0.0
 79
     0
146
0.0
  0
ENDTAB
  0
TABLE
  2
LTYPE
  5
5
330
0
100
AcDbSymbolTable
 70
     1
  0
LTYPE
  5
13
330
5
100
AcDbSymbolTableRecord
100
AcDbLinetypeTableRecord
  2
BYBLOCK
 70
     0
  3

 72
    65
 73
     0
 40
0.0
  0
LTYPE
  5
14
330
5
100
AcDbSymbolTableRecord
100
AcDbLinetypeTableRecord
  2
BYLAYER
 70
     0
  3

 72
    65
 73
     0
 40
0.0
  0
LTYPE
  5
15
330
5
100
AcDbSymbolTableRecord
100
AcDbLinetypeTableRecord
  2
CONTINUOUS
 70
     0
  3
________________________
 72
    65
 73
     0
 40
0.0
  0
ENDTAB
  0
TABLE
  2
LAYER
  5
2
330
0
100
AcDbSymbolTable
 70
     8
  0
LAYER
  5
10
330
2
100
AcDbSymbolTableRecord
100
AcDbLayerTableRecord
  2
0
 70
     0
 62
     7
  6
CONTINUOUS
370
    -3
390
F
  0
LAYER
  5
27
330
2
100
AcDbSymbolTableRecord
100
AcDbLayerTableRecord
  2
WORKLAYER
 70
     0
 62
     7
  6
CONTINUOUS
370
    -3
390
F
  0
LAYER
  5
29
330
2
100
AcDbSymbolTableRecord
100
AcDbLayerTableRecord
  2
SNOTE
 70
     0
 62
     7
  6
CONTINUOUS
370
    -3
390
F
  0
LAYER
  5
3FB
330
2
100
AcDbSymbolTableRecord
100
AcDbLayerTableRecord
  2
DEFPOINTS
 70
     0
 62
     7
  6
CONTINUOUS
290
     0
370
    -3
390
F
  0
LAYER
  5
46A
330
2
100
AcDbSymbolTableRecord
100
AcDbLayerTableRecord
  2
MEASURE
 70
     0
 62
     9
  6
CONTINUOUS
370
    -3
390
F
  0
LAYER
  5
49D
330
2
100
AcDbSymbolTableRecord
100
AcDbLayerTableRecord
  2
1
 70
     0
 62
     7
  6
CONTINUOUS
370
    -3
390
F
  0
LAYER
  5
4EA
330
2
100
AcDbSymbolTableRecord
100
AcDbLayerTableRecord
  2
NOTE
 70
     0
 62
     2
  6
CONTINUOUS
370
    -3
390
F
  0
ENDTAB
  0
TABLE
  2
STYLE
  5
3
330
0
100
AcDbSymbolTable
 70
     5
  0
STYLE
  5
11
330
3
100
AcDbSymbolTableRecord
100
AcDbTextStyleTableRecord
  2
STANDARD
 70
     0
 40
0.0
 41
1.0
 50
0.0
 71
     0
 42
4.0
  3
txt
  4

  0
STYLE
  5
2A
330
3
100
AcDbSymbolTableRecord
100
AcDbTextStyleTableRecord
  2
KANJI
 70
     0
 40
0.0
 41
1.0
 50
0.0
 71
     0
 42
2.0
  3
TXT
  4
BIGFONT
  0
STYLE
  5
3FC
330
3
100
AcDbSymbolTableRecord
100
AcDbTextStyleTableRecord
  2
AD-STANDARD
 70
     0
 40
0.0
 41
0.8
 50
0.0
 71
     0
 42
3.5
  3
C:\Program Files\AutoCAD LT\romans.shx
  4
bigfont.shx
  0
STYLE
  5
3FD
330
3
100
AcDbSymbolTableRecord
100
AcDbTextStyleTableRecord
  2
ROMAND
 70
     0
 40
5.0
 41
1.0
 50
0.0
 71
     0
 42
4.5
  3
romand
  4

  0
STYLE
  5
3FE
330
3
100
AcDbSymbolTableRecord
100
AcDbTextStyleTableRecord
  2
FORM
 70
     0
 40
3.5
 41
0.8
 50
0.0
 71
     0
 42
3.5
  3
ROMANS.SHX
  4
BIGFONT.SHX
  0
ENDTAB
  0
TABLE
  2
VIEW
  5
6
330
0
100
AcDbSymbolTable
 70
     0
  0
ENDTAB
  0
TABLE
  2
UCS
  5
7
330
0
100
AcDbSymbolTable
 70
     0
  0
ENDTAB
  0
TABLE
  2
APPID
  5
9
330
0
100
AcDbSymbolTable
 70
     1
  0
APPID
  5
12
330
9
100
AcDbSymbolTableRecord
100
AcDbRegAppTableRecord
  2
ACAD
 70
     0
  0
ENDTAB
  0
TABLE
  2
DIMSTYLE
  5
A
330
0
100
AcDbSymbolTable
 70
     2
100
AcDbDimStyleTable
 71
     1
340
3FF
  0
DIMSTYLE
105
321
330
A
100
AcDbSymbolTableRecord
100
AcDbDimStyleTableRecord
  2
STANDARD
 70
     0
340
11
  0
DIMSTYLE
105
3FF
102
{ACAD_REACTORS
330
4CB
330
5BA
330
5C7
330
5F4
330
601
102
}
330
A
100
AcDbSymbolTableRecord
100
AcDbDimStyleTableRecord
  2
AD-STANDARD
 70
     0
 41
2.5
 42
1.0
 44
2.0
 73
     0
 74
     0
 77
     1
 78
     8
140
3.0
141
-2.0
147
0.5
172
     1
176
     9
177
     9
178
     2
284
     8
340
3FC
  0
ENDTAB
  0
TABLE
  2
BLOCK_RECORD
  5
1
330
0
100
AcDbSymbolTable
 70
    74
  0
BLOCK_RECORD
  5
1E
102
{ACAD_XDICTIONARY
360
357
102
}
330
1
100
AcDbSymbolTableRecord
100
AcDbBlockTableRecord
  2
*MODEL_SPACE
340
44C
  0
BLOCK_RECORD
  5
1A
102
{ACAD_XDICTIONARY
360
359
102
}
330
1
100
AcDbSymbolTableRecord
100
AcDbBlockTableRecord
  2
*PAPER_SPACE
340
44D
  0
BLOCK_RECORD
  5
215
330
1
100
AcDbSymbolTableRecord
100
AcDbBlockTableRecord
  2
DXF63
340
0
102
{BLKREFS
331
30F
102
}
  0
BLOCK_RECORD
  5
4CC
330
1
100
AcDbSymbolTableRecord
100
AcDbBlockTableRecord
  2
*D68
340
0
  0
BLOCK_RECORD
  5
5BB
330
1
100
AcDbSymbolTableRecord
100
AcDbBlockTableRecord
  2
*D70
340
0
  0
BLOCK_RECORD
  5
5C8
330
1
100
AcDbSymbolTableRecord
100
AcDbBlockTableRecord
  2
*D71
340
0
  0
BLOCK_RECORD
  5
5F5
330
1
100
AcDbSymbolTableRecord
100
AcDbBlockTableRecord
  2
*D72
340
0
  0
BLOCK_RECORD
  5
602
330
1
100
AcDbSymbolTableRecord
100
AcDbBlockTableRecord
  2
*D73
340
0
  0
ENDTAB
  0
ENDSEC
  0
SECTION
  2
BLOCKS
  0
BLOCK
  5
1F
330
1E
100
AcDbEntity
  8
0
100
AcDbBlockBegin
  2
*MODEL_SPACE
 70
     0
 10
0.0
 20
0.0
 30
0.0
  3
*MODEL_SPACE
  1

  0
ENDBLK
  5
20
330
1E
100
AcDbEntity
  8
0
100
AcDbBlockEnd
  0
BLOCK
  5
1B
330
1A
100
AcDbEntity
 67
     1
  8
0
100
AcDbBlockBegin
  2
*PAPER_SPACE
 70
     0
 10
0.0
 20
0.0
 30
0.0
  3
*PAPER_SPACE
  1

  0
ENDBLK
  5
1C
330
1A
100
AcDbEntity
 67
     1
  8
0
100
AcDbBlockEnd
  0
BLOCK
  5
216
330
215
100
AcDbEntity
  8
WORKLAYER
100
AcDbBlockBegin
  2
DXF63
 70
     0
 10
0.0
 20
0.0
 30
0.0
  3
DXF63
  1

  0
LINE
  5
217
330
215
100
AcDbEntity
  8
WORKLAYER
  6
Continuous
 62
     7
100
AcDbLine
 10
0.0
 20
21.49999999999999
 30
0.0
 11
0.0
 21
318.4997863999999
 31
0.0
  0
LINE
  5
218
330
215
100
AcDbEntity
  8
WORKLAYER
  6
Continuous
 62
     7
100
AcDbLine
 10
0.0
 20
318.4997863999999
 30
0.0
 11
420.0
 21
318.4997863999999
 31
0.0
  0
LINE
  5
219
330
215
100
AcDbEntity
  8
WORKLAYER
  6
Continuous
 62
     7
100
AcDbLine
 10
420.0
 20
21.49999999999999
 30
0.0
 11
420.0
 21
318.4997863999999
 31
0.0
  0
LINE
  5
21A
330
215
100
AcDbEntity
  8
WORKLAYER
  6
Continuous
 62
     7
100
AcDbLine
 10
0.0
 20
21.49999999999999
 30
0.0
 11
420.0
 21
21.49999999999999
 31
0.0
  0
ENDBLK
  5
21B
330
215
100
AcDbEntity
  8
0
100
AcDbBlockEnd
  0
BLOCK
  5
4D6
330
4CC
100
AcDbEntity
  8
0
100
AcDbBlockBegin
  2
*D68
 70
     1
 10
0.0
 20
0.0
 30
0.0
  3
*D68
  1

  0
LINE
  5
4CD
330
4CC
100
AcDbEntity
  8
MEASURE
 62
     9
370
    -2
100
AcDbLine
 10
436.5
 20
359.2500152499998
 30
0.0
 11
404.0
 21
359.2500152499998
 31
0.0
  0
LINE
  5
4CE
330
4CC
100
AcDbEntity
  8
MEASURE
 62
     9
370
    -2
100
AcDbLine
 10
436.5
 20
223.2500077
 30
0.0
 11
404.0
 21
223.2500077
 31
0.0
  0
LINE
  5
4CF
330
4CC
100
AcDbEntity
  8
MEASURE
 62
     9
370
    -2
100
AcDbLine
 10
407.0
 20
355.5000152499998
 30
0.0
 11
407.0
 21
227.0000077
 31
0.0
  0
SOLID
  5
4D0
330
4CC
100
AcDbEntity
  8
MEASURE
 62
     9
100
AcDbTrace
 10
406.3749999999999
 20
355.5000152499998
 30
0.0
 11
407.6249999999999
 21
355.5000152499998
 31
0.0
 12
407.0
 22
359.2500152499998
 32
0.0
 13
407.0
 23
359.2500152499998
 33
0.0
  0
SOLID
  5
4D1
330
4CC
100
AcDbEntity
  8
MEASURE
 62
     9
100
AcDbTrace
 10
406.3749999999999
 20
227.0000077
 30
0.0
 11
407.6249999999999
 21
227.0000077
 31
0.0
 12
407.0
 22
223.2500077
 32
0.0
 13
407.0
 23
223.2500077
 33
0.0
  0
MTEXT
  5
4D2
330
4CC
100
AcDbEntity
  8
MEASURE
 62
     2
100
AcDbMText
 10
403.9999999999999
 20
291.250011475
 30
0.0
 40
4.5
 41
0.0
 71
     5
 72
     1
  1
\A1;136
  7
AD-STANDARD
 11
0.0000000000000001
 21
1.0
 31
0.0
 73
     1
 44
1.0
  0
POINT
  5
4D3
330
4CC
100
AcDbEntity
  8
DEFPOINTS
 62
     0
100
AcDbPoint
 10
438.0
 20
359.2500152499998
 30
0.0
  0
POINT
  5
4D4
330
4CC
100
AcDbEntity
  8
DEFPOINTS
 62
     0
100
AcDbPoint
 10
438.0
 20
223.2500077
 30
0.0
  0
POINT
  5
4D5
330
4CC
100
AcDbEntity
  8
DEFPOINTS
 62
     0
100
AcDbPoint
 10
407.0
 20
223.2500077
 30
0.0
  0
ENDBLK
  5
4D7
330
4CC
100
AcDbEntity
  8
0
100
AcDbBlockEnd
  0
BLOCK
  5
5C5
330
5BB
100
AcDbEntity
  8
0
100
AcDbBlockBegin
  2
*D70
 70
     1
 10
0.0
 20
0.0
 30
0.0
  3
*D70
  1

  0
LINE
  5
5BC
330
5BB
100
AcDbEntity
  8
MEASURE
 62
     9
370
    -2
100
AcDbLine
 10
297.0
 20
361.2500005
 30
0.0
 11
341.0638849230035
 21
361.2500005
 31
0.0
  0
LINE
  5
5BD
330
5BB
100
AcDbEntity
  8
MEASURE
 62
     9
370
    -2
100
AcDbLine
 10
297.0
 20
221.2499922999999
 30
0.0
 11
341.0638849230035
 21
221.2499922999998
 31
0.0
  0
LINE
  5
5BE
330
5BB
100
AcDbEntity
  8
MEASURE
 62
     9
370
    -2
100
AcDbLine
 10
338.0638849230035
 20
357.5000005
 30
0.0
 11
338.0638849230035
 21
224.9999922999998
 31
0.0
  0
SOLID
  5
5BF
330
5BB
100
AcDbEntity
  8
MEASURE
 62
     9
100
AcDbTrace
 10
337.4388849230035
 20
357.5000005
 30
0.0
 11
338.6888849230035
 21
357.5000005
 31
0.0
 12
338.0638849230035
 22
361.2500005
 32
0.0
 13
338.0638849230035
 23
361.2500005
 33
0.0
  0
SOLID
  5
5C0
330
5BB
100
AcDbEntity
  8
MEASURE
 62
     9
100
AcDbTrace
 10
337.4388849230035
 20
224.9999922999998
 30
0.0
 11
338.6888849230035
 21
224.9999922999998
 31
0.0
 12
338.0638849230035
 22
221.2499922999998
 32
0.0
 13
338.0638849230035
 23
221.2499922999998
 33
0.0
  0
MTEXT
  5
5C1
330
5BB
100
AcDbEntity
  8
MEASURE
 62
     2
100
AcDbMText
 10
335.0638849230035
 20
291.2499963999999
 30
0.0
 40
4.5
 41
0.0
 71
     5
 72
     1
  1
\A1;140
  7
AD-STANDARD
 11
0.0000000000000001
 21
1.0
 31
0.0
 73
     1
 44
1.0
  0
POINT
  5
5C2
330
5BB
100
AcDbEntity
  8
DEFPOINTS
 62
     0
100
AcDbPoint
 10
295.5
 20
361.2500005
 30
0.0
  0
POINT
  5
5C3
330
5BB
100
AcDbEntity
  8
DEFPOINTS
 62
     0
100
AcDbPoint
 10
295.5
 20
221.2499922999999
 30
0.0
  0
POINT
  5
5C4
330
5BB
100
AcDbEntity
  8
DEFPOINTS
 62
     0
100
AcDbPoint
 10
338.0638849230035
 20
221.2499922999998
 30
0.0
  0
ENDBLK
  5
5C6
330
5BB
100
AcDbEntity
  8
0
100
AcDbBlockEnd
  0
BLOCK
  5
5D2
330
5C8
100
AcDbEntity
  8
0
100
AcDbBlockBegin
  2
*D71
 70
     1
 10
0.0
 20
0.0
 30
0.0
  3
*D71
  1

  0
LINE
  5
5D4
330
5C8
100
AcDbEntity
  8
MEASURE
 62
     9
370
    -2
100
AcDbLine
 10
107.4999847499999
 20
289.75
 30
0.0
 11
107.4999847499999
 21
181.7181726514795
 31
0.0
  0
LINE
  5
5D5
330
5C8
100
AcDbEntity
  8
MEASURE
 62
     9
370
    -2
100
AcDbLine
 10
305.4999847499999
 20
229.7499999999999
 30
0.0
 11
305.4999847499999
 21
181.7181726514795
 31
0.0
  0
LINE
  5
5D6
330
5C8
100
AcDbEntity
  8
MEASURE
 62
     9
370
    -2
100
AcDbLine
 10
111.2499847499999
 20
184.7181726514795
 30
0.0
 11
301.7499847499998
 21
184.7181726514795
 31
0.0
  0
SOLID
  5
5D7
330
5C8
100
AcDbEntity
  8
MEASURE
 62
     9
100
AcDbTrace
 10
111.2499847499999
 20
185.3431726514795
 30
0.0
 11
111.2499847499999
 21
184.0931726514795
 31
0.0
 12
107.4999847499999
 22
184.7181726514795
 32
0.0
 13
107.4999847499999
 23
184.7181726514795
 33
0.0
  0
SOLID
  5
5D8
330
5C8
100
AcDbEntity
  8
MEASURE
 62
     9
100
AcDbTrace
 10
301.7499847499998
 20
185.3431726514795
 30
0.0
 11
301.7499847499998
 21
184.0931726514795
 31
0.0
 12
305.4999847499999
 22
184.7181726514795
 32
0.0
 13
305.4999847499999
 23
184.7181726514795
 33
0.0
  0
MTEXT
  5
5D9
330
5C8
100
AcDbEntity
  8
MEASURE
 62
     2
100
AcDbMText
 10
206.4999847499999
 20
187.7181726514795
 30
0.0
 40
4.5
 41
0.0
 71
     5
 72
     1
  1
\A1;198
  7
AD-STANDARD
 73
     1
 44
1.0
  0
POINT
  5
5DA
330
5C8
100
AcDbEntity
  8
DEFPOINTS
 62
     0
100
AcDbPoint
 10
107.4999847499999
 20
291.25
 30
0.0
  0
POINT
  5
5DB
330
5C8
100
AcDbEntity
  8
DEFPOINTS
 62
     0
100
AcDbPoint
 10
305.4999847499999
 20
231.25
 30
0.0
  0
POINT
  5
5DC
330
5C8
100
AcDbEntity
  8
DEFPOINTS
 62
     0
100
AcDbPoint
 10
305.4999847499999
 20
184.7181726514795
 30
0.0
  0
ENDBLK
  5
5D3
330
5C8
100
AcDbEntity
  8
0
100
AcDbBlockEnd
  0
BLOCK
  5
5FF
330
5F5
100
AcDbEntity
  8
0
100
AcDbBlockBegin
  2
*D72
 70
     1
 10
0.0
 20
0.0
 30
0.0
  3
*D72
  1

  0
LINE
  5
5F6
330
5F5
100
AcDbEntity
  8
MEASURE
 62
     9
370
    -2
100
AcDbLine
 10
289.9999922999999
 20
63.60723628053165
 30
0.0
 11
341.0638849230035
 21
63.60723628053164
 31
0.0
  0
LINE
  5
5F7
330
5F5
100
AcDbEntity
  8
MEASURE
 62
     9
370
    -2
100
AcDbLine
 10
302.4207916499999
 20
108.1072210305314
 30
0.0
 11
341.0638849230035
 21
108.1072210305314
 31
0.0
  0
LINE
  5
5F8
330
5F5
100
AcDbEntity
  8
MEASURE
 62
     9
370
    -2
100
AcDbLine
 10
338.0638849230034
 20
67.35723628053164
 30
0.0
 11
338.0638849230034
 21
104.3572210305314
 31
0.0
  0
SOLID
  5
5F9
330
5F5
100
AcDbEntity
  8
MEASURE
 62
     9
100
AcDbTrace
 10
337.4388849230035
 20
67.35723628053164
 30
0.0
 11
338.6888849230035
 21
67.35723628053164
 31
0.0
 12
338.0638849230034
 22
63.60723628053164
 32
0.0
 13
338.0638849230034
 23
63.60723628053164
 33
0.0
  0
SOLID
  5
5FA
330
5F5
100
AcDbEntity
  8
MEASURE
 62
     9
100
AcDbTrace
 10
337.4388849230035
 20
104.3572210305314
 30
0.0
 11
338.6888849230035
 21
104.3572210305314
 31
0.0
 12
338.0638849230034
 22
108.1072210305314
 32
0.0
 13
338.0638849230034
 23
108.1072210305314
 33
0.0
  0
MTEXT
  5
5FB
330
5F5
100
AcDbEntity
  8
MEASURE
 62
     2
100
AcDbMText
 10
335.0638849230035
 20
85.85722865553162
 30
0.0
 40
4.5
 41
0.0
 71
     5
 72
     1
  1
\A1;44.5
  7
AD-STANDARD
 11
0.0000000000000001
 21
1.0
 31
0.0
 73
     1
 44
1.0
  0
POINT
  5
5FC
330
5F5
100
AcDbEntity
  8
DEFPOINTS
 62
     0
100
AcDbPoint
 10
288.4999922999999
 20
63.60723628053165
 30
0.0
  0
POINT
  5
5FD
330
5F5
100
AcDbEntity
  8
DEFPOINTS
 62
     0
100
AcDbPoint
 10
300.92079165
 20
108.1072210305314
 30
0.0
  0
POINT
  5
5FE
330
5F5
100
AcDbEntity
  8
DEFPOINTS
 62
     0
100
AcDbPoint
 10
338.0638849230034
 20
108.1072210305314
 30
0.0
  0
ENDBLK
  5
600
330
5F5
100
AcDbEntity
  8
0
100
AcDbBlockEnd
  0
BLOCK
  5
60C
330
602
100
AcDbEntity
  8
0
100
AcDbBlockBegin
  2
*D73
 70
     1
 10
0.0
 20
0.0
 30
0.0
  3
*D73
  1

  0
LINE
  5
603
330
602
100
AcDbEntity
  8
MEASURE
 62
     9
370
    -2
100
AcDbLine
 10
167.4999961499998
 20
96.60722488053167
 30
0.0
 11
167.4999961499998
 21
138.0156840154977
 31
0.0
  0
LINE
  5
604
330
602
100
AcDbEntity
  8
MEASURE
 62
     9
370
    -2
100
AcDbLine
 10
303.5000152499998
 20
96.60722488053167
 30
0.0
 11
303.5000152499998
 21
138.0156840154977
 31
0.0
  0
LINE
  5
605
330
602
100
AcDbEntity
  8
MEASURE
 62
     9
370
    -2
100
AcDbLine
 10
171.2499961499998
 20
135.0156840154977
 30
0.0
 11
299.7500152499998
 21
135.0156840154977
 31
0.0
  0
SOLID
  5
606
330
602
100
AcDbEntity
  8
MEASURE
 62
     9
100
AcDbTrace
 10
171.2499961499998
 20
135.6406840154977
 30
0.0
 11
171.2499961499998
 21
134.3906840154977
 31
0.0
 12
167.4999961499998
 22
135.0156840154977
 32
0.0
 13
167.4999961499998
 23
135.0156840154977
 33
0.0
  0
SOLID
  5
607
330
602
100
AcDbEntity
  8
MEASURE
 62
     9
100
AcDbTrace
 10
299.7500152499998
 20
135.6406840154977
 30
0.0
 11
299.7500152499998
 21
134.3906840154977
 31
0.0
 12
303.5000152499998
 22
135.0156840154977
 32
0.0
 13
303.5000152499998
 23
135.0156840154977
 33
0.0
  0
MTEXT
  5
608
330
602
100
AcDbEntity
  8
MEASURE
 62
     2
100
AcDbMText
 10
235.5000056999998
 20
138.0156840154977
 30
0.0
 40
4.5
 41
0.0
 71
     5
 72
     1
  1
\A1;136
  7
AD-STANDARD
 73
     1
 44
1.0
  0
POINT
  5
609
330
602
100
AcDbEntity
  8
DEFPOINTS
 62
     0
100
AcDbPoint
 10
167.4999961499998
 20
95.10722488053167
 30
0.0
  0
POINT
  5
60A
330
602
100
AcDbEntity
  8
DEFPOINTS
 62
     0
100
AcDbPoint
 10
303.5000152499998
 20
95.10722488053167
 30
0.0
  0
POINT
  5
60B
330
602
100
AcDbEntity
  8
DEFPOINTS
 62
     0
100
AcDbPoint
 10
303.5000152499998
 20
135.0156840154977
 30
0.0
  0
ENDBLK
  5
60D
330
602
100
AcDbEntity
  8
0
100
AcDbBlockEnd
  0
ENDSEC
  0
SECTION
  2
ENTITIES
  0
LINE
  5
251
330
1E
100
AcDbEntity
  8
1
  6
Continuous
100
AcDbLine
 10
182.5000077
 20
361.2499847499999
 30
0.0
 11
295.5
 21
361.2499847499999
 31
0.0
  0
LINE
  5
255
330
1E
100
AcDbEntity
  8
1
  6
Continuous
 62
     9
100
AcDbLine
 10
164.4999961499998
 20
358.07978815
 30
0.0
 11
164.4999961499998
 21
224.4202346499998
 31
0.0
  0
LINE
  5
256
330
1E
100
AcDbEntity
  8
1
  6
Continuous
 62
     9
100
AcDbLine
 10
165.12890625
 20
230.2499922999998
 30
0.0
 11
167.8144912499998
 21
230.2499922999998
 31
0.0
  0
LINE
  5
257
330
1E
100
AcDbEntity
  8
1
  6
Continuous
 62
     9
100
AcDbLine
 10
165.12890625
 20
352.2499847499998
 30
0.0
 11
167.8144912499998
 21
352.2499847499998
 31
0.0
  0
LINE
  5
258
330
1E
100
AcDbEntity
  8
1
  6
Continuous
 62
     9
100
AcDbLine
 10
167.8144912499998
 20
230.5644532
 30
0.0
 11
164.8144912499998
 21
230.5644532
 31
0.0
  0
LINE
  5
25A
330
1E
100
AcDbEntity
  8
1
  6
Continuous
 62
     9
100
AcDbLine
 10
164.8144912499998
 20
230.5644532
 30
0.0
 11
164.8144912499998
 21
351.9355010499998
 31
0.0
  0
LINE
  5
25B
330
1E
100
AcDbEntity
  8
1
  6
Continuous
 62
     9
100
AcDbLine
 10
164.8144912499998
 20
230.5644532
 30
0.0
 11
165.12890625
 21
230.2499922999998
 31
0.0
  0
LINE
  5
25C
330
1E
100
AcDbEntity
  8
1
  6
Continuous
 62
     9
100
AcDbLine
 10
167.8144912499998
 20
351.9355010499998
 30
0.0
 11
164.8144912499998
 21
351.9355010499998
 31
0.0
  0
LINE
  5
25D
330
1E
100
AcDbEntity
  8
1
  6
Continuous
 62
     9
100
AcDbLine
 10
164.8144912499998
 20
351.9355010499998
 30
0.0
 11
165.12890625
 21
352.2499847499998
 31
0.0
  0
LINE
  5
25F
330
1E
100
AcDbEntity
  8
1
  6
Continuous
 62
     9
100
AcDbLine
 10
163.6289062499999
 20
360.2017974999999
 30
0.0
 11
295.4998398
 21
360.2017974999999
 31
0.0
  0
LINE
  5
262
330
1E
100
AcDbEntity
  8
1
  6
Continuous
 62
     9
100
AcDbLine
 10
163.0068053999998
 20
222.9202576
 30
0.0
 11
116.6970062999999
 21
222.7106246499999
 31
0.0
  0
LINE
  5
263
330
1E
100
AcDbEntity
  8
WORKLAYER
  6
Continuous
 62
     2
100
AcDbLine
 10
116.6827926
 20
222.0360184
 30
0.0
 11
117.4999922999999
 21
222.0360184
 31
0.0
  0
LINE
  5
264
330
1E
100
AcDbEntity
  8
1
  6
Continuous
100
AcDbLine
 10
117.4999922999999
 20
222.0360184
 30
0.0
 11
182.5000077
 21
221.2499922999998
 31
0.0
  0
LINE
  5
267
330
1E
100
AcDbEntity
  8
1
  6
Continuous
100
AcDbLine
 10
117.4999922999999
 20
360.4640045499998
 30
0.0
 11
182.5000077
 21
361.2499847499999
 31
0.0
  0
ARC
  5
26A
330
1E
100
AcDbEntity
  8
1
  6
Continuous
 62
     9
100
AcDbCircle
 10
162.9999961499998
 20
224.4202346499998
 30
0.0
 40
1.5
100
AcDbArc
 50
270.2593994
 51
0.0
  0
ARC
  5
26B
330
1E
100
AcDbEntity
  8
1
  6
Continuous
 62
     9
100
AcDbCircle
 10
163.6289062499999
 20
223.7981567499999
 30
0.0
 40
1.5
100
AcDbArc
 50
270.0
 51
0.0
  0
ARC
  5
26C
330
1E
100
AcDbEntity
  8
1
  6
Continuous
 62
     9
100
AcDbCircle
 10
163.6289062499999
 20
358.7017975
 30
0.0
 40
1.5
100
AcDbArc
 50
0.0
 51
90.0
  0
ARC
  5
26D
330
1E
100
AcDbEntity
  8
1
  6
Continuous
 62
     9
100
AcDbCircle
 10
162.9999961499998
 20
358.07978815
 30
0.0
 40
1.5
100
AcDbArc
 50
0.0
 51
89.74063110000001
  0
LINE
  5
273
330
1E
100
AcDbEntity
  8
1
  6
Continuous
 62
     9
100
AcDbLine
 10
167.8144912499998
 20
228.07064815
 30
0.0
 11
167.4999961499998
 21
227.7561873999999
 31
0.0
  0
LINE
  5
274
330
1E
100
AcDbEntity
  8
1
  6
Continuous
 62
     9
100
AcDbLine
 10
167.8144912499998
 20
228.07064815
 30
0.0
 11
167.8144912499998
 21
354.4293060999998
 31
0.0
  0
LINE
  5
275
330
1E
100
AcDbEntity
  8
1
  6
Continuous
 62
     9
100
AcDbLine
 10
167.8144912499998
 20
354.4293060999998
 30
0.0
 11
167.4999961499998
 21
354.7437896499999
 31
0.0
  0
LINE
  5
279
330
1E
100
AcDbEntity
  8
1
  6
Continuous
100
AcDbLine
 10
302.489502
 20
71.10723628053165
 30
0.0
 11
302.2495651499998
 21
66.52872988053167
 31
0.0
  0
LINE
  5
27B
330
1E
100
AcDbEntity
  8
1
  6
Continuous
 62
     9
100
AcDbLine
 10
115.0893975
 20
85.12907548053163
 30
0.0
 11
118.08760065
 21
71.02393468053165
 31
0.0
  0
ARC
  5
27C
330
1E
100
AcDbEntity
  8
1
  6
Continuous
 62
     9
100
AcDbCircle
 10
123.39410025
 20
70.10722858053165
 30
0.0
 40
5.000000249999998
100
AcDbArc
 50
192.0001068
 51
235.6226044
  0
LINE
  5
27D
330
1E
100
AcDbEntity
  8
1
  6
Continuous
 62
     9
100
AcDbLine
 10
288.4999922999999
 20
64.60723243053164
 30
0.0
 11
288.4999922999999
 21
63.60723628053165
 31
0.0
  0
LINE
  5
27E
330
1E
100
AcDbEntity
  8
1
  6
Continuous
 62
     9
100
AcDbLine
 10
289.9999922999999
 20
65.10723628053165
 30
0.0
 11
289.9999922999999
 21
64.60723243053164
 31
0.0
  0
LINE
  5
27F
330
1E
100
AcDbEntity
  8
1
  6
Continuous
 62
     9
100
AcDbLine
 10
282.4999922999999
 20
64.60723243053164
 30
0.0
 11
282.4999922999999
 21
63.60723628053165
 31
0.0
  0
LINE
  5
280
330
1E
100
AcDbEntity
  8
1
  6
Continuous
 62
     9
100
AcDbLine
 10
280.9999922999999
 20
65.10723628053165
 30
0.0
 11
280.9999922999999
 21
64.60723243053164
 31
0.0
  0
LINE
  5
281
330
1E
100
AcDbEntity
  8
1
  6
Continuous
 62
     9
100
AcDbLine
 10
280.9999922999999
 20
64.60723243053164
 30
0.0
 11
289.9999922999999
 21
64.60723243053164
 31
0.0
  0
LINE
  5
282
330
1E
100
AcDbEntity
  8
1
  6
Continuous
 62
     9
100
AcDbLine
 10
282.4999922999999
 20
63.60723628053165
 30
0.0
 11
288.4999922999999
 21
63.60723628053165
 31
0.0
  0
ARC
  5
283
330
1E
100
AcDbEntity
  8
1
  6
Continuous
 62
     9
100
AcDbCircle
 10
126.99999615
 20
66.44053018053165
 30
0.0
 40
2.833333049999998
100
AcDbArc
 50
208.0724944999999
 51
331.9274901999999
  0
LINE
  5
284
330
1E
100
AcDbEntity
  8
1
  6
Continuous
 62
     9
100
AcDbLine
 10
248.5000077
 20
65.10723628053165
 30
0.0
 11
248.5000077
 21
64.60723243053164
 31
0.0
  0
LINE
  5
285
330
1E
100
AcDbEntity
  8
1
  6
Continuous
 62
     9
100
AcDbLine
 10
222.4999922999998
 20
65.10723628053165
 30
0.0
 11
222.4999922999998
 21
64.60723243053164
 31
0.0
  0
LINE
  5
286
330
1E
100
AcDbEntity
  8
1
  6
Continuous
 62
     9
100
AcDbLine
 10
222.4999922999998
 20
64.60723243053164
 30
0.0
 11
248.5000077
 21
64.60723243053164
 31
0.0
  0
LINE
  5
287
330
1E
100
AcDbEntity
  8
1
  6
Continuous
100
AcDbLine
 10
182.5000077
 20
71.10723628053165
 30
0.0
 11
305.4999847499999
 21
71.10723628053165
 31
0.0
  0
LINE
  5
288
330
1E
100
AcDbEntity
  8
1
  6
Continuous
100
AcDbLine
 10
117.4999922999999
 20
86.10722488053168
 30
0.0
 11
182.5000077
 21
71.10723628053165
 31
0.0
  0
LINE
  5
289
330
1E
100
AcDbEntity
  8
1
  6
Continuous
100
AcDbLine
 10
107.49999615
 20
86.10722488053168
 30
0.0
 11
117.4999922999999
 21
86.10722488053168
 31
0.0
  0
LINE
  5
28A
330
1E
100
AcDbEntity
  8
1
  6
Continuous
100
AcDbLine
 10
107.49999615
 20
86.10722488053168
 30
0.0
 11
108.06418995
 21
96.87358603053164
 31
0.0
  0
LINE
  5
28B
330
1E
100
AcDbEntity
  8
1
  6
Continuous
 62
     9
100
AcDbLine
 10
112.3572922499999
 20
87.10584778053165
 30
0.0
 11
112.8430938
 21
96.37426888053168
 31
0.0
  0
ARC
  5
28C
330
1E
100
AcDbEntity
  8
1
  6
Continuous
 62
     9
100
AcDbCircle
 10
114.3892936499999
 20
97.21741243053163
 30
0.0
 40
1.5
100
AcDbArc
 50
133.1970062
 51
176.9998931999999
  0
LINE
  5
28F
330
1E
100
AcDbEntity
  8
1
  6
Continuous
 62
     9
100
AcDbLine
 10
164.8144912499998
 20
97.10722858053168
 30
0.0
 11
167.6048928
 21
97.10722858053168
 31
0.0
  0
LINE
  5
290
330
1E
100
AcDbEntity
  8
1
  6
Continuous
100
AcDbLine
 10
166.0778961
 20
91.10722858053165
 30
0.0
 11
303.50287635
 21
91.10722858053165
 31
0.0
  0
LINE
  5
291
330
1E
100
AcDbEntity
  8
1
  6
Continuous
 62
     9
100
AcDbLine
 10
172.5
 20
91.10725153053166
 30
0.0
 11
172.7096099999998
 21
95.10722488053167
 31
0.0
  0
LINE
  5
292
330
1E
100
AcDbEntity
  8
1
  6
Continuous
 62
     9
100
AcDbLine
 10
298.4999999999999
 20
91.10722858053165
 30
0.0
 11
298.2903672
 21
95.10722488053167
 31
0.0
  0
LINE
  5
298
330
1E
100
AcDbEntity
  8
1
  6
Continuous
100
AcDbLine
 10
468.0
 20
352.2499847499998
 30
0.0
 11
468.50001525
 21
352.2499847499998
 31
0.0
  0
LINE
  5
299
330
1E
100
AcDbEntity
  8
1
  6
Continuous
100
AcDbLine
 10
468.50001525
 20
230.2499922999998
 30
0.0
 11
468.50001525
 21
352.2499847499998
 31
0.0
  0
LINE
  5
29A
330
1E
100
AcDbEntity
  8
1
  6
Continuous
100
AcDbLine
 10
468.0
 20
230.2499922999998
 30
0.0
 11
468.50001525
 21
230.2499922999998
 31
0.0
  0
LINE
  5
29B
330
1E
100
AcDbEntity
  8
1
  6
Continuous
100
AcDbLine
 10
462.0
 20
358.239502
 30
0.0
 11
466.5785064
 21
357.9995879499999
 31
0.0
  0
LINE
  5
29D
330
1E
100
AcDbEntity
  8
1
  6
Continuous
100
AcDbLine
 10
462.0
 20
221.25001525
 30
0.0
 11
462.0
 21
361.2499847499999
 31
0.0
  0
LINE
  5
2A0
330
1E
100
AcDbEntity
  8
1
  6
Continuous
100
AcDbLine
 10
442.9472809499999
 20
222.2485351
 30
0.0
 11
462.0
 21
221.25001525
 31
0.0
  0
LINE
  5
2A1
330
1E
100
AcDbEntity
  8
1
  6
Continuous
100
AcDbLine
 10
438.0
 20
228.4596327999998
 30
0.0
 11
441.9999847499999
 21
228.2499999999998
 31
0.0
  0
LINE
  5
2A2
330
1E
100
AcDbEntity
  8
1
  6
Continuous
100
AcDbLine
 10
438.0
 20
354.0402985
 30
0.0
 11
441.9999847499999
 21
354.2499999999999
 31
0.0
  0
LINE
  5
2A5
330
1E
100
AcDbEntity
  8
1
  6
Continuous
 62
     9
100
AcDbLine
 10
462.0
 20
309.2499999999998
 30
0.0
 11
446.00001525
 21
309.2499999999998
 31
0.0
  0
CIRCLE
  5
2A6
330
1E
100
AcDbEntity
  8
1
  6
Continuous
 62
     9
100
AcDbCircle
 10
453.9999847499999
 20
319.2500077
 30
0.0
 40
4.5
  0
TEXT
  5
2A7
330
1E
100
AcDbEntity
  8
1
  6
Continuous
 62
     9
100
AcDbText
 10
446.4999924249999
 20
311.335715815
 30
0.0
 40
2.000000099999998
  1
DC6V～10V
 50
90.0
  7
AD-STANDARD
 72
     1
 11
445.4999923749999
 21
319.250001925
 31
0.0
100
AcDbText
 73
     2
  0
TEXT
  5
2A8
330
1E
100
AcDbEntity
  8
1
  6
Continuous
 62
     9
100
AcDbText
 10
448.7499847499999
 20
312.3585561785713
 30
0.0
 40
1.8
  1
+
 50
90.0
 41
0.8
  7
AD-STANDARD
 72
     1
 11
447.84998475
 21
313.2499847499999
 31
0.0
100
AcDbText
 73
     2
  0
TEXT
  5
2A9
330
1E
100
AcDbEntity
  8
1
  6
Continuous
 62
     9
100
AcDbText
 10
448.7499847499999
 20
324.3585791285715
 30
0.0
 40
1.8
  1
-
 50
90.0
 41
0.8
  7
AD-STANDARD
 72
     1
 11
447.84998475
 21
325.2500077
 31
0.0
100
AcDbText
 73
     2
  0
CIRCLE
  5
2AA
330
1E
100
AcDbEntity
  8
1
  6
Continuous
 62
     9
100
AcDbCircle
 10
447.9999847499999
 20
325.2500077
 30
0.0
 40
1.000000049999999
  0
CIRCLE
  5
2AB
330
1E
100
AcDbEntity
  8
1
  6
Continuous
 62
     9
100
AcDbCircle
 10
447.9999847499999
 20
313.2499847499999
 30
0.0
 40
1.000000049999999
  0
ARC
  5
2AC
330
1E
100
AcDbEntity
  8
1
  6
Continuous
 62
     9
100
AcDbCircle
 10
447.9999847499999
 20
319.2500077
 30
0.0
 40
1.000000049999999
100
AcDbArc
 50
119.9999008
 51
60.000061
  0
CIRCLE
  5
2AD
330
1E
100
AcDbEntity
  8
1
  6
Continuous
 62
     9
100
AcDbCircle
 10
447.9999847499999
 20
319.2500077
 30
0.0
 40
0.3
  0
LINE
  5
2AE
330
1E
100
AcDbEntity
  8
1
  6
Continuous
 62
     9
100
AcDbLine
 10
447.9999847499999
 20
319.5500030499998
 30
0.0
 11
447.9999847499999
 21
324.25
 31
0.0
  0
LINE
  5
2AF
330
1E
100
AcDbEntity
  8
1
  6
Continuous
 62
     9
100
AcDbLine
 10
447.9999847499999
 20
314.2499922999999
 30
0.0
 11
447.9999847499999
 21
318.25
 31
0.0
  0
LINE
  5
2B1
330
1E
100
AcDbEntity
  8
1
  6
Continuous
100
AcDbLine
 10
468.50001525
 20
244.2500077
 30
0.0
 11
469.5
 21
244.2500077
 31
0.0
  0
LINE
  5
2B2
330
1E
100
AcDbEntity
  8
1
  6
Continuous
100
AcDbLine
 10
468.0
 20
245.7500077
 30
0.0
 11
468.50001525
 21
245.7500077
 31
0.0
  0
LINE
  5
2B3
330
1E
100
AcDbEntity
  8
1
  6
Continuous
100
AcDbLine
 10
468.50001525
 20
238.2500077
 30
0.0
 11
469.5
 21
238.2500077
 31
0.0
  0
LINE
  5
2B4
330
1E
100
AcDbEntity
  8
1
  6
Continuous
100
AcDbLine
 10
468.0
 20
236.7500077
 30
0.0
 11
468.50001525
 21
236.7500077
 31
0.0
  0
LINE
  5
2B5
330
1E
100
AcDbEntity
  8
1
  6
Continuous
100
AcDbLine
 10
469.5
 20
238.2500077
 30
0.0
 11
469.5
 21
244.2500077
 31
0.0
  0
ARC
  5
2B6
330
1E
100
AcDbEntity
  8
1
  6
Continuous
100
AcDbCircle
 10
466.6667174999999
 20
247.2500077
 30
0.0
 40
2.833333049999998
100
AcDbArc
 50
310.3200988999998
 51
49.6799316
  0
LINE
  5
2B7
330
1E
100
AcDbEntity
  8
1
  6
Continuous
100
AcDbLine
 10
468.50001525
 20
338.2499922999999
 30
0.0
 11
469.5
 21
338.2499922999999
 31
0.0
  0
LINE
  5
2B8
330
1E
100
AcDbEntity
  8
1
  6
Continuous
100
AcDbLine
 10
468.0
 20
336.7499922999999
 30
0.0
 11
468.50001525
 21
336.7499922999999
 31
0.0
  0
LINE
  5
2B9
330
1E
100
AcDbEntity
  8
1
  6
Continuous
100
AcDbLine
 10
468.50001525
 20
344.25001525
 30
0.0
 11
469.5
 21
344.25001525
 31
0.0
  0
LINE
  5
2BA
330
1E
100
AcDbEntity
  8
1
  6
Continuous
100
AcDbLine
 10
468.0
 20
345.75001525
 30
0.0
 11
468.50001525
 21
345.75001525
 31
0.0
  0
ARC
  5
2BB
330
1E
100
AcDbEntity
  8
1
  6
Continuous
100
AcDbCircle
 10
466.6667174999999
 20
335.2499922999999
 30
0.0
 40
2.833333049999998
100
AcDbArc
 50
310.3200988999998
 51
49.6799316
  0
LINE
  5
2BC
330
1E
100
AcDbEntity
  8
1
  6
Continuous
100
AcDbLine
 10
469.5
 20
344.25001525
 30
0.0
 11
469.5
 21
338.2499922999999
 31
0.0
  0
TEXT
  5
2C7
330
1E
100
AcDbEntity
  8
1
  6
Continuous
 62
     9
100
AcDbText
 10
149.5000076999998
 20
251.8499831499998
 30
0.0
 40
3.0
  1
HL-400
 50
269.9999157090441
 41
0.9749994281260574
 72
     5
 11
149.4999847499998
 21
236.2499922999998
 31
0.0
100
AcDbText
  0
TEXT
  5
2C9
330
1E
100
AcDbEntity
  8
1
  6
Continuous
 62
     9
100
AcDbText
 10
132.7502635466858
 20
343.2738173742857
 30
0.0
 40
2.50000005
  1
ZERO
 50
270.0
 41
0.8
  7
AD-STANDARD
 72
     2
 11
134.0002635716858
 21
335.7500077
 31
0.0
100
AcDbText
 73
     2
  0
TEXT
  5
2CA
330
1E
100
AcDbEntity
  8
1
 62
     9
100
AcDbText
 10
120.9
 20
346.2499999999999
 30
0.0
 40
3.0
  1
Cap.  400g X 0.1g  14oz X 0.01oz
 50
270.0
 41
0.8
  7
AD-STANDARD
 11
120.5
 21
346.2499999999999
 31
0.0
100
AcDbText
 73
     1
  0
TEXT
  5
2CD
330
1E
100
AcDbEntity
  8
SNOTE
 62
     3
100
AcDbText
 10
93.3333282
 20
243.0666504
 30
0.0
 40
2.0
  1
　
 50
270.0
 41
0.4
  7
KANJI
 72
     5
 11
93.3333282
 21
242.2666626
 31
0.0
100
AcDbText
  0
TEXT
  5
2CF
330
1E
100
AcDbEntity
  8
SNOTE
 62
     3
100
AcDbText
 10
93.3333282
 20
240.6666565
 30
0.0
 40
2.0
  1
　
 50
270.0
 41
0.4
  7
KANJI
 72
     5
 11
93.3333282
 21
239.8666686999999
 31
0.0
100
AcDbText
  0
TEXT
  5
2D3
330
1E
100
AcDbEntity
  8
SNOTE
 62
     3
100
AcDbText
 10
93.3333282
 20
226.2666321
 30
0.0
 40
2.0
  1
　
 50
270.0
 41
0.4
  7
KANJI
 72
     5
 11
93.3333282
 21
225.4666443
 31
0.0
100
AcDbText
  0
TEXT
  5
2D5
330
1E
100
AcDbEntity
  8
SNOTE
 62
     3
100
AcDbText
 10
93.3333282
 20
223.8666381999999
 30
0.0
 40
2.0
  1
　
 50
270.0
 41
0.4
  7
KANJI
 72
     5
 11
93.3333282
 21
223.0666504
 31
0.0
100
AcDbText
  0
TEXT
  5
2E5
330
1E
100
AcDbEntity
  8
1
  6
Continuous
 62
     9
100
AcDbText
 10
135.0
 20
247.1035675785714
 30
0.0
 40
3.0
  1
RE-ZERO
 50
270.0
 41
0.55
  7
AD-STANDARD
 72
     1
 11
136.4999999999999
 21
241.24999615
 31
0.0
100
AcDbText
 73
     2
  0
INSERT
  5
30F
330
1E
100
AcDbEntity
  8
DEFPOINTS
100
AcDbBlockReference
  2
DXF63
 10
0.0
 20
-32.24999999999998
 30
0.0
 41
1.5
 42
1.5
 43
1.5
  0
TEXT
  5
314
330
1E
100
AcDbEntity
  8
WORKLAYER
 62
     1
100
AcDbText
 10
263.8125
 20
35.75
 30
0.0
 40
2.5
  1
　
 41
0.65
  7
KANJI
 72
     5
 11
265.0625
 21
35.75
 31
0.0
100
AcDbText
  0
DIMENSION
  5
4CB
330
1E
100
AcDbEntity
  8
MEASURE
100
AcDbDimension
  2
*D68
 10
407.0
 20
223.2500077
 30
0.0
 11
403.9999999999999
 21
291.250011475
 31
0.0
 70
    32
 71
     5
 42
136.0000075499998
  3
AD-STANDARD
100
AcDbAlignedDimension
 13
438.0
 23
359.2500152499998
 33
0.0
 14
438.0
 24
223.2500077
 34
0.0
 50
90.0
100
AcDbRotatedDimension
1001
ACAD
1000
DSTYLE
1002
{
1070
    40
1040
1.5
1002
}
  0
LINE
  5
4D8
330
1E
100
AcDbEntity
  8
1
  6
Continuous
100
AcDbLine
 10
425.00001525
 20
356.67079165
 30
0.0
 11
425.00001525
 21
225.8292312999998
 31
0.0
  0
LINE
  5
4D9
330
1E
100
AcDbEntity
  8
1
  6
Continuous
100
AcDbLine
 10
426.8952941999999
 20
223.8319625499999
 30
0.0
 11
438.0
 21
223.2500077
 31
0.0
  0
LINE
  5
4DA
330
1E
100
AcDbEntity
  8
1
  6
Continuous
100
AcDbLine
 10
438.0
 20
223.2500077
 30
0.0
 11
438.0
 21
359.2500152499998
 31
0.0
  0
LINE
  5
4DB
330
1E
100
AcDbEntity
  8
1
  6
Continuous
100
AcDbLine
 10
438.0
 20
359.2500152499998
 30
0.0
 11
426.8952941999999
 21
358.6680145
 31
0.0
  0
ARC
  5
4DC
330
1E
100
AcDbEntity
  8
1
  6
Continuous
100
AcDbCircle
 10
426.9999847499999
 20
356.67079165
 30
0.0
 40
2.000000099999998
100
AcDbArc
 50
93.00012209999996
 51
180.0
  0
ARC
  5
4DD
330
1E
100
AcDbEntity
  8
1
  6
Continuous
100
AcDbCircle
 10
426.9999847499999
 20
225.8292312999998
 30
0.0
 40
2.000000099999998
100
AcDbArc
 50
180.0
 51
266.9999084
  0
LINE
  5
4DE
330
1E
100
AcDbEntity
  8
1
  6
Continuous
100
AcDbLine
 10
441.9996185999998
 20
223.2471466
 30
0.0
 11
441.9999847499999
 21
359.25289915
 31
0.0
  0
ARC
  5
4DF
330
1E
100
AcDbEntity
  8
1
  6
Continuous
100
AcDbCircle
 10
442.9996032
 20
223.2471466
 30
0.0
 40
1.000000049999999
100
AcDbArc
 50
180.0
 51
266.9999084
  0
LINE
  5
4E0
330
1E
100
AcDbEntity
  8
1
  6
Continuous
100
AcDbLine
 10
468.0
 20
225.9983748999999
 30
0.0
 11
468.0
 21
356.5016021499999
 31
0.0
  0
ARC
  5
4E1
330
1E
100
AcDbEntity
  8
1
  6
Continuous
100
AcDbCircle
 10
466.5
 20
356.5016021499999
 30
0.0
 40
1.5
100
AcDbArc
 50
0.0
 51
86.9999084000001
  0
LINE
  5
4E2
330
1E
100
AcDbEntity
  8
1
  6
Continuous
100
AcDbLine
 10
462.0
 20
224.2604752
 30
0.0
 11
466.5785064
 21
224.5004348499999
 31
0.0
  0
ARC
  5
4E3
330
1E
100
AcDbEntity
  8
1
  6
Continuous
100
AcDbCircle
 10
466.5
 20
225.9983748999999
 30
0.0
 40
1.5
100
AcDbArc
 50
273.0000916
 51
0.0
  0
LINE
  5
4E4
330
1E
100
AcDbEntity
  8
1
  6
Continuous
 62
     9
100
AcDbLine
 10
462.0
 20
329.2499922999999
 30
0.0
 11
446.00001525
 21
329.2499922999999
 31
0.0
  0
ARC
  5
4E5
330
1E
100
AcDbEntity
  8
1
  6
Continuous
 62
     9
100
AcDbCircle
 10
446.00001525
 20
327.2499999999999
 30
0.0
 40
2.000000099999998
100
AcDbArc
 50
90.0
 51
180.0
  0
LINE
  5
4E6
330
1E
100
AcDbEntity
  8
1
  6
Continuous
 62
     9
100
AcDbLine
 10
444.0
 20
311.2499922999999
 30
0.0
 11
444.0
 21
327.2499999999999
 31
0.0
  0
ARC
  5
4E7
330
1E
100
AcDbEntity
  8
1
  6
Continuous
 62
     9
100
AcDbCircle
 10
446.00001525
 20
311.2499922999999
 30
0.0
 40
2.000000099999998
100
AcDbArc
 50
180.0
 51
270.0
  0
LINE
  5
4E8
330
1E
100
AcDbEntity
  8
1
  6
Continuous
100
AcDbLine
 10
442.9476013499997
 20
360.2515106499998
 30
0.0
 11
462.0
 21
361.2499847499999
 31
0.0
  0
ARC
  5
4E9
330
1E
100
AcDbEntity
  8
1
  6
Continuous
100
AcDbCircle
 10
443.00001525
 20
359.25289915
 30
0.0
 40
1.000000049999999
100
AcDbArc
 50
93.00012209999996
 51
180.0
  0
LINE
  5
4FE
330
1E
100
AcDbEntity
  8
NOTE
 62
     7
100
AcDbLine
 10
509.0000004138164
 20
46.99999970592415
 30
0.0
 11
557.0000004138161
 21
46.99999970592415
 31
0.0
  0
TEXT
  5
4FF
330
1E
100
AcDbEntity
  8
NOTE
100
AcDbText
 10
518.7714289852452
 20
98.37499970592411
 30
0.0
 40
4.5
  1
HL-200EG
 41
0.8
  7
AD-STANDARD
 72
     4
 11
533.0000004138167
 21
100.624999705924
 31
0.0
100
AcDbText
  0
TEXT
  5
500
330
1E
100
AcDbEntity
  8
NOTE
100
AcDbText
 10
518.7714289852452
 20
88.62499970592409
 30
0.0
 40
4.5
  1
HL-400EG
 41
0.8
  7
AD-STANDARD
 72
     4
 11
533.0000004138167
 21
90.87499970592409
 31
0.0
100
AcDbText
  0
TEXT
  5
501
330
1E
100
AcDbEntity
  8
NOTE
100
AcDbText
 10
517.0571432709592
 20
78.87499970592407
 30
0.0
 40
4.5
  1
HL-2000EG
 41
0.8
  7
AD-STANDARD
 72
     4
 11
533.0000004138164
 21
81.12499970592407
 31
0.0
100
AcDbText
  0
TEXT
  5
502
330
1E
100
AcDbEntity
  8
NOTE
100
AcDbText
 10
517.0571432709592
 20
69.12499970592405
 30
0.0
 40
4.5
  1
HL-4000EG
 41
0.8
  7
AD-STANDARD
 72
     4
 11
533.0000004138164
 21
71.37499970592405
 31
0.0
100
AcDbText
  0
LINE
  5
504
330
1E
100
AcDbEntity
  8
NOTE
 62
     7
100
AcDbLine
 10
509.0000004138166
 20
85.99999970592406
 30
0.0
 11
557.0000004138166
 21
85.99999970592406
 31
0.0
  0
LINE
  5
505
330
1E
100
AcDbEntity
  8
NOTE
 62
     7
100
AcDbLine
 10
509.0000004138166
 20
76.24999970592407
 30
0.0
 11
557.0000004138166
 21
76.24999970592407
 31
0.0
  0
LINE
  5
506
330
1E
100
AcDbEntity
  8
NOTE
 62
     7
100
AcDbLine
 10
509.0000004138166
 20
66.49999970592411
 30
0.0
 11
557.0000004138166
 21
66.49999970592411
 31
0.0
  0
LINE
  5
507
330
1E
100
AcDbEntity
  8
NOTE
 62
     7
100
AcDbLine
 10
509.0000004138164
 20
56.74999970592411
 30
0.0
 11
557.0000004138166
 21
56.74999970592411
 31
0.0
  0
LINE
  5
508
330
1E
100
AcDbEntity
  8
NOTE
 62
     7
100
AcDbLine
 10
509.0000004138166
 20
95.74999970592411
 30
0.0
 11
557.0000004138166
 21
95.74999970592411
 31
0.0
  0
LINE
  5
509
330
1E
100
AcDbEntity
  8
NOTE
 62
     7
100
AcDbLine
 10
509.0000004138166
 20
105.499999705924
 30
0.0
 11
557.0000004138166
 21
105.499999705924
 31
0.0
  0
LINE
  5
50B
330
1E
100
AcDbEntity
  8
NOTE
 62
     7
100
AcDbLine
 10
509.0000004138164
 20
46.99999970592415
 30
0.0
 11
509.0000004138167
 21
105.4999997059241
 31
0.0
  0
LINE
  5
50C
330
1E
100
AcDbEntity
  8
NOTE
 62
     7
100
AcDbLine
 10
557.0000004138161
 20
46.99999970592415
 30
0.0
 11
557.0000004138168
 21
105.4999997059241
 31
0.0
  0
LINE
  5
50D
330
1E
100
AcDbEntity
  8
1
  6
Continuous
100
AcDbLine
 10
169.5002976
 20
358.5686798499998
 30
0.0
 11
295.49972535
 21
358.5686798499998
 31
0.0
  0
ARC
  5
50E
330
1E
100
AcDbEntity
  8
1
  6
Continuous
100
AcDbCircle
 10
169.5002976
 20
357.2496796
 30
0.0
 40
1.319000099999999
100
AcDbArc
 50
90.0
 51
180.0
  0
LINE
  5
50F
330
1E
100
AcDbEntity
  8
1
  6
Continuous
100
AcDbLine
 10
182.5000077
 20
221.2499922999999
 30
0.0
 11
295.5
 21
221.2499922999999
 31
0.0
  0
ARC
  5
510
330
1E
100
AcDbEntity
  8
1
  6
Continuous
100
AcDbCircle
 10
295.5
 20
231.25
 30
0.0
 40
10.00000049999999
100
AcDbArc
 50
270.0
 51
0.0
  0
LINE
  5
511
330
1E
100
AcDbEntity
  8
1
  6
Continuous
 62
     9
100
AcDbLine
 10
295.4998398
 20
222.2981567499998
 30
0.0
 11
163.6289062499999
 21
222.2981567499998
 31
0.0
  0
ARC
  5
512
330
1E
100
AcDbEntity
  8
1
  6
Continuous
 62
     9
100
AcDbCircle
 10
295.4998398
 20
231.25018315
 30
0.0
 40
8.951999849999999
100
AcDbArc
 50
270.0
 51
0.0
  0
LINE
  5
513
330
1E
100
AcDbEntity
  8
1
  6
Continuous
 62
     9
100
AcDbLine
 10
167.4999961499998
 20
357.25
 30
0.0
 11
167.4999961499998
 21
354.7436981499998
 31
0.0
  0
LINE
  5
514
330
1E
100
AcDbEntity
  8
1
  6
Continuous
 62
     9
100
AcDbLine
 10
167.4999961499998
 20
227.7561873999999
 30
0.0
 11
167.4999961499998
 21
225.2499999999999
 31
0.0
  0
LINE
  5
515
330
1E
100
AcDbEntity
  8
1
  6
Continuous
 62
     9
100
AcDbLine
 10
169.5
 20
223.2500077
 30
0.0
 11
295.5000229499999
 21
223.2500305
 31
0.0
  0
LINE
  5
516
330
1E
100
AcDbEntity
  8
1
  6
Continuous
 62
     9
100
AcDbLine
 10
303.5000152499998
 20
231.25
 30
0.0
 11
303.5000152499998
 21
351.25
 31
0.0
  0
LINE
  5
517
330
1E
100
AcDbEntity
  8
1
  6
Continuous
 62
     9
100
AcDbLine
 10
295.5000229499999
 20
359.2500152499998
 30
0.0
 11
169.5
 21
359.2500152499998
 31
0.0
  0
ARC
  5
518
330
1E
100
AcDbEntity
  8
1
  6
Continuous
 62
     9
100
AcDbCircle
 10
295.5000229499999
 20
231.25
 30
0.0
 40
8.000000249999999
100
AcDbArc
 50
270.0
 51
0.0
  0
ARC
  5
519
330
1E
100
AcDbEntity
  8
1
  6
Continuous
 62
     9
100
AcDbCircle
 10
295.5000229499999
 20
351.25
 30
0.0
 40
8.000000249999999
100
AcDbArc
 50
0.0
 51
90.0
  0
ARC
  5
51A
330
1E
100
AcDbEntity
  8
1
  6
Continuous
 62
     9
100
AcDbCircle
 10
169.5
 20
357.25
 30
0.0
 40
2.000000099999998
100
AcDbArc
 50
90.0
 51
180.0
  0
ARC
  5
51B
330
1E
100
AcDbEntity
  8
1
  6
Continuous
 62
     9
100
AcDbCircle
 10
169.5
 20
225.2499999999999
 30
0.0
 40
2.000000099999998
100
AcDbArc
 50
180.0
 51
270.0
  0
LINE
  5
51C
330
1E
100
AcDbEntity
  8
1
  6
Continuous
100
AcDbLine
 10
169.5002976
 20
223.9312973499999
 30
0.0
 11
295.49972535
 21
223.9312973499999
 31
0.0
  0
ARC
  5
51D
330
1E
100
AcDbEntity
  8
1
  6
Continuous
100
AcDbCircle
 10
295.49972535
 20
231.2502976
 30
0.0
 40
7.319000249999998
100
AcDbArc
 50
270.0
 51
0.0
  0
LINE
  5
51E
330
1E
100
AcDbEntity
  8
WORKLAYER
  6
Continuous
 62
     2
100
AcDbLine
 10
116.6827926
 20
360.4640045499999
 30
0.0
 11
117.4999923
 21
360.4640045499999
 31
0.0
  0
ARC
  5
51F
330
1E
100
AcDbEntity
  8
1
  6
Continuous
100
AcDbCircle
 10
116.6827926
 20
355.4639892999998
 30
0.0
 40
5.000000249999998
100
AcDbArc
 50
90.0
 51
172.5464019999998
  0
LINE
  5
520
330
1E
100
AcDbEntity
  8
1
  6
Continuous
 62
     9
100
AcDbLine
 10
163.0068053999998
 20
359.5796966499998
 30
0.0
 11
116.6970062999999
 21
359.78939815
 31
0.0
  0
ARC
  5
521
330
1E
100
AcDbEntity
  8
1
  6
Continuous
 62
     9
100
AcDbCircle
 10
116.6771965499999
 20
355.4214172
 30
0.0
 40
4.368000299999998
100
AcDbArc
 50
89.74060059999997
 51
172.5514068999999
  0
LINE
  5
522
330
1E
100
AcDbEntity
  8
1
  6
Continuous
 62
     9
100
AcDbLine
 10
165.12890625
 20
223.7981567499998
 30
0.0
 11
165.12890625
 21
230.2499922999999
 31
0.0
  0
LINE
  5
523
330
1E
100
AcDbEntity
  8
1
  6
Continuous
 62
     9
100
AcDbLine
 10
165.12890625
 20
352.2499847499998
 30
0.0
 11
165.12890625
 21
358.7017975
 31
0.0
  0
LINE
  5
524
330
1E
100
AcDbEntity
  8
1
  6
Continuous
 62
     9
100
AcDbLine
 10
130.4999999999999
 20
264.25
 30
0.0
 11
130.4999999999999
 21
253.2499847499999
 31
0.0
  0
LINE
  5
525
330
1E
100
AcDbEntity
  8
1
  6
Continuous
 62
     9
100
AcDbLine
 10
132.0
 20
251.7499847499998
 30
0.0
 11
141.0
 21
251.7499847499998
 31
0.0
  0
LINE
  5
526
330
1E
100
AcDbEntity
  8
1
  6
Continuous
 62
     9
100
AcDbLine
 10
142.5
 20
253.2499847499999
 30
0.0
 11
142.5
 21
264.25
 31
0.0
  0
LINE
  5
527
330
1E
100
AcDbEntity
  8
1
  6
Continuous
 62
     9
100
AcDbLine
 10
141.0
 20
265.75
 30
0.0
 11
132.0
 21
265.75
 31
0.0
  0
ARC
  5
528
330
1E
100
AcDbEntity
  8
1
  6
Continuous
 62
     9
100
AcDbCircle
 10
141.0
 20
253.2499847499999
 30
0.0
 40
1.5
100
AcDbArc
 50
270.0
 51
0.0
  0
ARC
  5
529
330
1E
100
AcDbEntity
  8
1
  6
Continuous
 62
     9
100
AcDbCircle
 10
141.0
 20
264.25
 30
0.0
 40
1.5
100
AcDbArc
 50
0.0
 51
90.0
  0
ARC
  5
52A
330
1E
100
AcDbEntity
  8
1
  6
Continuous
 62
     9
100
AcDbCircle
 10
132.0
 20
264.25
 30
0.0
 40
1.5
100
AcDbArc
 50
90.0
 51
180.0
  0
ARC
  5
52B
330
1E
100
AcDbEntity
  8
1
  6
Continuous
 62
     9
100
AcDbCircle
 10
132.0
 20
253.2499847499999
 30
0.0
 40
1.5
100
AcDbArc
 50
180.0
 51
270.0
  0
LINE
  5
52C
330
1E
100
AcDbEntity
  8
1
  6
Continuous
 62
     9
100
AcDbLine
 10
130.9999923
 20
264.25
 30
0.0
 11
130.9999923
 21
253.2499847499999
 31
0.0
  0
LINE
  5
52D
330
1E
100
AcDbEntity
  8
1
  6
Continuous
 62
     9
100
AcDbLine
 10
132.0
 20
252.2499999999999
 30
0.0
 11
141.0
 21
252.2499999999999
 31
0.0
  0
LINE
  5
52E
330
1E
100
AcDbEntity
  8
1
  6
Continuous
 62
     9
100
AcDbLine
 10
141.9999961499998
 20
253.2499847499999
 30
0.0
 11
141.9999961499998
 21
264.25
 31
0.0
  0
LINE
  5
52F
330
1E
100
AcDbEntity
  8
1
  6
Continuous
 62
     9
100
AcDbLine
 10
141.0
 20
265.2499847499999
 30
0.0
 11
132.0
 21
265.2499847499999
 31
0.0
  0
ARC
  5
530
330
1E
100
AcDbEntity
  8
1
  6
Continuous
 62
     9
100
AcDbCircle
 10
141.0
 20
253.2499847499999
 30
0.0
 40
1.000000049999999
100
AcDbArc
 50
270.0
 51
0.0
  0
ARC
  5
531
330
1E
100
AcDbEntity
  8
1
  6
Continuous
 62
     9
100
AcDbCircle
 10
141.0
 20
264.25
 30
0.0
 40
1.000000049999999
100
AcDbArc
 50
0.0
 51
90.0
  0
ARC
  5
532
330
1E
100
AcDbEntity
  8
1
  6
Continuous
 62
     9
100
AcDbCircle
 10
132.0
 20
264.25
 30
0.0
 40
1.000000049999999
100
AcDbArc
 50
90.0
 51
180.0
  0
ARC
  5
533
330
1E
100
AcDbEntity
  8
1
  6
Continuous
 62
     9
100
AcDbCircle
 10
132.0
 20
253.2499847499999
 30
0.0
 40
1.000000049999999
100
AcDbArc
 50
180.0
 51
270.0
  0
LINE
  5
534
330
1E
100
AcDbEntity
  8
1
  6
Continuous
 62
     9
100
AcDbLine
 10
156.4999923
 20
351.25
 30
0.0
 11
156.4999923
 21
231.25
 31
0.0
  0
ARC
  5
535
330
1E
100
AcDbEntity
  8
1
  6
Continuous
 62
     9
100
AcDbCircle
 10
154.4999999999999
 20
351.25
 30
0.0
 40
2.000000099999998
100
AcDbArc
 50
0.0
 51
90.0
  0
LINE
  5
536
330
1E
100
AcDbEntity
  8
1
  6
Continuous
 62
     9
100
AcDbLine
 10
147.9999961499998
 20
231.25
 30
0.0
 11
147.9999961499998
 21
351.25
 31
0.0
  0
LINE
  5
537
330
1E
100
AcDbEntity
  8
1
  6
Continuous
 62
     9
100
AcDbLine
 10
147.9999961499998
 20
351.25
 30
0.0
 11
148.5
 21
351.25
 31
0.0
  0
LINE
  5
538
330
1E
100
AcDbEntity
  8
1
  6
Continuous
 62
     9
100
AcDbLine
 10
148.5
 20
351.25
 30
0.0
 11
148.5
 21
231.25
 31
0.0
  0
LINE
  5
539
330
1E
100
AcDbEntity
  8
WORKLAYER
  6
Continuous
 62
     3
100
AcDbLine
 10
148.5
 20
231.25
 30
0.0
 11
147.9999961499998
 21
231.25
 31
0.0
  0
LINE
  5
53A
330
1E
100
AcDbEntity
  8
1
  6
Continuous
 62
     9
100
AcDbLine
 10
124.9999923
 20
231.25
 30
0.0
 11
124.9999923
 21
351.25
 31
0.0
  0
LINE
  5
53B
330
1E
100
AcDbEntity
  8
1
  6
Continuous
 62
     9
100
AcDbLine
 10
124.9999923
 20
351.25
 30
0.0
 11
124.5
 21
351.25
 31
0.0
  0
LINE
  5
53C
330
1E
100
AcDbEntity
  8
1
  6
Continuous
 62
     9
100
AcDbLine
 10
124.5
 20
351.25
 30
0.0
 11
124.5
 21
231.25
 31
0.0
  0
LINE
  5
53D
330
1E
100
AcDbEntity
  8
WORKLAYER
  6
Continuous
 62
     3
100
AcDbLine
 10
124.5
 20
231.25
 30
0.0
 11
124.9999923
 21
231.25
 31
0.0
  0
ARC
  5
53E
330
1E
100
AcDbEntity
  8
1
  6
Continuous
100
AcDbCircle
 10
607.5
 20
291.25
 30
0.0
 40
500.00001525
100
AcDbArc
 50
172.5462951999999
 51
187.4537048
  0
ARC
  5
53F
330
1E
100
AcDbEntity
  8
1
  6
Continuous
100
AcDbCircle
 10
116.6827926
 20
227.0360107
 30
0.0
 40
5.000000249999998
100
AcDbArc
 50
187.4535979999998
 51
270.0
  0
ARC
  5
540
330
1E
100
AcDbEntity
  8
1
  6
Continuous
 62
     9
100
AcDbCircle
 10
607.5
 20
291.25
 30
0.0
 40
499.3680267000001
100
AcDbArc
 50
172.5512999999999
 51
187.4487
  0
ARC
  5
541
330
1E
100
AcDbEntity
  8
1
  6
Continuous
 62
     9
100
AcDbCircle
 10
116.6771965499999
 20
227.0785827999998
 30
0.0
 40
4.368000299999998
100
AcDbArc
 50
187.4485930999998
 51
270.2593994
  0
ARC
  5
542
330
1E
100
AcDbEntity
  8
1
  6
Continuous
 62
     9
100
AcDbCircle
 10
607.5
 20
291.25
 30
0.0
 40
491.9811402
100
AcDbArc
 50
173.0697936999998
 51
186.9302063000001
  0
ARC
  5
543
330
1E
100
AcDbEntity
  8
1
  6
Continuous
 62
     9
100
AcDbCircle
 10
122.0913962999999
 20
232.2500077
 30
0.0
 40
3.0
100
AcDbArc
 50
186.9299927
 51
270.0
  0
LINE
  5
544
330
1E
100
AcDbEntity
  8
1
  6
Continuous
100
AcDbLine
 10
168.18129735
 20
225.2502976
 30
0.0
 11
168.18129735
 21
357.2496796
 31
0.0
  0
ARC
  5
545
330
1E
100
AcDbEntity
  8
1
  6
Continuous
100
AcDbCircle
 10
169.5002976
 20
225.2502976
 30
0.0
 40
1.319000099999999
100
AcDbArc
 50
180.0
 51
270.0
  0
LINE
  5
546
330
1E
100
AcDbEntity
  8
1
  6
Continuous
 62
     9
100
AcDbLine
 10
122.0913962999999
 20
229.2500077
 30
0.0
 11
154.4999999999999
 21
229.2500077
 31
0.0
  0
ARC
  5
547
330
1E
100
AcDbEntity
  8
1
  6
Continuous
 62
     9
100
AcDbCircle
 10
154.4999999999999
 20
231.25
 30
0.0
 40
2.000000099999998
100
AcDbArc
 50
270.0
 51
0.0
  0
LINE
  5
548
330
1E
100
AcDbEntity
  8
1
  6
Continuous
 62
     9
100
AcDbLine
 10
130.4999999999999
 20
246.7499922999999
 30
0.0
 11
130.4999999999999
 21
235.7499999999999
 31
0.0
  0
LINE
  5
549
330
1E
100
AcDbEntity
  8
1
  6
Continuous
 62
     9
100
AcDbLine
 10
132.0
 20
234.25
 30
0.0
 11
141.0
 21
234.25
 31
0.0
  0
LINE
  5
54A
330
1E
100
AcDbEntity
  8
1
  6
Continuous
 62
     9
100
AcDbLine
 10
142.5
 20
235.7499999999999
 30
0.0
 11
142.5
 21
246.7499922999999
 31
0.0
  0
LINE
  5
54B
330
1E
100
AcDbEntity
  8
1
  6
Continuous
 62
     9
100
AcDbLine
 10
141.0
 20
248.2499922999999
 30
0.0
 11
132.0
 21
248.2499922999999
 31
0.0
  0
ARC
  5
54C
330
1E
100
AcDbEntity
  8
1
  6
Continuous
 62
     9
100
AcDbCircle
 10
141.0
 20
235.7499999999999
 30
0.0
 40
1.5
100
AcDbArc
 50
270.0
 51
0.0
  0
ARC
  5
54D
330
1E
100
AcDbEntity
  8
1
  6
Continuous
 62
     9
100
AcDbCircle
 10
141.0
 20
246.7499922999999
 30
0.0
 40
1.5
100
AcDbArc
 50
0.0
 51
90.0
  0
ARC
  5
54E
330
1E
100
AcDbEntity
  8
1
  6
Continuous
 62
     9
100
AcDbCircle
 10
132.0
 20
246.7499922999999
 30
0.0
 40
1.5
100
AcDbArc
 50
90.0
 51
180.0
  0
ARC
  5
54F
330
1E
100
AcDbEntity
  8
1
  6
Continuous
 62
     9
100
AcDbCircle
 10
132.0
 20
235.7499999999999
 30
0.0
 40
1.5
100
AcDbArc
 50
180.0
 51
270.0
  0
LINE
  5
550
330
1E
100
AcDbEntity
  8
1
  6
Continuous
 62
     9
100
AcDbLine
 10
130.9999923
 20
246.7499922999999
 30
0.0
 11
130.9999923
 21
235.7499999999999
 31
0.0
  0
LINE
  5
551
330
1E
100
AcDbEntity
  8
1
  6
Continuous
 62
     9
100
AcDbLine
 10
132.0
 20
234.7499922999999
 30
0.0
 11
141.0
 21
234.7499922999999
 31
0.0
  0
LINE
  5
552
330
1E
100
AcDbEntity
  8
1
  6
Continuous
 62
     9
100
AcDbLine
 10
141.9999961499998
 20
235.7499999999999
 30
0.0
 11
141.9999961499998
 21
246.7499922999999
 31
0.0
  0
LINE
  5
553
330
1E
100
AcDbEntity
  8
1
  6
Continuous
 62
     9
100
AcDbLine
 10
141.0
 20
247.75
 30
0.0
 11
132.0
 21
247.75
 31
0.0
  0
ARC
  5
554
330
1E
100
AcDbEntity
  8
1
  6
Continuous
 62
     9
100
AcDbCircle
 10
141.0
 20
235.7499999999999
 30
0.0
 40
1.000000049999999
100
AcDbArc
 50
270.0
 51
0.0
  0
ARC
  5
555
330
1E
100
AcDbEntity
  8
1
  6
Continuous
 62
     9
100
AcDbCircle
 10
141.0
 20
246.7499922999999
 30
0.0
 40
1.000000049999999
100
AcDbArc
 50
0.0
 51
90.0
  0
ARC
  5
556
330
1E
100
AcDbEntity
  8
1
  6
Continuous
 62
     9
100
AcDbCircle
 10
132.0
 20
246.7499922999999
 30
0.0
 40
1.000000049999999
100
AcDbArc
 50
90.0
 51
180.0
  0
ARC
  5
557
330
1E
100
AcDbEntity
  8
1
  6
Continuous
 62
     9
100
AcDbCircle
 10
132.0
 20
235.7499999999999
 30
0.0
 40
1.000000049999999
100
AcDbArc
 50
180.0
 51
270.0
  0
LINE
  5
558
330
1E
100
AcDbEntity
  8
1
  6
Continuous
 62
     9
100
AcDbLine
 10
122.0913962999999
 20
353.25001525
 30
0.0
 11
154.4999999999999
 21
353.25001525
 31
0.0
  0
ARC
  5
559
330
1E
100
AcDbEntity
  8
1
  6
Continuous
 62
     9
100
AcDbCircle
 10
122.0913962999999
 20
350.25001525
 30
0.0
 40
3.0
100
AcDbArc
 50
90.0
 51
173.0700072999999
  0
LINE
  5
55A
330
1E
100
AcDbEntity
  8
1
  6
Continuous
 62
     9
100
AcDbLine
 10
143.2999991999998
 20
293.2499922999999
 30
0.0
 11
143.2999991999998
 21
333.25
 31
0.0
  0
ARC
  5
55B
330
1E
100
AcDbEntity
  8
1
  6
Continuous
 62
     9
100
AcDbCircle
 10
142.3000030499998
 20
333.25
 30
0.0
 40
1.000000049999999
100
AcDbArc
 50
0.0
 51
90.0
  0
LINE
  5
55C
330
1E
100
AcDbEntity
  8
1
  6
Continuous
 62
     9
100
AcDbLine
 10
129.69998925
 20
293.2499922999999
 30
0.0
 11
129.69998925
 21
333.25
 31
0.0
  0
ARC
  5
55D
330
1E
100
AcDbEntity
  8
1
  6
Continuous
 62
     9
100
AcDbCircle
 10
130.6999969499998
 20
293.2499922999999
 30
0.0
 40
1.000000049999999
100
AcDbArc
 50
180.0
 51
270.0
  0
LINE
  5
55E
330
1E
100
AcDbEntity
  8
1
  6
Continuous
 62
     9
100
AcDbLine
 10
130.4999999999999
 20
281.7499847499999
 30
0.0
 11
130.4999999999999
 21
270.7499922999999
 31
0.0
  0
LINE
  5
55F
330
1E
100
AcDbEntity
  8
1
  6
Continuous
 62
     9
100
AcDbLine
 10
132.0
 20
269.2499922999999
 30
0.0
 11
141.0
 21
269.2499922999999
 31
0.0
  0
LINE
  5
560
330
1E
100
AcDbEntity
  8
1
  6
Continuous
 62
     9
100
AcDbLine
 10
142.5
 20
270.7499922999999
 30
0.0
 11
142.5
 21
281.7499847499999
 31
0.0
  0
LINE
  5
561
330
1E
100
AcDbEntity
  8
1
  6
Continuous
 62
     9
100
AcDbLine
 10
141.0
 20
283.2499847499999
 30
0.0
 11
132.0
 21
283.2499847499999
 31
0.0
  0
ARC
  5
562
330
1E
100
AcDbEntity
  8
1
  6
Continuous
 62
     9
100
AcDbCircle
 10
141.0
 20
270.7499922999999
 30
0.0
 40
1.5
100
AcDbArc
 50
270.0
 51
0.0
  0
ARC
  5
563
330
1E
100
AcDbEntity
  8
1
  6
Continuous
 62
     9
100
AcDbCircle
 10
141.0
 20
281.7499847499999
 30
0.0
 40
1.5
100
AcDbArc
 50
0.0
 51
90.0
  0
ARC
  5
564
330
1E
100
AcDbEntity
  8
1
  6
Continuous
 62
     9
100
AcDbCircle
 10
132.0
 20
281.7499847499999
 30
0.0
 40
1.5
100
AcDbArc
 50
90.0
 51
180.0
  0
ARC
  5
565
330
1E
100
AcDbEntity
  8
1
  6
Continuous
 62
     9
100
AcDbCircle
 10
132.0
 20
270.7499922999999
 30
0.0
 40
1.5
100
AcDbArc
 50
180.0
 51
270.0
  0
LINE
  5
566
330
1E
100
AcDbEntity
  8
1
  6
Continuous
 62
     9
100
AcDbLine
 10
130.9999923
 20
281.7499847499999
 30
0.0
 11
130.9999923
 21
270.7499922999999
 31
0.0
  0
LINE
  5
567
330
1E
100
AcDbEntity
  8
1
  6
Continuous
 62
     9
100
AcDbLine
 10
132.0
 20
269.7499847499999
 30
0.0
 11
141.0
 21
269.7499847499999
 31
0.0
  0
LINE
  5
568
330
1E
100
AcDbEntity
  8
1
  6
Continuous
 62
     9
100
AcDbLine
 10
141.9999961499998
 20
270.7499922999999
 30
0.0
 11
141.9999961499998
 21
281.7499847499999
 31
0.0
  0
LINE
  5
569
330
1E
100
AcDbEntity
  8
1
  6
Continuous
 62
     9
100
AcDbLine
 10
141.0
 20
282.7499922999999
 30
0.0
 11
132.0
 21
282.7499922999999
 31
0.0
  0
ARC
  5
56A
330
1E
100
AcDbEntity
  8
1
  6
Continuous
 62
     9
100
AcDbCircle
 10
141.0
 20
270.7499922999999
 30
0.0
 40
1.000000049999999
100
AcDbArc
 50
270.0
 51
0.0
  0
ARC
  5
56B
330
1E
100
AcDbEntity
  8
1
  6
Continuous
 62
     9
100
AcDbCircle
 10
141.0
 20
281.7499847499999
 30
0.0
 40
1.000000049999999
100
AcDbArc
 50
0.0
 51
90.0
  0
ARC
  5
56C
330
1E
100
AcDbEntity
  8
1
  6
Continuous
 62
     9
100
AcDbCircle
 10
132.0
 20
281.7499847499999
 30
0.0
 40
1.000000049999999
100
AcDbArc
 50
90.0
 51
180.0
  0
ARC
  5
56D
330
1E
100
AcDbEntity
  8
1
  6
Continuous
 62
     9
100
AcDbCircle
 10
132.0
 20
270.7499922999999
 30
0.0
 40
1.000000049999999
100
AcDbArc
 50
180.0
 51
270.0
  0
LINE
  5
56E
330
1E
100
AcDbEntity
  8
1
  6
Continuous
 62
     9
100
AcDbLine
 10
142.3000030499998
 20
292.2499847499998
 30
0.0
 11
130.6999969499998
 21
292.2499847499998
 31
0.0
  0
ARC
  5
56F
330
1E
100
AcDbEntity
  8
1
  6
Continuous
 62
     9
100
AcDbCircle
 10
142.3000030499998
 20
293.2499922999999
 30
0.0
 40
1.000000049999999
100
AcDbArc
 50
270.0
 51
0.0
  0
LINE
  5
570
330
1E
100
AcDbEntity
  8
1
  6
Continuous
 62
     9
100
AcDbLine
 10
142.3000030499998
 20
334.2500077
 30
0.0
 11
130.6999969499998
 21
334.2500077
 31
0.0
  0
ARC
  5
571
330
1E
100
AcDbEntity
  8
1
  6
Continuous
 62
     9
100
AcDbCircle
 10
130.6999969499998
 20
333.25
 30
0.0
 40
1.000000049999999
100
AcDbArc
 50
90.0
 51
180.0
  0
ARC
  5
57A
330
1E
100
AcDbEntity
  8
1
  6
Continuous
 62
     9
100
AcDbCircle
 10
151.0301971499998
 20
333.7631988999999
 30
0.0
 40
0.675
100
AcDbArc
 50
180.0
 51
259.1583861999999
  0
ARC
  5
57B
330
1E
100
AcDbEntity
  8
1
  6
Continuous
 62
     9
100
AcDbCircle
 10
151.7490921
 20
337.5205917999999
 30
0.0
 40
4.49990805
100
AcDbArc
 50
259.1518859999998
 51
280.8482056
  0
ARC
  5
57C
330
1E
100
AcDbEntity
  8
1
  6
Continuous
 62
     9
100
AcDbCircle
 10
152.4694977
 20
333.7631988999999
 30
0.0
 40
0.675
100
AcDbArc
 50
280.8416138
 51
0.0
  0
ARC
  5
57E
330
1E
100
AcDbEntity
  8
1
  6
Continuous
 62
     9
100
AcDbCircle
 10
151.7490921
 20
333.42740635
 30
0.0
 40
2.25
100
AcDbArc
 50
270.0
 51
0.0
  0
ARC
  5
57F
330
1E
100
AcDbEntity
  8
1
  6
Continuous
 62
     9
100
AcDbCircle
 10
151.7490921
 20
333.42740635
 30
0.0
 40
2.25
100
AcDbArc
 50
180.0
 51
270.0
  0
LINE
  5
581
330
1E
100
AcDbEntity
  8
1
  6
Continuous
 62
     9
100
AcDbLine
 10
152.9025992999999
 20
339.9501037
 30
0.0
 11
150.3538056
 21
337.2161102499999
 31
0.0
  0
LINE
  5
582
330
1E
100
AcDbEntity
  8
1
  6
Continuous
 62
     9
100
AcDbLine
 10
150.3538056
 20
337.2161102499999
 30
0.0
 11
150.3538056
 21
337.5205917999999
 31
0.0
  0
LINE
  5
583
330
1E
100
AcDbEntity
  8
1
  6
Continuous
 62
     9
100
AcDbLine
 10
150.3538056
 20
337.5205917999999
 30
0.0
 11
149.4999961499998
 21
337.5205917999999
 31
0.0
  0
LINE
  5
584
330
1E
100
AcDbEntity
  8
1
  6
Continuous
 62
     9
100
AcDbLine
 10
149.4999961499998
 20
337.5205917999999
 30
0.0
 11
149.4999961499998
 21
333.42740635
 31
0.0
  0
LINE
  5
586
330
1E
100
AcDbEntity
  8
1
  6
Continuous
 62
     9
100
AcDbLine
 10
150.3538056
 20
333.7631988999999
 30
0.0
 11
150.3538056
 21
334.9090042
 31
0.0
  0
LINE
  5
587
330
1E
100
AcDbEntity
  8
1
  6
Continuous
 62
     9
100
AcDbLine
 10
150.3538056
 20
334.9090042
 30
0.0
 11
153.1442984999999
 21
334.9090042
 31
0.0
  0
LINE
  5
588
330
1E
100
AcDbEntity
  8
1
  6
Continuous
 62
     9
100
AcDbLine
 10
153.1442984999999
 20
334.9090042
 30
0.0
 11
153.1442984999999
 21
333.7631988999999
 31
0.0
  0
LINE
  5
58A
330
1E
100
AcDbEntity
  8
1
  6
Continuous
 62
     9
100
AcDbLine
 10
153.99968715
 20
333.42740635
 30
0.0
 11
153.99968715
 21
337.5205917999999
 31
0.0
  0
LINE
  5
58B
330
1E
100
AcDbEntity
  8
1
  6
Continuous
 62
     9
100
AcDbLine
 10
153.99968715
 20
337.5205917999999
 30
0.0
 11
153.1442984999999
 21
337.5205917999999
 31
0.0
  0
LINE
  5
58C
330
1E
100
AcDbEntity
  8
1
  6
Continuous
 62
     9
100
AcDbLine
 10
153.1442984999999
 20
337.5205917999999
 30
0.0
 11
153.1442984999999
 21
336.7106933499998
 31
0.0
  0
LINE
  5
58D
330
1E
100
AcDbEntity
  8
1
  6
Continuous
 62
     9
100
AcDbLine
 10
153.1442984999999
 20
336.7106933499998
 30
0.0
 11
151.8527068499998
 21
336.7106933499998
 31
0.0
  0
LINE
  5
58E
330
1E
100
AcDbEntity
  8
1
  6
Continuous
 62
     9
100
AcDbLine
 10
151.8527068499998
 20
336.7106933499998
 30
0.0
 11
153.99968715
 21
339.0147093999999
 31
0.0
  0
LINE
  5
591
330
1E
100
AcDbEntity
  8
1
  6
Continuous
 62
     9
100
AcDbLine
 10
152.9025992999999
 20
341.7519072999998
 30
0.0
 11
151.7490921
 21
341.7519072999998
 31
0.0
  0
LINE
  5
593
330
1E
100
AcDbEntity
  8
1
  6
Continuous
 62
     9
100
AcDbLine
 10
150.8952942
 20
341.7519072999998
 30
0.0
 11
150.3538056
 21
341.7519072999998
 31
0.0
  0
LINE
  5
594
330
1E
100
AcDbEntity
  8
1
  6
Continuous
 62
     9
100
AcDbLine
 10
150.3538056
 20
341.7519072999998
 30
0.0
 11
150.3538056
 21
342.29179375
 31
0.0
  0
LINE
  5
595
330
1E
100
AcDbEntity
  8
1
  6
Continuous
 62
     9
100
AcDbLine
 10
150.3538056
 20
342.29179375
 30
0.0
 11
149.4999961499998
 21
342.29179375
 31
0.0
  0
LINE
  5
596
330
1E
100
AcDbEntity
  8
1
  6
Continuous
 62
     9
100
AcDbLine
 10
149.4999961499998
 20
342.29179375
 30
0.0
 11
149.4999961499998
 21
339.4101944499999
 31
0.0
  0
LINE
  5
597
330
1E
100
AcDbEntity
  8
1
  6
Continuous
 62
     9
100
AcDbLine
 10
149.4999961499998
 20
339.4101944499999
 30
0.0
 11
150.3538056
 21
339.4101944499999
 31
0.0
  0
LINE
  5
598
330
1E
100
AcDbEntity
  8
1
  6
Continuous
 62
     9
100
AcDbLine
 10
150.3538056
 20
339.4101944499999
 30
0.0
 11
150.3538056
 21
339.9501037
 31
0.0
  0
LINE
  5
599
330
1E
100
AcDbEntity
  8
1
  6
Continuous
 62
     9
100
AcDbLine
 10
150.3538056
 20
339.9501037
 30
0.0
 11
151.7490921
 21
339.9501037
 31
0.0
  0
LINE
  5
59A
330
1E
100
AcDbEntity
  8
1
  6
Continuous
 62
     9
100
AcDbLine
 10
151.7490921
 20
339.9501037
 30
0.0
 11
152.9025992999999
 21
339.9501037
 31
0.0
  0
LINE
  5
59B
330
1E
100
AcDbEntity
  8
1
  6
Continuous
 62
     9
100
AcDbLine
 10
151.7490921
 20
344.5644072999998
 30
0.0
 11
150.3538056
 21
345.7100982999999
 31
0.0
  0
LINE
  5
59C
330
1E
100
AcDbEntity
  8
1
  6
Continuous
 62
     9
100
AcDbLine
 10
150.3538056
 20
345.7100982999999
 30
0.0
 11
150.3538056
 21
346.2499847499998
 31
0.0
  0
LINE
  5
59D
330
1E
100
AcDbEntity
  8
1
  6
Continuous
 62
     9
100
AcDbLine
 10
150.3538056
 20
346.2499847499998
 30
0.0
 11
149.4999961499998
 21
346.2499847499998
 31
0.0
  0
LINE
  5
59E
330
1E
100
AcDbEntity
  8
1
  6
Continuous
 62
     9
100
AcDbLine
 10
149.4999961499998
 20
346.2499847499998
 30
0.0
 11
149.4999961499998
 21
343.3275985
 31
0.0
  0
LINE
  5
59F
330
1E
100
AcDbEntity
  8
1
  6
Continuous
 62
     9
100
AcDbLine
 10
149.4999961499998
 20
343.3275985
 30
0.0
 11
150.3538056
 21
343.3275985
 31
0.0
  0
LINE
  5
5A0
330
1E
100
AcDbEntity
  8
1
  6
Continuous
 62
     9
100
AcDbLine
 10
150.3538056
 20
343.3275985
 30
0.0
 11
150.3538056
 21
343.8675078999998
 31
0.0
  0
LINE
  5
5A1
330
1E
100
AcDbEntity
  8
1
  6
Continuous
 62
     9
100
AcDbLine
 10
150.3538056
 20
343.8675078999998
 30
0.0
 11
150.8952942
 21
343.40299225
 31
0.0
  0
LINE
  5
5A2
330
1E
100
AcDbEntity
  8
1
  6
Continuous
 62
     9
100
AcDbLine
 10
150.8952942
 20
343.40299225
 30
0.0
 11
150.8952942
 21
341.7519072999998
 31
0.0
  0
LINE
  5
5A4
330
1E
100
AcDbEntity
  8
1
  6
Continuous
 62
     9
100
AcDbLine
 10
151.7490921
 20
341.7519072999998
 30
0.0
 11
151.7490921
 21
342.6998901999999
 31
0.0
  0
LINE
  5
5A5
330
1E
100
AcDbEntity
  8
1
  6
Continuous
 62
     9
100
AcDbLine
 10
151.7490921
 20
342.6998901999999
 30
0.0
 11
152.9025992999999
 21
341.7519072999998
 31
0.0
  0
LINE
  5
5A7
330
1E
100
AcDbEntity
  8
1
  6
Continuous
 62
     9
100
AcDbLine
 10
153.99968715
 20
339.0147093999999
 30
0.0
 11
153.99968715
 21
343.8675078999998
 31
0.0
  0
LINE
  5
5A8
330
1E
100
AcDbEntity
  8
1
  6
Continuous
 62
     9
100
AcDbLine
 10
153.99968715
 20
343.8675078999998
 30
0.0
 11
153.1442984999999
 21
343.8675078999998
 31
0.0
  0
LINE
  5
5A9
330
1E
100
AcDbEntity
  8
1
  6
Continuous
 62
     9
100
AcDbLine
 10
153.1442984999999
 20
343.8675078999998
 30
0.0
 11
153.1442984999999
 21
343.4154892
 31
0.0
  0
LINE
  5
5AA
330
1E
100
AcDbEntity
  8
1
  6
Continuous
 62
     9
100
AcDbLine
 10
153.1442984999999
 20
343.4154892
 30
0.0
 11
151.7490921
 21
344.5644072999998
 31
0.0
  0
LINE
  5
5AB
330
1E
100
AcDbEntity
  8
1
  6
Continuous
100
AcDbLine
 10
305.4999847499999
 20
351.25
 30
0.0
 11
305.4999847499999
 21
231.25
 31
0.0
  0
ARC
  5
5AC
330
1E
100
AcDbEntity
  8
1
  6
Continuous
100
AcDbCircle
 10
295.5
 20
351.25
 30
0.0
 40
10.00000049999999
100
AcDbArc
 50
0.0
 51
90.0
  0
LINE
  5
5AD
330
1E
100
AcDbEntity
  8
1
  6
Continuous
 62
     9
100
AcDbLine
 10
304.4518432499998
 20
231.25018315
 30
0.0
 11
304.4518432499998
 21
351.2499085
 31
0.0
  0
ARC
  5
5AE
330
1E
100
AcDbEntity
  8
1
  6
Continuous
 62
     9
100
AcDbCircle
 10
295.4998398
 20
351.2499085
 30
0.0
 40
8.951999849999999
100
AcDbArc
 50
0.0
 51
90.0
  0
LINE
  5
5AF
330
1E
100
AcDbEntity
  8
1
  6
Continuous
100
AcDbLine
 10
302.8187255999999
 20
231.2502976
 30
0.0
 11
302.8187255999999
 21
351.2496796
 31
0.0
  0
ARC
  5
5B0
330
1E
100
AcDbEntity
  8
1
  6
Continuous
100
AcDbCircle
 10
295.49972535
 20
351.2496796
 30
0.0
 40
7.319000249999998
100
AcDbArc
 50
0.0
 51
90.0
  0
TEXT
  5
5B3
330
1E
100
AcDbEntity
  8
1
  6
Continuous
 62
     9
100
AcDbText
 10
135.0
 20
263.8357066607142
 30
0.0
 40
3.0
  1
UNITS
 50
270.0
 41
0.8
  7
AD-STANDARD
 72
     1
 11
136.4999999999999
 21
258.7499923749999
 31
0.0
100
AcDbText
 73
     2
  0
TEXT
  5
5B4
330
1E
100
AcDbEntity
  8
1
  6
Continuous
 62
     9
100
AcDbText
 10
135.0
 20
282.5499885249999
 30
0.0
 40
3.0
  1
ON/OFF
 50
270.0
 41
0.7
  7
AD-STANDARD
 72
     1
 11
136.4999999999999
 21
276.2499885249999
 31
0.0
100
AcDbText
 73
     2
  0
TEXT
  5
5B9
330
1E
100
AcDbEntity
  8
1
  6
Continuous
 62
     9
100
AcDbText
 10
138.7502635466858
 20
346.1309602885715
 30
0.0
 40
2.50000005
  1
STABLE
 50
270.0
 41
0.8
  7
AD-STANDARD
 72
     2
 11
140.0002635716858
 21
335.7500077
 31
0.0
100
AcDbText
 73
     2
  0
DIMENSION
  5
5BA
330
1E
100
AcDbEntity
  8
MEASURE
100
AcDbDimension
  2
*D70
 10
338.0638849230035
 20
221.2499922999998
 30
0.0
 11
335.0638849230035
 21
291.2499963999999
 31
0.0
 70
    32
 71
     5
 42
140.0000082
  3
AD-STANDARD
100
AcDbAlignedDimension
 13
295.5
 23
361.2500005
 33
0.0
 14
295.5
 24
221.2499922999999
 34
0.0
 50
90.0
100
AcDbRotatedDimension
1001
ACAD
1000
DSTYLE
1002
{
1070
    40
1040
1.5
1002
}
  0
DIMENSION
  5
5C7
330
1E
100
AcDbEntity
  8
MEASURE
100
AcDbDimension
  2
*D71
 10
305.4999847499999
 20
184.7181726514795
 30
0.0
 11
206.4999847499999
 21
187.7181726514795
 31
0.0
 70
    32
 71
     5
 42
197.9999999999999
  3
AD-STANDARD
100
AcDbAlignedDimension
 13
107.4999847499999
 23
291.25
 33
0.0
 14
305.4999847499999
 24
231.25
 34
0.0
100
AcDbRotatedDimension
1001
ACAD
1000
DSTYLE
1002
{
1070
    40
1040
1.5
1002
}
  0
LINE
  5
5E3
330
1E
100
AcDbEntity
  8
1
  6
Continuous
100
AcDbLine
 10
168.0819968999998
 20
106.2118963305316
 30
0.0
 11
167.4999961499998
 21
95.10722488053167
 31
0.0
  0
LINE
  5
5E4
330
1E
100
AcDbEntity
  8
1
  6
Continuous
100
AcDbLine
 10
167.4999961499998
 20
95.10722488053167
 30
0.0
 11
303.5000152499998
 21
95.10722488053167
 31
0.0
  0
LINE
  5
5E5
330
1E
100
AcDbEntity
  8
1
  6
Continuous
100
AcDbLine
 10
303.5000152499998
 20
95.10722488053167
 30
0.0
 11
302.9180602499998
 21
106.2118963305316
 31
0.0
  0
LINE
  5
5E6
330
1E
100
AcDbEntity
  8
1
  6
Continuous
100
AcDbLine
 10
300.92079165
 20
108.1072210305314
 30
0.0
 11
170.0792999999999
 21
108.1072210305314
 31
0.0
  0
ARC
  5
5E7
330
1E
100
AcDbEntity
  8
1
  6
Continuous
100
AcDbCircle
 10
300.92079165
 20
106.1072285805316
 30
0.0
 40
2.000000099999998
100
AcDbArc
 50
3.000000000000166
 51
90.0
  0
ARC
  5
5E8
330
1E
100
AcDbEntity
  8
1
  6
Continuous
100
AcDbCircle
 10
170.0792999999999
 20
106.1072285805316
 30
0.0
 40
2.000000099999998
100
AcDbArc
 50
90.0
 51
176.9999999999998
  0
LINE
  5
5E9
330
1E
100
AcDbEntity
  8
1
  6
Continuous
100
AcDbLine
 10
119.0550956999999
 20
65.10723628053165
 30
0.0
 11
300.7516021499999
 21
65.10723628053165
 31
0.0
  0
ARC
  5
5EA
330
1E
100
AcDbEntity
  8
1
  6
Continuous
100
AcDbCircle
 10
300.7516021499999
 20
66.60723628053165
 30
0.0
 40
1.5
100
AcDbArc
 50
270.0
 51
356.9999083999999
  0
LINE
  5
5EB
330
1E
100
AcDbEntity
  8
1
  6
Continuous
100
AcDbLine
 10
162.9526061999998
 20
102.9718450305316
 30
0.0
 11
109.4314956
 21
98.28938038053165
 31
0.0
  0
ARC
  5
5EC
330
1E
100
AcDbEntity
  8
1
  6
Continuous
100
AcDbCircle
 10
109.5621871499999
 20
96.79509103053163
 30
0.0
 40
1.5
100
AcDbArc
 50
94.99984740000003
 51
177.0005035
  0
LINE
  5
5ED
330
1E
100
AcDbEntity
  8
1
  6
Continuous
100
AcDbLine
 10
110.5424881499999
 20
86.10722488053168
 30
0.0
 11
114.1643944499999
 21
69.06763588053166
 31
0.0
  0
ARC
  5
5EE
330
1E
100
AcDbEntity
  8
1
  6
Continuous
100
AcDbCircle
 10
119.0550956999999
 20
70.10722858053165
 30
0.0
 40
5.000000249999998
100
AcDbArc
 50
192.0001068000001
 51
270.0
  0
LINE
  5
5EF
330
1E
100
AcDbEntity
  8
1
  6
Continuous
100
AcDbLine
 10
164.5812949499998
 20
101.5560392805316
 30
0.0
 11
165.0791931
 21
92.05492528053165
 31
0.0
  0
ARC
  5
5F0
330
1E
100
AcDbEntity
  8
1
  6
Continuous
100
AcDbCircle
 10
166.0778961
 20
92.1072592305315
 30
0.0
 40
1.000000049999999
100
AcDbArc
 50
183.0001068000002
 51
270.0
  0
ARC
  5
5F1
330
1E
100
AcDbEntity
  8
1
  6
Continuous
100
AcDbCircle
 10
163.08329775
 20
101.4775556805315
 30
0.0
 40
1.5
100
AcDbArc
 50
2.999512000000244
 51
94.99984740000003
  0
LINE
  5
5F2
330
1E
100
AcDbEntity
  8
1
  6
Continuous
100
AcDbLine
 10
305.4999847499999
 20
71.10723628053165
 30
0.0
 11
304.50151065
 21
90.15953203053152
 31
0.0
  0
ARC
  5
5F3
330
1E
100
AcDbEntity
  8
1
  6
Continuous
100
AcDbCircle
 10
303.50287635
 20
90.10719808053165
 30
0.0
 40
1.000000049999999
100
AcDbArc
 50
3.000122099999962
 51
90.0
  0
DIMENSION
  5
5F4
330
1E
100
AcDbEntity
  8
MEASURE
100
AcDbDimension
  2
*D72
 10
338.0638849230034
 20
108.1072210305314
 30
0.0
 11
335.0638849230035
 21
85.85722865553162
 31
0.0
 70
    32
 71
     5
 42
44.49998474999985
  3
AD-STANDARD
100
AcDbAlignedDimension
 13
288.4999922999999
 23
63.60723628053165
 33
0.0
 14
300.92079165
 24
108.1072210305314
 34
0.0
 50
90.0
100
AcDbRotatedDimension
1001
ACAD
1000
DSTYLE
1002
{
1070
    40
1040
1.5
1002
}
  0
DIMENSION
  5
601
330
1E
100
AcDbEntity
  8
MEASURE
100
AcDbDimension
  2
*D73
 10
303.5000152499998
 20
135.0156840154977
 30
0.0
 11
235.5000056999998
 21
138.0156840154977
 31
0.0
 70
    32
 71
     5
 42
136.0000191
  3
AD-STANDARD
100
AcDbAlignedDimension
 13
167.4999961499998
 23
95.10722488053167
 33
0.0
 14
303.5000152499998
 24
95.10722488053167
 34
0.0
100
AcDbRotatedDimension
1001
ACAD
1000
DSTYLE
1002
{
1070
    40
1040
1.5
1002
}
  0
VIEWPORT
  5
3B3
330
1A
100
AcDbEntity
 67
     1
  8
0
100
AcDbViewport
 10
209.6466399950837
 20
147.5128458016381
 30
0.0
 40
444.6375032177695
 41
364.877786145716
 68
     1
 69
     1
 12
209.6466399950837
 22
147.5128458016381
 13
0.0
 23
0.0
 14
10.0
 24
10.0
 15
10.0
 25
10.0
 16
0.0
 26
0.0
 36
1.0
 17
0.0
 27
0.0
 37
0.0
 42
50.0
 43
0.0
 44
0.0
 45
364.877786145716
 50
0.0
 51
0.0
 72
   100
 90
    32800
  1

281
     0
 71
     1
 74
     0
110
0.0
120
0.0
130
0.0
111
1.0
121
0.0
131
0.0
112
0.0
122
1.0
132
0.0
 79
     0
146
0.0
  0
VIEWPORT
  5
3B5
330
1A
100
AcDbEntity
 67
     1
  8
DEFPOINTS
100
AcDbViewport
 10
209.8755421683351
 20
147.7416969034828
 30
0.0
 40
408.8188129097233
 41
286.0629886136923
 68
     2
 69
     2
 12
311.6854342798835
 22
222.0336131745019
 13
0.0
 23
0.0
 14
1.0
 24
1.0
 15
0.0
 25
0.0
 16
0.0
 26
0.0
 36
1.0
 17
0.0
 27
0.0
 37
0.0
 42
50.0
 43
0.0
 44
0.0
 45
429.0944823923612
 50
0.0
 51
0.0
 72
   100
 90
    33056
  1

281
     0
 71
     1
 74
     0
110
0.0
120
0.0
130
0.0
111
1.0
121
0.0
131
0.0
112
0.0
122
1.0
132
0.0
 79
     0
146
0.0
  0
ENDSEC
  0
SECTION
  2
OBJECTS
  0
DICTIONARY
  5
C
330
0
100
AcDbDictionary
281
     1
  3
ACAD_GROUP
350
D
  3
ACAD_LAYOUT
350
19
  3
ACAD_MLINESTYLE
350
16
  3
ACAD_PLOTSETTINGS
350
18
  3
ACAD_PLOTSTYLENAME
350
E
  3
AcDbVariableDictionary
350
450
  0
DICTIONARY
  5
357
330
1E
100
AcDbDictionary
280
     1
281
     1
  3
ACAD_LAYOUTSELFREF
360
441
  0
DICTIONARY
  5
359
330
1A
100
AcDbDictionary
280
     1
281
     1
  3
ACAD_LAYOUTSELFREF
360
440
  0
DICTIONARY
  5
D
102
{ACAD_REACTORS
330
C
102
}
330
C
100
AcDbDictionary
281
     1
  0
DICTIONARY
  5
19
102
{ACAD_REACTORS
330
C
102
}
330
C
100
AcDbDictionary
281
     1
  3
Model
350
44C
  3
ﾚｲｱｳﾄ1
350
44D
  0
DICTIONARY
  5
16
102
{ACAD_REACTORS
330
C
102
}
330
C
100
AcDbDictionary
281
     1
  3
STANDARD
350
17
  0
DICTIONARY
  5
18
102
{ACAD_REACTORS
330
C
102
}
330
C
100
AcDbDictionary
281
     1
  0
ACDBDICTIONARYWDFLT
  5
E
102
{ACAD_REACTORS
330
C
102
}
330
C
100
AcDbDictionary
281
     1
  3
Normal
350
F
100
AcDbDictionaryWithDefault
340
F
  0
DICTIONARY
  5
450
102
{ACAD_REACTORS
330
C
102
}
330
C
100
AcDbDictionary
281
     1
  3
DIMASSOC
350
451
  0
XRECORD
  5
441
102
{ACAD_REACTORS
330
357
102
}
330
357
100
AcDbXrecord
280
     1
340
1E
  0
XRECORD
  5
440
102
{ACAD_REACTORS
330
359
102
}
330
359
100
AcDbXrecord
280
     1
340
1A
  0
LAYOUT
  5
44C
102
{ACAD_REACTORS
330
19
102
}
330
19
100
AcDbPlotSettings
  1

  2
RICOH IPSiO NX710
  4

  6

 40
0.0
 41
0.0
 42
0.0
 43
0.0
 44
0.0
 45
0.0
 46
0.0
 47
0.0
 48
0.0
 49
0.0
140
0.0
141
0.0
142
1.0
143
1.0
 70
  1712
 72
     0
 73
     0
 74
     0
  7
monochrome.ctb
 75
     0
147
1.0
148
0.0
149
0.0
100
AcDbLayout
  1
Model
 70
     1
 71
     0
 10
0.0
 20
0.0
 11
12.0
 21
9.0
 12
0.0
 22
0.0
 32
0.0
 14
0.0
 24
0.0
 34
0.0
 15
0.0
 25
0.0
 35
0.0
146
0.0
 13
0.0
 23
0.0
 33
0.0
 16
1.0
 26
0.0
 36
0.0
 17
0.0
 27
1.0
 37
0.0
 76
     0
330
1E
  0
LAYOUT
  5
44D
102
{ACAD_REACTORS
330
19
102
}
330
19
100
AcDbPlotSettings
  1

  2
Acrobat Distiller
  4
A3
  6

 40
3.174999952316284
 41
3.174999952316284
 42
3.17498779296875
 43
3.17498779296875
 44
297.0318298339843
 45
420.1583251953125
 46
0.0
 47
0.0
 48
0.0
 49
0.0
140
0.0
141
0.0
142
1.0
143
1.0
 70
   688
 72
     1
 73
     1
 74
     5
  7
monochrome.ctb
 75
    16
147
1.0
148
-2.742465190396274
149
-2.171930836962246
100
AcDbLayout
  1
ﾚｲｱｳﾄ1
 70
     1
 71
     1
 10
-0.432522602572476
 20
-1.003069115354037
 11
419.72580259274
 21
296.0287607186303
 12
0.0
 22
0.0
 32
0.0
 14
5.466135713473477
 24
4.71020259663669
 34
0.0
 15
414.2849486231969
 25
290.773191210329
 35
0.0
146
0.0
 13
0.0
 23
0.0
 33
0.0
 16
1.0
 26
0.0
 36
0.0
 17
0.0
 27
1.0
 37
0.0
 76
     0
330
1A
331
3B3
  0
MLINESTYLE
  5
17
102
{ACAD_REACTORS
330
16
102
}
330
16
100
AcDbMlineStyle
  2
STANDARD
 70
     0
  3

 62
   256
 51
90.0
 52
90.0
 71
     2
 49
0.5
 62
   256
  6
BYLAYER
 49
-0.5
 62
   256
  6
BYLAYER
  0
ACDBPLACEHOLDER
  5
F
102
{ACAD_REACTORS
330
E
102
}
330
E
  0
DICTIONARYVAR
  5
451
102
{ACAD_REACTORS
330
450
102
}
330
450
100
DictionaryVariables
280
     0
  1
1
  0
ENDSEC
  0
EOF
