  0
SECTION
  2
HEADER
  9
$ACADVER
  1
AC1012
  9
$DWGCODEPAGE
  3
dos932
  9
$INSBASE
 10
0.0
 20
0.0
 30
0.0
  9
$EXTMIN
 10
0.0
 20
0.0
 30
-182.070321902838
  9
$EXTMAX
 10
1680.0
 20
1188.0
 30
5.17184487250239
  9
$LIMMIN
 10
0.0
 20
0.0
  9
$LIMMAX
 10
10000.0
 20
10000.0
  9
$ORTHOMODE
 70
     1
  9
$REGENMODE
 70
     1
  9
$FILLMODE
 70
     1
  9
$QTEXTMODE
 70
     0
  9
$MIRRTEXT
 70
     1
  9
$DRAGMODE
 70
     2
  9
$LTSCALE
 40
1.0
  9
$OSMODE
 70
   311
  9
$ATTMODE
 70
     1
  9
$TEXTSIZE
 40
2.5
  9
$TRACEWID
 40
1.0
  9
$TEXTSTYLE
  7
AD-STANDARD
  9
$CLAYER
  8
1
  9
$CELTYPE
  6
BYLAYER
  9
$CECOLOR
 62
   256
  9
$CELTSCALE
 40
1.0
  9
$DELOBJ
 70
     1
  9
$DISPSILH
 70
     0
  9
$DIMSCALE
 40
5.0
  9
$DIMASZ
 40
2.5
  9
$DIMEXO
 40
1.0
  9
$DIMDLI
 40
0.38
  9
$DIMRND
 40
0.0
  9
$DIMDLE
 40
0.0
  9
$DIMEXE
 40
2.0
  9
$DIMTP
 40
0.0
  9
$DIMTM
 40
0.0
  9
$DIMTXT
 40
2.799999999999998
  9
$DIMCEN
 40
-2.0
  9
$DIMTSZ
 40
0.0
  9
$DIMTOL
 70
     0
  9
$DIMLIM
 70
     0
  9
$DIMTIH
 70
     0
  9
$DIMTOH
 70
     0
  9
$DIMSE1
 70
     0
  9
$DIMSE2
 70
     0
  9
$DIMTAD
 70
     1
  9
$DIMZIN
 70
     8
  9
$DIMBLK
  1

  9
$DIMASO
 70
     1
  9
$DIMSHO
 70
     1
  9
$DIMPOST
  1

  9
$DIMAPOST
  1

  9
$DIMALT
 70
     0
  9
$DIMALTD
 70
     2
  9
$DIMALTF
 40
25.4
  9
$DIMLFAC
 40
1.0
  9
$DIMTOFL
 70
     1
  9
$DIMTVP
 40
0.0
  9
$DIMTIX
 70
     0
  9
$DIMSOXD
 70
     0
  9
$DIMSAH
 70
     0
  9
$DIMBLK1
  1

  9
$DIMBLK2
  1

  9
$DIMSTYLE
  2
AD-STANDARD
  9
$DIMCLRD
 70
     9
  9
$DIMCLRE
 70
     9
  9
$DIMCLRT
 70
     2
  9
$DIMTFAC
 40
1.0
  9
$DIMGAP
 40
0.5
  9
$DIMJUST
 70
     0
  9
$DIMSD1
 70
     0
  9
$DIMSD2
 70
     0
  9
$DIMTOLJ
 70
     1
  9
$DIMTZIN
 70
     8
  9
$DIMALTZ
 70
     0
  9
$DIMALTTZ
 70
     0
  9
$DIMFIT
 70
     3
  9
$DIMUPT
 70
     0
  9
$DIMUNIT
 70
     2
  9
$DIMDEC
 70
     3
  9
$DIMTDEC
 70
     8
  9
$DIMALTU
 70
     2
  9
$DIMALTTD
 70
     2
  9
$DIMTXSTY
  7
AD-STANDARD
  9
$DIMAUNIT
 70
     0
  9
$LUNITS
 70
     2
  9
$LUPREC
 70
     4
  9
$SKETCHINC
 40
1.0
  9
$FILLETRAD
 40
0.0
  9
$AUNITS
 70
     0
  9
$AUPREC
 70
     0
  9
$MENU
  1
.
  9
$ELEVATION
 40
0.0
  9
$PELEVATION
 40
0.0
  9
$THICKNESS
 40
0.0
  9
$LIMCHECK
 70
     0
  9
$BLIPMODE
 70
     0
  9
$CHAMFERA
 40
0.0
  9
$CHAMFERB
 40
0.0
  9
$CHAMFERC
 40
673.4006734006732
  9
$CHAMFERD
 40
0.0
  9
$SKPOLY
 70
     0
  9
$TDCREATE
 40
2451414.552377546
  9
$TDUPDATE
 40
2454337.750829572
  9
$TDINDWG
 40
0.1262855093
  9
$TDUSRTIMER
 40
0.1262855093
  9
$USRTIMER
 70
     1
  9
$ANGBASE
 50
0.0
  9
$ANGDIR
 70
     0
  9
$PDMODE
 70
     0
  9
$PDSIZE
 40
0.0
  9
$PLINEWID
 40
0.0
  9
$COORDS
 70
     1
  9
$SPLFRAME
 70
     0
  9
$SPLINETYPE
 70
     6
  9
$SPLINESEGS
 70
     8
  9
$ATTDIA
 70
     0
  9
$ATTREQ
 70
     1
  9
$HANDLING
 70
 22529
  9
$HANDSEED
  5
1EDB
  9
$SURFTAB1
 70
     6
  9
$SURFTAB2
 70
     6
  9
$SURFTYPE
 70
     6
  9
$SURFU
 70
     6
  9
$SURFV
 70
     6
  9
$UCSNAME
  2

  9
$UCSORG
 10
0.0
 20
0.0
 30
0.0
  9
$UCSXDIR
 10
1.0
 20
0.0
 30
0.0
  9
$UCSYDIR
 10
0.0
 20
1.0
 30
0.0
  9
$PUCSNAME
  2

  9
$PUCSORG
 10
0.0
 20
0.0
 30
0.0
  9
$PUCSXDIR
 10
1.0
 20
0.0
 30
0.0
  9
$PUCSYDIR
 10
0.0
 20
1.0
 30
0.0
  9
$USERI1
 70
     0
  9
$USERI2
 70
     0
  9
$USERI3
 70
     0
  9
$USERI4
 70
     0
  9
$USERI5
 70
     0
  9
$USERR1
 40
0.0
  9
$USERR2
 40
0.0
  9
$USERR3
 40
0.0
  9
$USERR4
 40
0.0
  9
$USERR5
 40
0.0
  9
$WORLDVIEW
 70
     1
  9
$SHADEDGE
 70
     3
  9
$SHADEDIF
 70
    70
  9
$TILEMODE
 70
     0
  9
$MAXACTVP
 70
    16
  9
$PINSBASE
 10
0.0
 20
0.0
 30
0.0
  9
$PLIMCHECK
 70
     0
  9
$PEXTMIN
 10
3.0736333915886
 20
2.599419277432218
 30
0.0
  9
$PEXTMAX
 10
381.2032714213471
 20
282.6982283349362
 30
0.0
  9
$PLIMMIN
 10
-16.93697944638017
 20
-4.905322749827405
  9
$PLIMMAX
 10
403.0630205536198
 20
292.0946772501725
  9
$UNITMODE
 70
     0
  9
$VISRETAIN
 70
     0
  9
$PLINEGEN
 70
     0
  9
$PSLTSCALE
 70
     1
  9
$TREEDEPTH
 70
  3020
  9
$PICKSTYLE
 70
     1
  9
$CMLSTYLE
  2
STANDARD
  9
$CMLJUST
 70
     0
  9
$CMLSCALE
 40
1.0
  9
$SAVEIMAGES
 70
     1
  0
ENDSEC
  0
SECTION
  2
CLASSES
  0
CLASS
  1
LWPOLYLINE
  2
AcDbPolyline
  3
AutoCAD 2000
 90
    32768
280
     0
281
     1
  0
CLASS
  1
ACDBDICTIONARYWDFLT
  2
AcDbDictionaryWithDefault
  3
AutoCAD 2000
 90
    32768
280
     0
281
     0
  0
CLASS
  1
TABLESTYLE
  2
AcDbTableStyle
  3
ObjectDBX Classes
 90
    34815
280
     0
281
     0
  0
CLASS
  1
SORTENTSTABLE
  2
AcDbSortentsTable
  3
AutoCAD 2000
 90
    32768
280
     0
281
     0
  0
CLASS
  1
PLOTSETTINGS
  2
AcDbPlotSettings
  3
AutoCAD 2000
 90
    32768
280
     0
281
     0
  0
CLASS
  1
DICTIONARYVAR
  2
AcDbDictionaryVar
  3
AutoCAD 2000
 90
    32768
280
     0
281
     0
  0
CLASS
  1
ACDBPLACEHOLDER
  2
AcDbPlaceHolder
  3
AutoCAD 2000
 90
    32768
280
     0
281
     0
  0
CLASS
  1
LAYOUT
  2
AcDbLayout
  3
AutoCAD 2000
 90
    32768
280
     0
281
     0
  0
CLASS
  1
ACAD_PROXY_OBJECT_WRAPPER
  2
AcDbProxyObjectWrapper
  3
AutoCAD 2000
 90
    32768
280
     0
281
     0
  0
CLASS
  1
LONG_TRANSACTION
  2
AcDbLongTransaction
  3
AutoCAD 2000
 90
    32768
280
     0
281
     0
  0
CLASS
  1
LWPOLYLINE
  2
AcDbPolyline
  3
AutoCAD 2000
 90
    32768
280
     0
281
     1
  0
CLASS
  1
HATCH
  2
AcDbHatch
  3
AutoCAD 2000
 90
    32768
280
     0
281
     1
  0
CLASS
  1
XRECORD
  2
AcDbXrecord
  3
AutoCAD 2000
 90
    32768
280
     0
281
     0
  0
CLASS
  1
LONG_TRANSACTION
  2
AcDbLongTransaction
  3
AutoCAD 2000
 90
    32768
280
     0
281
     0
  0
CLASS
  1
LWPOLYLINE
  2
AcDbPolyline
  3
AutoCAD 2000
 90
    32768
280
     0
281
     1
  0
CLASS
  1
HATCH
  2
AcDbHatch
  3
AutoCAD 2000
 90
    32768
280
     0
281
     1
  0
CLASS
  1
XRECORD
  2
AcDbXrecord
  3
AutoCAD 2000
 90
    32768
280
     0
281
     0
  0
ENDSEC
  0
SECTION
  2
TABLES
  0
TABLE
  2
VPORT
  5
8
330
0
100
AcDbSymbolTable
 70
     6
  0
VPORT
  5
1D47
330
8
100
AcDbSymbolTableRecord
100
AcDbViewportTableRecord
  2
*ACTIVE
 70
     0
 10
0.0
 20
0.0
 11
1.0
 21
1.0
 12
927.0734495921747
 22
553.921904461213
 13
0.0
 23
0.0
 14
1.0
 24
1.0
 15
0.0
 25
0.0
 16
0.0
 26
0.0
 36
1.0
 17
0.0
 27
0.0
 37
0.0
 40
1322.114303652054
 41
1.21859296482412
 42
50.0
 43
0.0
 44
0.0
 50
0.0
 51
0.0
 71
     0
 72
   100
 73
     1
 74
     0
 75
     0
 76
     0
 77
     0
 78
     1
  0
ENDTAB
  0
TABLE
  2
LTYPE
  5
5
330
0
100
AcDbSymbolTable
 70
     1
  0
LTYPE
  5
14
330
5
100
AcDbSymbolTableRecord
100
AcDbLinetypeTableRecord
  2
BYBLOCK
 70
     0
  3

 72
    65
 73
     0
 40
0.0
  0
LTYPE
  5
15
330
5
100
AcDbSymbolTableRecord
100
AcDbLinetypeTableRecord
  2
BYLAYER
 70
     0
  3

 72
    65
 73
     0
 40
0.0
  0
LTYPE
  5
16
330
5
100
AcDbSymbolTableRecord
100
AcDbLinetypeTableRecord
  2
CONTINUOUS
 70
     0
  3
Solid line
 72
    65
 73
     0
 40
0.0
  0
ENDTAB
  0
TABLE
  2
LAYER
  5
2
102
{ACAD_XDICTIONARY
360
16F4
102
}
330
0
100
AcDbSymbolTable
 70
    16
  0
LAYER
  5
F
330
2
100
AcDbSymbolTableRecord
100
AcDbLayerTableRecord
  2
0
 70
     0
 62
     7
  6
CONTINUOUS
  0
LAYER
  5
71
330
2
100
AcDbSymbolTableRecord
100
AcDbLayerTableRecord
  2
MEASURE
 70
     0
 62
     9
  6
CONTINUOUS
  0
LAYER
  5
72
330
2
100
AcDbSymbolTableRecord
100
AcDbLayerTableRecord
  2
DEFPOINTS
 70
     0
 62
     7
  6
CONTINUOUS
  0
LAYER
  5
255
330
2
100
AcDbSymbolTableRecord
100
AcDbLayerTableRecord
  2
1
 70
     0
 62
     7
  6
CONTINUOUS
  0
LAYER
  5
363
330
2
100
AcDbSymbolTableRecord
100
AcDbLayerTableRecord
  2
カバ_
 70
     0
 62
     5
  6
CONTINUOUS
  0
ENDTAB
  0
TABLE
  2
STYLE
  5
3
330
0
100
AcDbSymbolTable
 70
     4
  0
STYLE
  5
10
330
3
100
AcDbSymbolTableRecord
100
AcDbTextStyleTableRecord
  2
STANDARD
 70
     0
 40
0.0
 41
0.8
 50
0.0
 71
     0
 42
84.17508417508415
  3
TXT
  4
bigfont.shx
  0
STYLE
  5
63
330
3
100
AcDbSymbolTableRecord
100
AcDbTextStyleTableRecord
  2
AD-STANDARD
 70
     0
 40
0.0
 41
0.8
 50
0.0
 71
     0
 42
2.5
  3
C:\Program Files\AutoCAD LT\romans.shx
  4
bigfont.shx
  0
STYLE
  5
265
330
3
100
AcDbSymbolTableRecord
100
AcDbTextStyleTableRecord
  2
ROMAND
 70
     0
 40
5.0
 41
1.0
 50
0.0
 71
     0
 42
4.5
  3
romand
  4

  0
ENDTAB
  0
TABLE
  2
VIEW
  5
6
330
0
100
AcDbSymbolTable
 70
     0
  0
ENDTAB
  0
TABLE
  2
UCS
  5
7
330
0
100
AcDbSymbolTable
 70
     0
  0
ENDTAB
  0
TABLE
  2
APPID
  5
9
330
0
100
AcDbSymbolTable
 70
     6
  0
APPID
  5
11
330
9
100
AcDbSymbolTableRecord
100
AcDbRegAppTableRecord
  2
ACAD
 70
     0
  0
APPID
  5
22A
330
9
100
AcDbSymbolTableRecord
100
AcDbRegAppTableRecord
  2
CONTENTTABDATA
 70
     0
  0
APPID
  5
22B
330
9
100
AcDbSymbolTableRecord
100
AcDbRegAppTableRecord
  2
CONTENTCURRENTTAB
 70
     0
  0
APPID
  5
232
330
9
100
AcDbSymbolTableRecord
100
AcDbRegAppTableRecord
  2
CONTENTBLOCKDESCRIPTION
 70
     0
  0
APPID
  5
233
330
9
100
AcDbSymbolTableRecord
100
AcDbRegAppTableRecord
  2
CONTENTBLOCKICON
 70
     0
  0
APPID
  5
16E9
330
9
100
AcDbSymbolTableRecord
100
AcDbRegAppTableRecord
  2
ACAD_PSEXT
 70
     0
  0
ENDTAB
  0
TABLE
  2
DIMSTYLE
  5
A
330
0
100
AcDbSymbolTable
 70
     2
  0
DIMSTYLE
105
1D
330
A
100
AcDbSymbolTableRecord
100
AcDbDimStyleTableRecord
  2
STANDARD
 70
     0
  3

  4

  5

  6

  7

 40
1.0
 41
0.18
 42
0.0625
 43
0.38
 44
0.18
 45
0.0
 46
0.0
 47
0.0
 48
0.0
140
0.18
141
0.09
142
0.0
143
25.4
144
1.0
145
0.0
146
1.0
147
0.09
 71
     0
 72
     0
 73
     1
 74
     1
 75
     0
 76
     0
 77
     0
 78
     0
170
     0
171
     2
172
     0
173
     0
174
     0
175
     0
176
     0
177
     0
178
     0
270
     2
271
     4
272
     4
273
     2
274
     2
340
10
275
     0
280
     0
281
     0
282
     0
283
     1
284
     0
285
     0
286
     0
287
     3
288
     0
  0
DIMSTYLE
105
68
102
{ACAD_REACTORS
330
CC0
330
1085
330
12B2
330
131B
330
1328
330
1335
330
1342
330
1381
330
138E
330
13DF
102
}
330
A
100
AcDbSymbolTableRecord
100
AcDbDimStyleTableRecord
  2
AD-STANDARD
 70
     0
  3

  4

  5

  6

  7

 40
1.0
 41
2.5
 42
1.0
 43
0.38
 44
2.0
 45
0.0
 46
0.0
 47
0.0
 48
0.0
140
3.5
141
-2.0
142
0.0
143
25.4
144
1.0
145
0.0
146
1.0
147
0.5
 71
     0
 72
     0
 73
     0
 74
     0
 75
     0
 76
     0
 77
     1
 78
     8
170
     0
171
     2
172
     1
173
     0
174
     0
175
     0
176
     9
177
     9
178
     2
270
     2
271
     4
272
     4
273
     2
274
     2
340
63
275
     0
280
     0
281
     0
282
     0
283
     1
284
     8
285
     0
286
     0
287
     3
288
     0
  0
ENDTAB
  0
TABLE
  2
BLOCK_RECORD
  5
1
330
0
100
AcDbSymbolTable
 70
    14
  0
BLOCK_RECORD
  5
1A
102
{ACAD_XDICTIONARY
360
1780
102
}
330
1
100
AcDbSymbolTableRecord
100
AcDbBlockTableRecord
  2
*MODEL_SPACE
  0
BLOCK_RECORD
  5
18F5
102
{ACAD_XDICTIONARY
360
197D
102
}
330
1
100
AcDbSymbolTableRecord
100
AcDbBlockTableRecord
  2
*PAPER_SPACE
  0
BLOCK_RECORD
  5
121B
330
1
100
AcDbSymbolTableRecord
100
AcDbBlockTableRecord
  2
*D2
  0
BLOCK_RECORD
  5
1257
330
1
100
AcDbSymbolTableRecord
100
AcDbBlockTableRecord
  2
*D3
  0
BLOCK_RECORD
  5
12A6
330
1
100
AcDbSymbolTableRecord
100
AcDbBlockTableRecord
  2
*D4
  0
BLOCK_RECORD
  5
130F
330
1
100
AcDbSymbolTableRecord
100
AcDbBlockTableRecord
  2
*D5
  0
BLOCK_RECORD
  5
131C
330
1
100
AcDbSymbolTableRecord
100
AcDbBlockTableRecord
  2
*D6
  0
BLOCK_RECORD
  5
1329
330
1
100
AcDbSymbolTableRecord
100
AcDbBlockTableRecord
  2
*D7
  0
BLOCK_RECORD
  5
1336
330
1
100
AcDbSymbolTableRecord
100
AcDbBlockTableRecord
  2
*D8
  0
BLOCK_RECORD
  5
1375
330
1
100
AcDbSymbolTableRecord
100
AcDbBlockTableRecord
  2
*D9
  0
BLOCK_RECORD
  5
1382
330
1
100
AcDbSymbolTableRecord
100
AcDbBlockTableRecord
  2
*D10
  0
BLOCK_RECORD
  5
13D3
330
1
100
AcDbSymbolTableRecord
100
AcDbBlockTableRecord
  2
*D11
  0
ENDTAB
  0
ENDSEC
  0
SECTION
  2
BLOCKS
  0
BLOCK
  5
1B
330
1A
100
AcDbEntity
  8
0
100
AcDbBlockBegin
  2
*MODEL_SPACE
 70
     0
 10
0.0
 20
0.0
 30
0.0
  3
*MODEL_SPACE
  1

  0
ENDBLK
  5
1C
330
1A
100
AcDbEntity
  8
0
100
AcDbBlockEnd
  0
BLOCK
  5
18F7
330
18F5
100
AcDbEntity
 67
     1
  8
0
100
AcDbBlockBegin
  2
*PAPER_SPACE
 70
     0
 10
0.0
 20
0.0
 30
0.0
  3
*PAPER_SPACE
  1

  0
ENDBLK
  5
18F8
330
18F5
100
AcDbEntity
 67
     1
  8
0
100
AcDbBlockEnd
  0
BLOCK
  5
13F3
330
121B
100
AcDbEntity
  8
0
100
AcDbBlockBegin
  2
*D2
 70
     1
 10
0.0
 20
0.0
 30
0.0
  3
*D2
  1

  0
LINE
  5
1E2F
330
121B
100
AcDbEntity
  8
MEASURE
 62
     9
100
AcDbLine
 10
711.4117450942448
 20
362.4458685061862
 30
0.0
 11
711.4117450942448
 21
191.3181598372448
 31
0.0
  0
LINE
  5
1E30
330
121B
100
AcDbEntity
  8
MEASURE
 62
     9
100
AcDbLine
 10
1423.259112636145
 20
844.0865083718621
 30
0.0
 11
1423.259112636145
 21
191.3181598372448
 31
0.0
  0
LINE
  5
1E31
330
121B
100
AcDbEntity
  8
MEASURE
 62
     9
100
AcDbLine
 10
723.9117450942448
 20
201.3181598372448
 30
0.0
 11
1410.759112636145
 21
201.3181598372448
 31
0.0
  0
SOLID
  5
1E32
330
121B
100
AcDbEntity
  8
MEASURE
 62
     9
100
AcDbTrace
 10
723.9117450942448
 20
203.4014931705781
 30
0.0
 11
723.9117450942448
 21
199.2348265039114
 31
0.0
 12
711.4117450942448
 22
201.3181598372448
 32
0.0
 13
711.4117450942448
 23
201.3181598372448
 33
0.0
  0
SOLID
  5
1E33
330
121B
100
AcDbEntity
  8
MEASURE
 62
     9
100
AcDbTrace
 10
1410.759112636145
 20
203.4014931705781
 30
0.0
 11
1410.759112636145
 21
199.2348265039114
 31
0.0
 12
1423.259112636145
 22
201.3181598372448
 32
0.0
 13
1423.259112636145
 23
201.3181598372448
 33
0.0
  0
MTEXT
  5
1E34
330
121B
100
AcDbEntity
  8
MEASURE
 62
     2
100
AcDbMText
 10
1067.335428865195
 20
210.8181598372448
 30
0.0
 40
13.99999999999999
 41
0.0
 71
     5
 72
     1
  1
\A1;（712）
  7
AD-STANDARD
  0
POINT
  5
1E35
330
121B
100
AcDbEntity
  8
DEFPOINTS
 62
     0
100
AcDbPoint
 10
711.4117450942448
 20
367.4458685061862
 30
0.0
  0
POINT
  5
1E36
330
121B
100
AcDbEntity
  8
DEFPOINTS
 62
     0
100
AcDbPoint
 10
1423.259112636145
 20
849.0865083718622
 30
0.0
  0
POINT
  5
1E37
330
121B
100
AcDbEntity
  8
DEFPOINTS
 62
     0
100
AcDbPoint
 10
1423.259112636145
 20
201.3181598372448
 30
0.0
  0
ENDBLK
  5
13FD
330
121B
100
AcDbEntity
  8
0
100
AcDbBlockEnd
  0
BLOCK
  5
16A3
330
1257
100
AcDbEntity
  8
0
100
AcDbBlockBegin
  2
*D3
 70
     1
 10
0.0
 20
0.0
 30
0.0
  3
*D3
  1

  0
LINE
  5
1E80
330
1257
100
AcDbEntity
  8
MEASURE
 62
     9
100
AcDbLine
 10
1213.419557594237
 20
311.4457769061814
 30
0.0
 11
1529.223798614384
 21
311.4457769061813
 31
0.0
  0
LINE
  5
1E81
330
1257
100
AcDbEntity
  8
MEASURE
 62
     9
100
AcDbLine
 10
1416.631686140131
 20
866.9458685061872
 30
0.0
 11
1529.223798614384
 21
866.9458685061872
 31
0.0
  0
LINE
  5
1E82
330
1257
100
AcDbEntity
  8
MEASURE
 62
     9
100
AcDbLine
 10
1519.223798614384
 20
323.9457769061813
 30
0.0
 11
1519.223798614384
 21
854.4458685061872
 31
0.0
  0
SOLID
  5
1E83
330
1257
100
AcDbEntity
  8
MEASURE
 62
     9
100
AcDbTrace
 10
1517.140465281051
 20
323.9457769061813
 30
0.0
 11
1521.307131947717
 21
323.9457769061813
 31
0.0
 12
1519.223798614384
 22
311.4457769061813
 32
0.0
 13
1519.223798614384
 23
311.4457769061813
 33
0.0
  0
SOLID
  5
1E84
330
1257
100
AcDbEntity
  8
MEASURE
 62
     9
100
AcDbTrace
 10
1517.140465281051
 20
854.4458685061872
 30
0.0
 11
1521.307131947717
 21
854.4458685061872
 31
0.0
 12
1519.223798614384
 22
866.9458685061872
 32
0.0
 13
1519.223798614384
 23
866.9458685061872
 33
0.0
  0
MTEXT
  5
1E85
330
1257
100
AcDbEntity
  8
MEASURE
 62
     2
100
AcDbMText
 10
1509.723798614384
 20
589.1958227061844
 30
0.0
 40
13.99999999999999
 41
0.0
 71
     5
 72
     1
  1
\A1;（777）
  7
AD-STANDARD
 11
0.0000000000000001
 21
1.0
 31
0.0
  0
POINT
  5
1E86
330
1257
100
AcDbEntity
  8
DEFPOINTS
 62
     0
100
AcDbPoint
 10
1208.419557594237
 20
311.4457769061814
 30
0.0
  0
POINT
  5
1E87
330
1257
100
AcDbEntity
  8
DEFPOINTS
 62
     0
100
AcDbPoint
 10
1411.631686140131
 20
866.9458685061872
 30
0.0
  0
POINT
  5
1E88
330
1257
100
AcDbEntity
  8
DEFPOINTS
 62
     0
100
AcDbPoint
 10
1519.223798614384
 20
866.9458685061872
 30
0.0
  0
ENDBLK
  5
16AD
330
1257
100
AcDbEntity
  8
0
100
AcDbBlockEnd
  0
BLOCK
  5
12D6
330
12A6
100
AcDbEntity
  8
0
100
AcDbBlockBegin
  2
*D4
 70
     1
 10
0.0
 20
0.0
 30
0.0
  3
*D4
  1

  0
LINE
  5
1E89
330
12A6
100
AcDbEntity
  8
MEASURE
 62
     9
100
AcDbLine
 10
711.4117450942448
 20
430.9458685061862
 30
0.0
 11
711.4117450942448
 21
555.1016344042381
 31
0.0
  0
LINE
  5
1E8A
330
12A6
100
AcDbEntity
  8
MEASURE
 62
     9
100
AcDbLine
 10
1241.411653494244
 20
430.9458685061862
 30
0.0
 11
1241.411653494244
 21
555.1016344042381
 31
0.0
  0
LINE
  5
1E8B
330
12A6
100
AcDbEntity
  8
MEASURE
 62
     9
100
AcDbLine
 10
723.9117450942448
 20
545.1016344042382
 30
0.0
 11
1228.911653494244
 21
545.1016344042382
 31
0.0
  0
SOLID
  5
1E8C
330
12A6
100
AcDbEntity
  8
MEASURE
 62
     9
100
AcDbTrace
 10
723.9117450942448
 20
547.1849677375716
 30
0.0
 11
723.9117450942448
 21
543.0183010709048
 31
0.0
 12
711.4117450942448
 22
545.1016344042382
 32
0.0
 13
711.4117450942448
 23
545.1016344042382
 33
0.0
  0
SOLID
  5
1E8D
330
12A6
100
AcDbEntity
  8
MEASURE
 62
     9
100
AcDbTrace
 10
1228.911653494244
 20
547.1849677375716
 30
0.0
 11
1228.911653494244
 21
543.0183010709048
 31
0.0
 12
1241.411653494244
 22
545.1016344042382
 32
0.0
 13
1241.411653494244
 23
545.1016344042382
 33
0.0
  0
MTEXT
  5
1E8E
330
12A6
100
AcDbEntity
  8
MEASURE
 62
     2
100
AcDbMText
 10
976.4116992942447
 20
554.6016344042381
 30
0.0
 40
13.99999999999999
 41
0.0
 71
     5
 72
     1
  1
\A1;530
  7
AD-STANDARD
  0
POINT
  5
1E8F
330
12A6
100
AcDbEntity
  8
DEFPOINTS
 62
     0
100
AcDbPoint
 10
711.4117450942448
 20
425.9458685061862
 30
0.0
  0
POINT
  5
1E90
330
12A6
100
AcDbEntity
  8
DEFPOINTS
 62
     0
100
AcDbPoint
 10
1241.411653494244
 20
425.9458685061862
 30
0.0
  0
POINT
  5
1E91
330
12A6
100
AcDbEntity
  8
DEFPOINTS
 62
     0
100
AcDbPoint
 10
1241.411653494244
 20
545.1016344042382
 30
0.0
  0
ENDBLK
  5
12E0
330
12A6
100
AcDbEntity
  8
0
100
AcDbBlockEnd
  0
BLOCK
  5
1310
330
130F
100
AcDbEntity
  8
0
100
AcDbBlockBegin
  2
*D5
 70
     1
 10
0.0
 20
0.0
 30
0.0
  3
*D5
  1

  0
LINE
  5
1E92
330
130F
100
AcDbEntity
  8
MEASURE
 62
     9
100
AcDbLine
 10
706.4117450942448
 20
367.4458685061862
 30
0.0
 11
629.1582619494247
 21
367.4458685061863
 31
0.0
  0
LINE
  5
1E93
330
130F
100
AcDbEntity
  8
MEASURE
 62
     9
100
AcDbLine
 10
717.9117602942451
 20
437.4458685061862
 30
0.0
 11
629.1582619494247
 21
437.4458685061863
 31
0.0
  0
LINE
  5
1E94
330
130F
100
AcDbEntity
  8
MEASURE
 62
     9
100
AcDbLine
 10
639.1582619494247
 20
379.9458685061863
 30
0.0
 11
639.1582619494247
 21
424.9458685061863
 31
0.0
  0
SOLID
  5
1E95
330
130F
100
AcDbEntity
  8
MEASURE
 62
     9
100
AcDbTrace
 10
637.0749286160913
 20
379.9458685061863
 30
0.0
 11
641.2415952827581
 21
379.9458685061862
 31
0.0
 12
639.1582619494247
 22
367.4458685061863
 32
0.0
 13
639.1582619494247
 23
367.4458685061863
 33
0.0
  0
SOLID
  5
1E96
330
130F
100
AcDbEntity
  8
MEASURE
 62
     9
100
AcDbTrace
 10
637.0749286160913
 20
424.9458685061863
 30
0.0
 11
641.2415952827581
 21
424.9458685061862
 31
0.0
 12
639.1582619494247
 22
437.4458685061863
 32
0.0
 13
639.1582619494247
 23
437.4458685061863
 33
0.0
  0
MTEXT
  5
1E97
330
130F
100
AcDbEntity
  8
MEASURE
 62
     2
100
AcDbMText
 10
629.6582619494246
 20
402.4458685061864
 30
0.0
 40
13.99999999999999
 41
0.0
 71
     5
 72
     1
  1
\A1;70
  7
AD-STANDARD
 11
0.0000000000000001
 21
1.0
 31
0.0
  0
POINT
  5
1E98
330
130F
100
AcDbEntity
  8
DEFPOINTS
 62
     0
100
AcDbPoint
 10
711.4117450942448
 20
367.4458685061862
 30
0.0
  0
POINT
  5
1E99
330
130F
100
AcDbEntity
  8
DEFPOINTS
 62
     0
100
AcDbPoint
 10
722.9117602942451
 20
437.4458685061862
 30
0.0
  0
POINT
  5
1E9A
330
130F
100
AcDbEntity
  8
DEFPOINTS
 62
     0
100
AcDbPoint
 10
639.1582619494247
 20
437.4458685061863
 30
0.0
  0
ENDBLK
  5
131A
330
130F
100
AcDbEntity
  8
0
100
AcDbBlockEnd
  0
BLOCK
  5
16B6
330
131C
100
AcDbEntity
  8
0
100
AcDbBlockBegin
  2
*D6
 70
     1
 10
0.0
 20
0.0
 30
0.0
  3
*D6
  1

  0
LINE
  5
1E9B
330
131C
100
AcDbEntity
  8
MEASURE
 62
     9
100
AcDbLine
 10
739.4117438951398
 20
311.4457769061906
 30
0.0
 11
601.5338862184271
 21
311.4457769061907
 31
0.0
  0
LINE
  5
1E9C
330
131C
100
AcDbEntity
  8
MEASURE
 62
     9
100
AcDbLine
 10
717.9117602942451
 20
437.4458685061862
 30
0.0
 11
601.5338862184271
 21
437.4458685061863
 31
0.0
  0
LINE
  5
1E9D
330
131C
100
AcDbEntity
  8
MEASURE
 62
     9
100
AcDbLine
 10
611.5338862184271
 20
323.9457769061907
 30
0.0
 11
611.5338862184271
 21
424.9458685061863
 31
0.0
  0
SOLID
  5
1E9E
330
131C
100
AcDbEntity
  8
MEASURE
 62
     9
100
AcDbTrace
 10
609.4505528850937
 20
323.9457769061907
 30
0.0
 11
613.6172195517604
 21
323.9457769061907
 31
0.0
 12
611.5338862184271
 22
311.4457769061907
 32
0.0
 13
611.5338862184271
 23
311.4457769061907
 33
0.0
  0
SOLID
  5
1E9F
330
131C
100
AcDbEntity
  8
MEASURE
 62
     9
100
AcDbTrace
 10
609.4505528850937
 20
424.9458685061863
 30
0.0
 11
613.6172195517604
 21
424.9458685061863
 31
0.0
 12
611.5338862184271
 22
437.4458685061863
 32
0.0
 13
611.5338862184271
 23
437.4458685061863
 33
0.0
  0
MTEXT
  5
1EA0
330
131C
100
AcDbEntity
  8
MEASURE
 62
     2
100
AcDbMText
 10
602.033886218427
 20
374.4458227061886
 30
0.0
 40
13.99999999999999
 41
0.0
 71
     5
 72
     1
  1
\A1;131～141
  7
AD-STANDARD
 11
0.0000000000000001
 21
1.0
 31
0.0
  0
POINT
  5
1EA1
330
131C
100
AcDbEntity
  8
DEFPOINTS
 62
     0
100
AcDbPoint
 10
744.4117438951398
 20
311.4457769061906
 30
0.0
  0
POINT
  5
1EA2
330
131C
100
AcDbEntity
  8
DEFPOINTS
 62
     0
100
AcDbPoint
 10
722.9117602942451
 20
437.4458685061862
 30
0.0
  0
POINT
  5
1EA3
330
131C
100
AcDbEntity
  8
DEFPOINTS
 62
     0
100
AcDbPoint
 10
611.5338862184271
 20
437.4458685061863
 30
0.0
  0
ENDBLK
  5
16C0
330
131C
100
AcDbEntity
  8
0
100
AcDbBlockEnd
  0
BLOCK
  5
132A
330
1329
100
AcDbEntity
  8
0
100
AcDbBlockBegin
  2
*D7
 70
     1
 10
0.0
 20
0.0
 30
0.0
  3
*D7
  1

  0
LINE
  5
1EA4
330
1329
100
AcDbEntity
  8
MEASURE
 62
     9
100
AcDbLine
 10
160.4917105735439
 20
308.4462710061856
 30
0.0
 11
160.4917105735439
 21
220.3329349802714
 31
0.0
  0
LINE
  5
1EA5
330
1329
100
AcDbEntity
  8
MEASURE
 62
     9
100
AcDbLine
 10
460.4917105735438
 20
308.4462710061856
 30
0.0
 11
460.4917105735438
 21
220.3329349802714
 31
0.0
  0
LINE
  5
1EA6
330
1329
100
AcDbEntity
  8
MEASURE
 62
     9
100
AcDbLine
 10
172.9917105735439
 20
230.3329349802714
 30
0.0
 11
447.9917105735438
 21
230.3329349802714
 31
0.0
  0
SOLID
  5
1EA7
330
1329
100
AcDbEntity
  8
MEASURE
 62
     9
100
AcDbTrace
 10
172.9917105735439
 20
232.4162683136048
 30
0.0
 11
172.9917105735439
 21
228.2496016469381
 31
0.0
 12
160.4917105735439
 22
230.3329349802714
 32
0.0
 13
160.4917105735439
 23
230.3329349802714
 33
0.0
  0
SOLID
  5
1EA8
330
1329
100
AcDbEntity
  8
MEASURE
 62
     9
100
AcDbTrace
 10
447.9917105735438
 20
232.4162683136048
 30
0.0
 11
447.9917105735438
 21
228.2496016469381
 31
0.0
 12
460.4917105735438
 22
230.3329349802714
 32
0.0
 13
460.4917105735438
 23
230.3329349802714
 33
0.0
  0
MTEXT
  5
1EA9
330
1329
100
AcDbEntity
  8
MEASURE
 62
     2
100
AcDbMText
 10
310.4917105735438
 20
239.8329349802714
 30
0.0
 40
13.99999999999999
 41
0.0
 71
     5
 72
     1
  1
\A1;300
  7
AD-STANDARD
  0
POINT
  5
1EAA
330
1329
100
AcDbEntity
  8
DEFPOINTS
 62
     0
100
AcDbPoint
 10
160.4917105735439
 20
313.4462710061856
 30
0.0
  0
POINT
  5
1EAB
330
1329
100
AcDbEntity
  8
DEFPOINTS
 62
     0
100
AcDbPoint
 10
460.4917105735438
 20
313.4462710061856
 30
0.0
  0
POINT
  5
1EAC
330
1329
100
AcDbEntity
  8
DEFPOINTS
 62
     0
100
AcDbPoint
 10
460.4917105735438
 20
230.3329349802714
 30
0.0
  0
ENDBLK
  5
1334
330
1329
100
AcDbEntity
  8
0
100
AcDbBlockEnd
  0
BLOCK
  5
1337
330
1336
100
AcDbEntity
  8
0
100
AcDbBlockBegin
  2
*D8
 70
     1
 10
0.0
 20
0.0
 30
0.0
  3
*D8
  1

  0
LINE
  5
1EAD
330
1336
100
AcDbEntity
  8
MEASURE
 62
     9
100
AcDbLine
 10
756.4117602942442
 20
308.4457826061863
 30
0.0
 11
756.4117602942442
 21
220.3329349802714
 31
0.0
  0
LINE
  5
1EAE
330
1336
100
AcDbEntity
  8
MEASURE
 62
     9
100
AcDbLine
 10
711.4117450942448
 20
362.4458685061862
 30
0.0
 11
711.4117450942448
 21
220.3329349802714
 31
0.0
  0
LINE
  5
1EAF
330
1336
100
AcDbEntity
  8
MEASURE
 62
     9
100
AcDbLine
 10
743.9117602942442
 20
230.3329349802714
 30
0.0
 11
723.9117450942448
 21
230.3329349802714
 31
0.0
  0
SOLID
  5
1EB0
330
1336
100
AcDbEntity
  8
MEASURE
 62
     9
100
AcDbTrace
 10
743.9117602942442
 20
232.4162683136048
 30
0.0
 11
743.9117602942442
 21
228.2496016469381
 31
0.0
 12
756.4117602942442
 22
230.3329349802714
 32
0.0
 13
756.4117602942442
 23
230.3329349802714
 33
0.0
  0
SOLID
  5
1EB1
330
1336
100
AcDbEntity
  8
MEASURE
 62
     9
100
AcDbTrace
 10
723.9117450942448
 20
232.4162683136048
 30
0.0
 11
723.9117450942448
 21
228.2496016469381
 31
0.0
 12
711.4117450942448
 22
230.3329349802714
 32
0.0
 13
711.4117450942448
 23
230.3329349802714
 33
0.0
  0
MTEXT
  5
1EB2
330
1336
100
AcDbEntity
  8
MEASURE
 62
     2
100
AcDbMText
 10
733.9117526942446
 20
239.8329349802714
 30
0.0
 40
13.99999999999999
 41
0.0
 71
     5
 72
     1
  1
\A1;45
  7
AD-STANDARD
  0
POINT
  5
1EB3
330
1336
100
AcDbEntity
  8
DEFPOINTS
 62
     0
100
AcDbPoint
 10
756.4117602942442
 20
313.4457826061863
 30
0.0
  0
POINT
  5
1EB4
330
1336
100
AcDbEntity
  8
DEFPOINTS
 62
     0
100
AcDbPoint
 10
711.4117450942448
 20
367.4458685061862
 30
0.0
  0
POINT
  5
1EB5
330
1336
100
AcDbEntity
  8
DEFPOINTS
 62
     0
100
AcDbPoint
 10
711.4117450942448
 20
230.3329349802714
 30
0.0
  0
ENDBLK
  5
1341
330
1336
100
AcDbEntity
  8
0
100
AcDbBlockEnd
  0
BLOCK
  5
1376
330
1375
100
AcDbEntity
  8
0
100
AcDbBlockBegin
  2
*D9
 70
     1
 10
0.0
 20
0.0
 30
0.0
  3
*D9
  1

  0
LINE
  5
1EB6
330
1375
100
AcDbEntity
  8
MEASURE
 62
     9
100
AcDbLine
 10
756.4117602942442
 20
308.4457826061863
 30
0.0
 11
756.4117602942442
 21
220.3329349802714
 31
0.0
  0
LINE
  5
1EB7
330
1375
100
AcDbEntity
  8
MEASURE
 62
     9
100
AcDbLine
 10
1196.411760294243
 20
308.4457826061863
 30
0.0
 11
1196.411760294243
 21
220.3329349802714
 31
0.0
  0
LINE
  5
1EB8
330
1375
100
AcDbEntity
  8
MEASURE
 62
     9
100
AcDbLine
 10
768.9117602942442
 20
230.3329349802714
 30
0.0
 11
1183.911760294243
 21
230.3329349802714
 31
0.0
  0
SOLID
  5
1EB9
330
1375
100
AcDbEntity
  8
MEASURE
 62
     9
100
AcDbTrace
 10
768.9117602942442
 20
232.4162683136048
 30
0.0
 11
768.9117602942442
 21
228.2496016469381
 31
0.0
 12
756.4117602942442
 22
230.3329349802714
 32
0.0
 13
756.4117602942442
 23
230.3329349802714
 33
0.0
  0
SOLID
  5
1EBA
330
1375
100
AcDbEntity
  8
MEASURE
 62
     9
100
AcDbTrace
 10
1183.911760294243
 20
232.4162683136048
 30
0.0
 11
1183.911760294243
 21
228.2496016469381
 31
0.0
 12
1196.411760294243
 22
230.3329349802714
 32
0.0
 13
1196.411760294243
 23
230.3329349802714
 33
0.0
  0
MTEXT
  5
1EBB
330
1375
100
AcDbEntity
  8
MEASURE
 62
     2
100
AcDbMText
 10
976.4117602942439
 20
239.8329349802714
 30
0.0
 40
13.99999999999999
 41
0.0
 71
     5
 72
     1
  1
\A1;440
  7
AD-STANDARD
  0
POINT
  5
1EBC
330
1375
100
AcDbEntity
  8
DEFPOINTS
 62
     0
100
AcDbPoint
 10
756.4117602942442
 20
313.4457826061863
 30
0.0
  0
POINT
  5
1EBD
330
1375
100
AcDbEntity
  8
DEFPOINTS
 62
     0
100
AcDbPoint
 10
1196.411760294243
 20
313.4457826061863
 30
0.0
  0
POINT
  5
1EBE
330
1375
100
AcDbEntity
  8
DEFPOINTS
 62
     0
100
AcDbPoint
 10
1196.411760294243
 20
230.3329349802714
 30
0.0
  0
ENDBLK
  5
1380
330
1375
100
AcDbEntity
  8
0
100
AcDbBlockEnd
  0
BLOCK
  5
1383
330
1382
100
AcDbEntity
  8
0
100
AcDbBlockBegin
  2
*D10
 70
     1
 10
0.0
 20
0.0
 30
0.0
  3
*D10
  1

  0
LINE
  5
1EBF
330
1382
100
AcDbEntity
  8
MEASURE
 62
     9
100
AcDbLine
 10
1196.411760294243
 20
303.4457826061863
 30
0.0
 11
1196.411760294243
 21
220.3329349802714
 31
0.0
  0
LINE
  5
1EC0
330
1382
100
AcDbEntity
  8
MEASURE
 62
     9
100
AcDbLine
 10
1369.411653494244
 20
307.9169684061866
 30
0.0
 11
1369.411653494244
 21
220.3329349802714
 31
0.0
  0
LINE
  5
1EC1
330
1382
100
AcDbEntity
  8
MEASURE
 62
     9
100
AcDbLine
 10
1208.911760294243
 20
230.3329349802714
 30
0.0
 11
1356.911653494244
 21
230.3329349802714
 31
0.0
  0
SOLID
  5
1EC2
330
1382
100
AcDbEntity
  8
MEASURE
 62
     9
100
AcDbTrace
 10
1208.911760294243
 20
232.4162683136048
 30
0.0
 11
1208.911760294243
 21
228.2496016469381
 31
0.0
 12
1196.411760294243
 22
230.3329349802714
 32
0.0
 13
1196.411760294243
 23
230.3329349802714
 33
0.0
  0
SOLID
  5
1EC3
330
1382
100
AcDbEntity
  8
MEASURE
 62
     9
100
AcDbTrace
 10
1356.911653494244
 20
232.4162683136048
 30
0.0
 11
1356.911653494244
 21
228.2496016469381
 31
0.0
 12
1369.411653494244
 22
230.3329349802714
 32
0.0
 13
1369.411653494244
 23
230.3329349802714
 33
0.0
  0
MTEXT
  5
1EC4
330
1382
100
AcDbEntity
  8
MEASURE
 62
     2
100
AcDbMText
 10
1282.911706894244
 20
239.8329349802714
 30
0.0
 40
13.99999999999999
 41
0.0
 71
     5
 72
     1
  1
\A1;173
  7
AD-STANDARD
  0
POINT
  5
1EC5
330
1382
100
AcDbEntity
  8
DEFPOINTS
 62
     0
100
AcDbPoint
 10
1196.411760294243
 20
308.4457826061863
 30
0.0
  0
POINT
  5
1EC6
330
1382
100
AcDbEntity
  8
DEFPOINTS
 62
     0
100
AcDbPoint
 10
1369.411653494244
 20
312.9169684061867
 30
0.0
  0
POINT
  5
1EC7
330
1382
100
AcDbEntity
  8
DEFPOINTS
 62
     0
100
AcDbPoint
 10
1369.411653494244
 20
230.3329349802714
 30
0.0
  0
ENDBLK
  5
138D
330
1382
100
AcDbEntity
  8
0
100
AcDbBlockEnd
  0
BLOCK
  5
13D4
330
13D3
100
AcDbEntity
  8
0
100
AcDbBlockBegin
  2
*D11
 70
     1
 10
0.0
 20
0.0
 30
0.0
  3
*D11
  1

  0
LINE
  5
1EC8
330
13D3
100
AcDbEntity
  8
MEASURE
 62
     9
100
AcDbLine
 10
115.4917105735439
 20
362.4458685061863
 30
0.0
 11
115.4917105735439
 21
191.3181598372448
 31
0.0
  0
LINE
  5
1EC9
330
13D3
100
AcDbEntity
  8
MEASURE
 62
     9
100
AcDbLine
 10
505.4917105735438
 20
362.4458685061862
 30
0.0
 11
505.4917105735438
 21
191.3181598372448
 31
0.0
  0
LINE
  5
1ECA
330
13D3
100
AcDbEntity
  8
MEASURE
 62
     9
100
AcDbLine
 10
127.9917105735439
 20
201.3181598372448
 30
0.0
 11
492.9917105735438
 21
201.3181598372448
 31
0.0
  0
SOLID
  5
1ECB
330
13D3
100
AcDbEntity
  8
MEASURE
 62
     9
100
AcDbTrace
 10
127.9917105735439
 20
203.4014931705781
 30
0.0
 11
127.9917105735439
 21
199.2348265039114
 31
0.0
 12
115.4917105735439
 22
201.3181598372448
 32
0.0
 13
115.4917105735439
 23
201.3181598372448
 33
0.0
  0
SOLID
  5
1ECC
330
13D3
100
AcDbEntity
  8
MEASURE
 62
     9
100
AcDbTrace
 10
492.9917105735438
 20
203.4014931705781
 30
0.0
 11
492.9917105735438
 21
199.2348265039114
 31
0.0
 12
505.4917105735438
 22
201.3181598372448
 32
0.0
 13
505.4917105735438
 23
201.3181598372448
 33
0.0
  0
MTEXT
  5
1ECD
330
13D3
100
AcDbEntity
  8
MEASURE
 62
     2
100
AcDbMText
 10
310.4917105735438
 20
210.8181598372448
 30
0.0
 40
13.99999999999999
 41
0.0
 71
     5
 72
     1
  1
\A1;390
  7
AD-STANDARD
  0
POINT
  5
1ECE
330
13D3
100
AcDbEntity
  8
DEFPOINTS
 62
     0
100
AcDbPoint
 10
115.4917105735439
 20
367.4458685061863
 30
0.0
  0
POINT
  5
1ECF
330
13D3
100
AcDbEntity
  8
DEFPOINTS
 62
     0
100
AcDbPoint
 10
505.4917105735438
 20
367.4458685061862
 30
0.0
  0
POINT
  5
1ED0
330
13D3
100
AcDbEntity
  8
DEFPOINTS
 62
     0
100
AcDbPoint
 10
505.4917105735438
 20
201.3181598372448
 30
0.0
  0
ENDBLK
  5
13DE
330
13D3
100
AcDbEntity
  8
0
100
AcDbBlockEnd
  0
ENDSEC
  0
SECTION
  2
ENTITIES
  0
ARC
  5
AC2
330
1A
100
AcDbEntity
  8
1
 48
0.25
100
AcDbCircle
 10
-403.3756748538984
 20
-323.6930663769161
 30
691.8975052503204
 40
30.0
210
0.0000000000000005
220
0.9205048534524403
230
0.3907311284892737
100
AcDbArc
 50
89.99985419520328
 51
172.7437708830955
  0
ARC
  5
AC3
330
1A
100
AcDbEntity
  8
1
 48
0.25
100
AcDbCircle
 10
-217.7744246632994
 20
-323.6930663769165
 30
691.8975052503204
 40
30.0
210
0.0000000000000003
220
0.9205048534524403
230
0.3907311284892737
100
AcDbArc
 50
7.256229116904334
 51
90.00014580479669
  0
ARC
  5
C79
330
1A
100
AcDbEntity
  8
1
 62
     8
 48
0.25
100
AcDbCircle
 10
-2.81860166027161
 20
-382.4204755983981
 30
717.1428685411467
 40
180.0
210
0.0000000000000005
220
0.9205048534524403
230
0.3907311284892737
100
AcDbArc
 50
181.0000000000023
 51
195.4393555178335
  0
ARC
  5
C7A
330
1A
100
AcDbEntity
  8
1
 62
     8
 48
0.25
100
AcDbCircle
 10
-2.81860166027161
 20
-382.4204755983981
 30
717.1428685411467
 40
184.0
210
0.0000000000000005
220
0.9205048534524403
230
0.3907311284892737
100
AcDbArc
 50
181.0000000000023
 51
195.4393555178335
  0
ARC
  5
C7B
330
1A
100
AcDbEntity
  8
1
 62
     8
 48
0.25
100
AcDbCircle
 10
-618.3315056594572
 20
-382.4204755984029
 30
717.1428685411467
 40
180.0
210
0.0000000000000005
220
0.9205048534524403
230
0.3907311284892737
100
AcDbArc
 50
344.5606444821676
 51
358.9999999999988
  0
ARC
  5
C7C
330
1A
100
AcDbEntity
  8
1
 62
     8
 48
0.25
100
AcDbCircle
 10
-618.3315056594572
 20
-382.4204755984029
 30
717.1428685411467
 40
184.0
210
0.0000000000000005
220
0.9205048534524403
230
0.3907311284892737
100
AcDbArc
 50
344.5606444821676
 51
358.9999999999988
  0
ARC
  5
C7D
330
1A
100
AcDbEntity
  8
1
 62
     8
 48
0.25
100
AcDbCircle
 10
-618.3315056594572
 20
-380.4668199559568
 30
712.5403442738845
 40
180.0
210
0.0000000000000005
220
0.9205048534524403
230
0.3907311284892737
100
AcDbArc
 50
344.5606444821676
 51
358.9999999999988
  0
ARC
  5
C7E
330
1A
100
AcDbEntity
  8
1
 62
     8
 48
0.25
100
AcDbCircle
 10
-2.818593857746236
 20
-380.0760888274672
 30
711.6198394204306
 40
180.0
210
-0.0000000000000059
220
0.9205048534524403
230
0.3907311284892737
100
AcDbArc
 50
181.0000000000012
 51
195.4393555178322
  0
ARC
  5
C7F
330
1A
100
AcDbEntity
  8
1
 62
     8
 48
0.25
100
AcDbCircle
 10
-2.818593857746236
 20
-380.4668199559565
 30
712.5403442738827
 40
180.0
210
-0.0000000000000059
220
0.9205048534524403
230
0.3907311284892737
100
AcDbArc
 50
181.0000000000012
 51
195.4393555178322
  0
ARC
  5
C80
330
1A
100
AcDbEntity
  8
1
 62
     8
 48
0.25
100
AcDbCircle
 10
-2.818593857746236
 20
-382.4204755984029
 30
717.1428685411449
 40
180.0
210
-0.0000000000000059
220
0.9205048534524403
230
0.3907311284892737
100
AcDbArc
 50
181.0000000000012
 51
195.4393555178322
  0
LINE
  5
C81
330
1A
100
AcDbEntity
  8
1
 62
     8
 48
0.25
100
AcDbLine
 10
337.0750497585989
 20
849.3643461409817
 30
-165.5899151962796
 11
337.0750497585988
 21
826.5065751243588
 31
-111.7403812693119
210
0.0000000000000005
220
0.9205048534524403
230
0.3907311284892737
  0
LINE
  5
C83
330
1A
100
AcDbEntity
  8
1
 62
     8
 48
0.25
100
AcDbLine
 10
341.0750497585989
 20
841.7450891354407
 30
-147.6400705539569
 11
341.0750497585989
 21
793.0990636385261
 31
-33.0372162991282
210
0.0000000000000005
220
0.9205048534524403
230
0.3907311284892737
  0
LINE
  5
C84
330
1A
100
AcDbEntity
  8
1
 62
     8
 48
0.25
100
AcDbLine
 10
340.575049758599
 20
841.7450891354416
 30
-147.6400705539588
 11
340.5750497585988
 21
792.7083325100368
 31
-32.11671144567572
210
0.0000000000000005
220
0.9205048534524403
230
0.3907311284892737
  0
LINE
  5
C85
330
1A
100
AcDbEntity
  8
1
 62
     8
 48
0.25
100
AcDbLine
 10
341.0750575611274
 20
792.7083325100368
 30
-32.11671144567503
 11
341.0750575611257
 21
841.7450891354404
 31
-147.6400705539563
210
0.0000000000000005
220
0.9205048534524403
230
0.3907311284892737
  0
ARC
  5
C86
330
1A
100
AcDbEntity
  8
1
 62
     8
 48
0.25
100
AcDbCircle
 10
-263.0750497585992
 20
-454.2994100871732
 30
717.1428685411467
 40
82.0
210
0.0000000000000005
220
0.9205048534524403
230
0.3907311284892737
100
AcDbArc
 50
339.0751675723618
 51
19.61597913540639
  0
ARC
  5
C88
330
1A
100
AcDbEntity
  8
1
 48
0.25
100
AcDbCircle
 10
-618.3315056594572
 20
-377.7317020565318
 30
706.0968102997177
 40
180.0
210
0.0000000000000005
220
0.9205048534524403
230
0.3907311284892737
100
AcDbArc
 50
344.5606444821676
 51
358.9999999999988
  0
ARC
  5
C89
330
1A
100
AcDbEntity
  8
1
 62
     8
 48
0.25
100
AcDbCircle
 10
-618.3315056594572
 20
-380.0760888274675
 30
711.6198394204323
 40
180.0
210
0.0000000000000005
220
0.9205048534524403
230
0.3907311284892737
100
AcDbArc
 50
344.5606444821676
 51
358.9999999999988
  0
ARC
  5
C8A
330
1A
100
AcDbEntity
  8
1
 48
0.25
100
AcDbCircle
 10
-2.818593857746236
 20
-377.7317020565316
 30
706.0968102997158
 40
180.0
210
-0.0000000000000059
220
0.9205048534524403
230
0.3907311284892737
100
AcDbArc
 50
181.0000000000012
 51
195.4393555178322
  0
ARC
  5
C8B
330
1A
100
AcDbEntity
  8
1
 62
     8
 48
0.25
100
AcDbCircle
 10
-344.0750497585996
 20
-489.2994100871733
 30
717.1428685411467
 40
2.0
210
0.0000000000000005
220
0.9205048534524403
230
0.3907311284892737
100
AcDbArc
 50
270.0
 51
0.0
  0
ARC
  5
C8C
330
1A
100
AcDbEntity
  8
1
 62
     8
 48
0.25
100
AcDbCircle
 10
-424.6257822864993
 20
-484.2994100871729
 30
717.1428685411467
 40
7.0
210
0.0000000000000005
220
0.9205048534524403
230
0.3907311284892737
100
AcDbArc
 50
204.2650859026864
 51
270.0
  0
ARC
  5
C8D
330
1A
100
AcDbEntity
  8
1
 62
     8
 48
0.25
100
AcDbCircle
 10
-423.4585339117096
 20
-479.2994100871729
 30
717.1428685411467
 40
16.0
210
0.0000000000000005
220
0.9205048534524403
230
0.3907311284892737
100
AcDbArc
 50
200.9248324276371
 51
270.0
  0
ARC
  5
C8E
330
1A
100
AcDbEntity
  8
1
 62
     8
 48
0.25
100
AcDbCircle
 10
-330.0750497585996
 20
-484.2994100871733
 30
717.1428685411467
 40
7.0
210
0.0000000000000005
220
0.9205048534524403
230
0.3907311284892737
100
AcDbArc
 50
180.0
 51
270.0
  0
ARC
  5
C90
330
1A
100
AcDbEntity
  8
1
 62
     8
 48
0.25
100
AcDbCircle
 10
-197.6915656054899
 20
-479.299410087173
 30
717.1428685411467
 40
16.0
210
0.0000000000000005
220
0.9205048534524403
230
0.3907311284892737
100
AcDbArc
 50
270.0
 51
339.0751675723628
  0
ARC
  5
C91
330
1A
100
AcDbEntity
  8
1
 62
     8
 48
0.25
100
AcDbCircle
 10
-197.6915656054899
 20
-479.299410087173
 30
717.1428685411467
 40
12.0
210
0.0000000000000005
220
0.9205048534524403
230
0.3907311284892737
100
AcDbArc
 50
270.0
 51
339.0751675723638
  0
ARC
  5
C93
330
1A
100
AcDbEntity
  8
1
 48
0.25
100
AcDbCircle
 10
-423.4585339117096
 20
-479.2994100871729
 30
717.1428685411467
 40
20.0
210
0.0000000000000005
220
0.9205048534524403
230
0.3907311284892737
100
AcDbArc
 50
200.9248324276371
 51
270.0
  0
ARC
  5
C94
330
1A
100
AcDbEntity
  8
1
 48
0.25
100
AcDbCircle
 10
-197.6915656054899
 20
-479.299410087173
 30
717.1428685411467
 40
20.0
210
0.0000000000000005
220
0.9205048534524403
230
0.3907311284892737
100
AcDbArc
 50
270.0
 51
339.0751675723628
  0
LINE
  5
C95
330
1A
100
AcDbEntity
  8
1
 62
     8
 48
0.25
100
AcDbLine
 10
423.4585339117087
 20
853.6623885543637
 30
-175.7154685842571
 11
197.6915656054894
 21
853.6623885543642
 31
-175.7154685842573
  0
LINE
  5
C96
330
1A
100
AcDbEntity
  8
1
 62
     8
 48
0.25
100
AcDbLine
 10
197.6915656054895
 20
852.0994640404074
 30
-172.0334491704476
 11
330.0750497585989
 21
852.0994640404067
 31
-172.0334491704468
210
0.0000000000000005
220
0.9205048534524403
230
0.3907311284892737
  0
LINE
  5
C98
330
1A
100
AcDbEntity
  8
1
 48
0.25
100
AcDbLine
 10
197.6915656054895
 20
855.2253130683215
 30
-179.3974879980673
 11
423.458533911709
 21
855.225313068321
 31
-179.3974879980661
210
0.0000000000000005
220
0.9205048534524403
230
0.3907311284892737
  0
LINE
  5
C99
330
1A
100
AcDbEntity
  8
1
 48
0.25
100
AcDbLine
 10
423.4585339117345
 20
855.225313068321
 30
-179.3974879980661
 11
197.6915656054641
 21
855.2253130683215
 31
-179.3974879980673
210
0.0000000000000005
220
0.9205048534524403
230
0.3907311284892737
  0
LINE
  5
C9A
330
1A
100
AcDbEntity
  8
1
 48
0.25
100
AcDbLine
 10
268.0750497586048
 20
748.6501665817672
 30
-179.3974879980668
 11
268.0750497586048
 21
751.6501665817672
 31
-179.3974879980668
  0
LINE
  5
C9B
330
1A
100
AcDbEntity
  8
1
 48
0.25
100
AcDbLine
 10
353.0750497585947
 20
748.650083873744
 30
-179.3974879980668
 11
353.0750497585947
 21
751.6500838737441
 31
-179.3974879980668
  0
LINE
  5
C9C
330
1A
100
AcDbEntity
  8
1
 48
0.25
100
AcDbLine
 10
388.0750497586006
 20
748.650049817499
 30
-179.3974879980668
 11
388.0750497586006
 21
751.650049817499
 31
-179.3974879980668
  0
LINE
  5
C9D
330
1A
100
AcDbEntity
  8
1
 48
0.25
100
AcDbLine
 10
233.0750497585992
 20
748.6502006380122
 30
-179.3974879980668
 11
233.0750497585992
 21
751.6502006380124
 31
-179.3974879980668
  0
LINE
  5
C9E
330
1A
100
AcDbEntity
  8
1
 62
     8
 48
0.25
100
AcDbLine
 10
344.0750497585994
 20
852.0994640404067
 30
-172.0334491704468
 11
424.6257822864988
 21
852.0994640404067
 31
-172.0334491704468
210
0.0000000000000005
220
0.9205048534524403
230
0.3907311284892737
  0
LINE
  5
C9F
330
1A
100
AcDbEntity
  8
1
 62
     8
 48
0.25
100
AcDbLine
 10
201.0750497585949
 20
846.2384971130669
 30
-158.2258763686576
 11
326.0750497585943
 21
846.2384971130665
 31
-158.2258763686576
210
0.0000000000000005
220
0.9205048534524403
230
0.3907311284892737
  0
LINE
  5
CA0
330
1A
100
AcDbEntity
  8
1
 62
     8
 48
0.25
100
AcDbLine
 10
201.0750497585949
 20
827.8741340740706
 30
-114.9621482563932
 11
326.0750497585943
 21
827.8741340740705
 31
-114.9621482563929
210
0.0000000000000005
220
0.9205048534524403
230
0.3907311284892737
  0
ARC
  5
CA1
330
1A
100
AcDbEntity
  8
1
 48
0.25
100
AcDbCircle
 10
-358.9284459016156
 20
-454.1834192035961
 30
717.1428685411467
 40
89.14660385698349
210
0.0000000000000005
220
0.9205048534524403
230
0.3907311284892737
100
AcDbArc
 50
164.4864865151915
 51
191.3970563212886
  0
ARC
  5
CA2
330
1A
100
AcDbEntity
  8
1
 62
     8
 48
0.25
100
AcDbCircle
 10
-358.9117741620869
 20
-454.1856836527062
 30
717.1428685411467
 40
85.16327726379186
210
0.0000000000000005
220
0.9205048534524403
230
0.3907311284892737
100
AcDbArc
 50
164.4845354435436
 51
191.7987439427778
  0
LINE
  5
CA3
330
1A
100
AcDbEntity
  8
1
 62
     8
 48
0.25
100
AcDbLine
 10
326.0750497585943
 20
846.2384971130665
 30
-158.2258763686576
 11
326.0750497585943
 21
827.8741340740705
 31
-114.9621482563929
210
0.0000000000000005
220
0.9205048534524403
230
0.3907311284892737
  0
ARC
  5
CA4
330
1A
100
AcDbEntity
  8
1
 62
     8
 48
0.25
100
AcDbCircle
 10
-358.0750497585994
 20
-454.2994100871732
 30
717.1428685411467
 40
86.0
210
0.0000000000000005
220
0.9205048534524403
230
0.3907311284892737
100
AcDbArc
 50
192.0814698847062
 51
200.924832427639
  0
ARC
  5
CA5
330
1A
100
AcDbEntity
  8
1
 48
0.25
100
AcDbCircle
 10
-358.0750497585994
 20
-454.2994100871732
 30
717.1428685411467
 40
90.0
210
0.0000000000000005
220
0.9205048534524403
230
0.3907311284892737
100
AcDbArc
 50
191.5369590328148
 51
200.924832427639
  0
LINE
  5
CA6
330
1A
100
AcDbEntity
  8
1
 62
     8
 48
0.25
100
AcDbLine
 10
349.0750497585989
 20
847.2153249342907
 30
-160.5271385022913
 11
431.4354614259275
 21
847.2153249342907
 31
-160.5271385022913
210
0.0000000000000005
220
0.9205048534524403
230
0.3907311284892737
  0
ARC
  5
CA7
330
1A
100
AcDbEntity
  8
1
 62
     8
 48
0.25
100
AcDbCircle
 10
-358.0750497585994
 20
-454.2994100871732
 30
717.1428685411467
 40
80.0
210
0.0000000000000005
220
0.9205048534524403
230
0.3907311284892737
100
AcDbArc
 50
199.8612529467865
 51
204.2650859026834
  0
ARC
  5
CA8
330
1A
100
AcDbEntity
  8
1
 62
     8
 48
0.25
100
AcDbCircle
 10
-431.4354614259285
 20
-480.7994100871729
 30
717.1428685411467
 40
2.0
210
0.0000000000000005
220
0.9205048534524403
230
0.3907311284892737
100
AcDbArc
 50
90.0
 51
199.861252946807
  0
ARC
  5
CA9
330
1A
100
AcDbEntity
  8
1
 62
     8
 48
0.25
100
AcDbCircle
 10
-349.0750497585999
 20
-485.799410087173
 30
717.1428685411467
 40
7.0
210
0.0000000000000005
220
0.9205048534524403
230
0.3907311284892737
100
AcDbArc
 50
0.0
 51
90.0
  0
LINE
  5
CAA
330
1A
100
AcDbEntity
  8
1
 62
     8
 48
0.25
100
AcDbLine
 10
342.075049758599
 20
851.3180017834281
 30
-170.1924394635418
 11
342.075049758599
 21
849.9504428337157
 31
-166.9706724764582
210
0.0000000000000005
220
0.9205048534524403
230
0.3907311284892737
  0
LINE
  5
CAB
330
1A
100
AcDbEntity
  8
1
 62
     8
 48
0.25
100
AcDbLine
 10
348.075049758599
 20
844.4802070348657
 30
-154.083604528124
 11
445.3375846747924
 21
844.4802070348657
 31
-154.083604528124
210
0.0000000000000005
220
0.9205048534524403
230
0.3907311284892737
  0
LINE
  5
CAC
330
1A
100
AcDbEntity
  8
1
 62
     8
 48
0.25
100
AcDbLine
 10
348.0750575611257
 20
844.4802070348654
 30
-154.0836045281231
 11
446.3171971481207
 21
844.4802070348654
 31
-154.0836045281231
210
0.0000000000000005
220
0.9205048534524403
230
0.3907311284892737
  0
LINE
  5
CAD
330
1A
100
AcDbEntity
  8
1
 62
     8
 48
0.25
100
AcDbLine
 10
348.0750497585994
 20
844.6755725991106
 30
-154.543856954852
 11
446.2566804987933
 21
844.6755725991105
 31
-154.5438569548503
210
0.0000000000000005
220
0.9205048534524403
230
0.3907311284892737
  0
ARC
  5
CAE
330
1A
100
AcDbEntity
  8
1
 62
     8
 48
0.25
100
AcDbCircle
 10
-358.0750497585994
 20
-454.2994100871732
 30
717.1428685411467
 40
89.0
210
0.0000000000000005
220
0.9205048534524403
230
0.3907311284892737
100
AcDbArc
 50
191.3399134476776
 51
191.668399496464
  0
ARC
  5
CAF
330
1A
100
AcDbEntity
  8
1
 62
     8
 48
0.25
100
AcDbCircle
 10
-348.0750497585994
 20
-464.7994100871732
 30
717.1428685411467
 40
7.0
210
0.0000000000000005
220
0.9205048534524403
230
0.3907311284892737
100
AcDbArc
 50
270.0
 51
0.0
  0
ARC
  5
CB0
330
1A
100
AcDbEntity
  8
1
 62
     8
 48
0.25
100
AcDbCircle
 10
-348.0750575611263
 20
-464.7994100871724
 30
717.1428685411467
 40
7.0
210
0.0000000000000005
220
0.9205048534524403
230
0.3907311284892737
100
AcDbArc
 50
270.0
 51
0.0000000000007994
  0
ARC
  5
CB1
330
1A
100
AcDbEntity
  8
1
 62
     8
 48
0.25
100
AcDbCircle
 10
-348.0750497585994
 20
-464.7994100871741
 30
717.1428685411467
 40
7.5
210
0.0000000000000005
220
0.9205048534524403
230
0.3907311284892737
100
AcDbArc
 50
269.9999999999988
 51
0.0
  0
ARC
  5
CB2
330
1A
100
AcDbEntity
  8
1
 62
     8
 48
0.25
100
AcDbCircle
 10
-358.9284459016156
 20
-452.2297635611499
 30
712.5403442738845
 40
89.14660385698349
210
0.0000000000000005
220
0.9205048534524403
230
0.3907311284892737
100
AcDbArc
 50
164.4864865151915
 51
180.0000000000001
  0
ARC
  5
CB3
330
1A
100
AcDbEntity
  8
1
 48
0.25
100
AcDbCircle
 10
-358.9284459016156
 20
-449.4946456617249
 30
706.0968102997177
 40
89.14660385698349
210
0.0000000000000005
220
0.9205048534524403
230
0.3907311284892737
100
AcDbArc
 50
164.4864865151915
 51
180.0000000000002
  0
ARC
  5
CB4
330
1A
100
AcDbEntity
  8
1
 62
     8
 48
0.25
100
AcDbCircle
 10
-358.9284459016156
 20
-451.8390324326606
 30
711.6198394204323
 40
89.14660385698349
210
0.0000000000000005
220
0.9205048534524403
230
0.3907311284892737
100
AcDbArc
 50
164.4864865151915
 51
180.0000000000001
  0
LINE
  5
CB5
330
1A
100
AcDbEntity
  8
1
 48
0.25
100
AcDbLine
 10
448.0750497585993
 20
837.5970910374434
 30
-137.8679994214176
 11
448.0750497585993
 21
825.5970910374433
 31
-137.8679994214176
  0
LINE
  5
CB6
330
1A
100
AcDbEntity
  8
1
 62
     8
 48
0.25
100
AcDbLine
 10
337.0750992391106
 20
830.4138864092518
 30
-120.9454298038362
 11
337.0750992391106
 21
830.9999831019865
 31
-122.3261870840167
210
0.0000000000000005
220
0.9205048534524403
230
0.3907311284892737
  0
ARC
  5
CB7
330
1A
100
AcDbEntity
  8
1
 48
0.25
100
AcDbCircle
 10
-263.0750497585992
 20
-454.2994100871732
 30
717.1428685411467
 40
90.0
210
0.0000000000000005
220
0.9205048534524403
230
0.3907311284892737
100
AcDbArc
 50
339.0751675723606
 51
15.43935551783415
  0
ARC
  5
CB8
330
1A
100
AcDbEntity
  8
1
 62
     8
 48
0.25
100
AcDbCircle
 10
-263.0750497585992
 20
-454.2994100871732
 30
717.1428685411467
 40
86.0
210
0.0000000000000005
220
0.9205048534524403
230
0.3907311284892737
100
AcDbArc
 50
339.0751675723606
 51
15.43935551783415
  0
LINE
  5
CB9
330
1A
100
AcDbEntity
  8
1
 62
     8
 48
0.25
100
AcDbLine
 10
201.0750497585949
 20
846.2384971130669
 30
-158.2258763686576
 11
201.0750497585949
 21
827.8741340740706
 31
-114.9621482563932
210
0.0000000000000005
220
0.9205048534524403
230
0.3907311284892737
  0
ARC
  5
CBA
330
1A
100
AcDbEntity
  8
1
 62
     8
 48
0.25
100
AcDbCircle
 10
-262.221653615588
 20
-451.8390324326606
 30
711.6198394204306
 40
89.14660385698349
210
-0.0000000000000059
220
0.9205048534524403
230
0.3907311284892737
100
AcDbArc
 50
359.9999999999996
 51
15.51351348480847
  0
ARC
  5
CBB
330
1A
100
AcDbEntity
  8
1
 62
     8
 48
0.25
100
AcDbCircle
 10
-262.221653615588
 20
-452.2297635611496
 30
712.5403442738827
 40
89.14660385698349
210
-0.0000000000000059
220
0.9205048534524403
230
0.3907311284892737
100
AcDbArc
 50
359.9999999999996
 51
15.51351348480847
  0
ARC
  5
CBC
330
1A
100
AcDbEntity
  8
1
 48
0.25
100
AcDbCircle
 10
-262.221653615588
 20
-449.4946456617249
 30
706.0968102997158
 40
89.14660385698349
210
-0.0000000000000059
220
0.9205048534524403
230
0.3907311284892737
100
AcDbArc
 50
359.9999999999996
 51
15.51351348480847
  0
LINE
  5
CBD
330
1A
100
AcDbEntity
  8
1
 48
0.25
100
AcDbLine
 10
173.0750497585991
 20
837.5970910374686
 30
-137.867999421418
 11
173.075049758599
 21
825.5970910374683
 31
-137.867999421418
  0
DIMENSION
  5
CC0
330
1A
100
AcDbEntity
  8
MEASURE
100
AcDbDimension
  2
*D2
 10
1423.259112636145
 20
201.3181598372448
 30
0.0
 11
1067.335428865195
 21
210.8181598372448
 31
0.0
 70
    32
  1
（712）
  3
AD-STANDARD
100
AcDbAlignedDimension
 13
711.4117450942448
 23
367.4458685061862
 33
0.0
 14
1423.259112636145
 24
849.0865083718622
 34
0.0
100
AcDbRotatedDimension
1001
ACAD
1000
DSTYLE
1002
{
1070
   287
1070
     1
1070
   287
1070
     1
1070
    40
1040
5.0
1070
   140
1040
2.799999999999998
1070
   271
1070
     3
1070
   272
1070
     8
1070
   289
1070
     1
1002
}
  0
LINE
  5
CC2
330
1A
100
AcDbEntity
  8
1
  6
CONTINUOUS
 62
     8
100
AcDbLine
 10
1304.252176550568
 20
820.7726793824656
 30
0.0
 11
1302.41483817541
 21
819.9826238811438
 31
0.0
  0
ARC
  5
CC3
330
1A
100
AcDbEntity
  8
1
  6
CONTINUOUS
 62
     8
100
AcDbCircle
 10
1303.333507362989
 20
820.3776516318042
 30
0.0
 40
1.0
100
AcDbArc
 50
23.26770481015119
 51
203.2677048101512
  0
LINE
  5
CC5
330
1A
100
AcDbEntity
  8
1
  6
CONTINUOUS
 62
     8
100
AcDbLine
 10
1277.718759133339
 20
786.5041563656286
 30
0.0
 11
1347.67254178815
 21
816.5842829072101
 31
0.0
  0
LINE
  5
CC6
330
1A
100
AcDbEntity
  8
1
  6
CONTINUOUS
100
AcDbLine
 10
1282.630713868147
 20
784.2621724201417
 30
0.0
 11
1351.859746571242
 21
814.0306564824857
 31
0.0
  0
LINE
  5
CC7
330
1A
100
AcDbEntity
  8
1
  6
CONTINUOUS
100
AcDbLine
 10
1390.239751631331
 20
857.7473366673601
 30
0.0
 11
1289.792492011874
 21
814.5550150307954
 31
0.0
  0
LINE
  5
CC8
330
1A
100
AcDbEntity
  8
1
  6
CONTINUOUS
 62
     8
100
AcDbLine
 10
1394.585056888603
 20
847.6419756039422
 30
0.0
 11
1273.963792559424
 21
795.7748319422083
 31
0.0
  0
ARC
  5
CC9
330
1A
100
AcDbEntity
  8
1
  6
CONTINUOUS
100
AcDbCircle
 10
1310.522615024072
 20
769.0464378229985
 30
0.0
 40
10.0
100
AcDbArc
 50
212.1483639605882
 51
270.000000000002
  0
LINE
  5
CCC
330
1A
100
AcDbEntity
  8
1
  6
CONTINUOUS
100
AcDbLine
 10
1380.410554894243
 20
326.9458685061862
 30
0.0
 11
1227.647478010442
 21
326.9458685061862
 31
0.0
  0
LINE
  5
CCD
330
1A
100
AcDbEntity
  8
1
  6
CONTINUOUS
100
AcDbLine
 10
1272.303082177197
 20
348.5622281146056
 30
0.0
 11
1340.765657394244
 21
361.0098639061861
 31
0.0
  0
LINE
  5
CDF
330
1A
100
AcDbEntity
  8
1
  6
CONTINUOUS
100
AcDbLine
 10
793.4419293496703
 20
321.9458685061862
 30
0.0
 11
1159.389372139708
 21
321.9458685061862
 31
0.0
  0
LINE
  5
CE0
330
1A
100
AcDbEntity
  8
1
  6
CONTINUOUS
 62
     8
100
AcDbLine
 10
858.0106524942449
 20
333.4458685061862
 30
0.0
 11
768.7085589942453
 21
333.4458685061862
 31
0.0
  0
LINE
  5
CE1
330
1A
100
AcDbEntity
  8
1
  6
CONTINUOUS
100
AcDbLine
 10
1246.806062694243
 20
340.4458685061862
 30
0.0
 11
738.7758502942451
 21
340.4458685061862
 31
0.0
  0
LINE
  5
CE2
330
1A
100
AcDbEntity
  8
1
  6
CONTINUOUS
100
AcDbLine
 10
711.4117450942448
 20
367.4458685061862
 30
0.0
 11
1241.411653494244
 21
367.4458685061862
 31
0.0
  0
LINE
  5
CE3
330
1A
100
AcDbEntity
  8
1
  6
CONTINUOUS
100
AcDbLine
 10
1229.911653494244
 20
437.4458685061862
 30
0.0
 11
722.9117602942451
 21
437.4458685061862
 31
0.0
  0
ARC
  5
CE6
330
1A
100
AcDbEntity
  8
1
  6
CONTINUOUS
100
AcDbCircle
 10
722.9117602942451
 20
425.9458685061862
 30
0.0
 40
11.5
100
AcDbArc
 50
90.0
 51
180.0
  0
LINE
  5
CE7
330
1A
100
AcDbEntity
  8
1
  6
CONTINUOUS
100
AcDbLine
 10
711.4117450942448
 20
425.9458685061862
 30
0.0
 11
711.4117450942448
 21
367.4458685061862
 31
0.0
  0
ARC
  5
CE9
330
1A
100
AcDbEntity
  8
1
  6
CONTINUOUS
100
AcDbCircle
 10
738.7758502942451
 20
346.4458685061862
 30
0.0
 40
6.0
100
AcDbArc
 50
196.6990966999999
 51
270.0
  0
LINE
  5
CF4
330
1A
100
AcDbEntity
  8
1
  6
CONTINUOUS
100
AcDbLine
 10
770.7790904284088
 20
328.4457769061906
 30
0.0
 11
766.4117602942451
 21
340.4458685061862
 31
0.0
  0
LINE
  5
D04
330
1A
100
AcDbEntity
  8
1
  6
CONTINUOUS
100
AcDbLine
 10
733.0288562942451
 20
344.7217780061863
 30
0.0
 11
726.2117480942452
 21
367.4458685061862
 31
0.0
  0
LINE
  5
D05
330
1A
100
AcDbEntity
  8
1
  6
CONTINUOUS
 62
     8
100
AcDbLine
 10
1054.410554894243
 20
332.9458685061863
 30
0.0
 11
1120.411653494244
 21
332.9458685061863
 31
0.0
  0
LINE
  5
D06
330
1A
100
AcDbEntity
  8
1
  6
CONTINUOUS
 62
     8
100
AcDbLine
 10
928.4116534942445
 20
332.9458685061863
 30
0.0
 11
987.4116534942444
 21
332.9458685061863
 31
0.0
  0
LINE
  5
D07
330
1A
100
AcDbEntity
  8
1
  6
CONTINUOUS
 62
     8
100
AcDbLine
 10
920.411653494245
 20
332.9458685061863
 30
0.0
 11
920.7947139942442
 21
321.9458685061862
 31
0.0
  0
LINE
  5
D08
330
1A
100
AcDbEntity
  8
1
  6
CONTINUOUS
 62
     8
100
AcDbLine
 10
928.4116534942445
 20
332.9458685061863
 30
0.0
 11
928.0267619942437
 21
321.9458685061862
 31
0.0
  0
LINE
  5
D09
330
1A
100
AcDbEntity
  8
1
  6
CONTINUOUS
 62
     8
100
AcDbLine
 10
858.4116534942451
 20
333.4458685061862
 30
0.0
 11
858.8126544942442
 21
321.9458685061862
 31
0.0
  0
LINE
  5
D0A
330
1A
100
AcDbEntity
  8
1
  6
CONTINUOUS
 62
     8
100
AcDbLine
 10
867.411653494245
 20
332.9458685061863
 30
0.0
 11
867.0267504942449
 21
321.9458685061862
 31
0.0
  0
LINE
  5
D0B
330
1A
100
AcDbEntity
  8
1
  6
CONTINUOUS
 62
     8
100
AcDbLine
 10
867.7965564942441
 20
332.9458685061863
 30
0.0
 11
920.411653494245
 21
332.9458685061863
 31
0.0
  0
LINE
  5
D0C
330
1A
100
AcDbEntity
  8
1
  6
CONTINUOUS
 62
     8
100
AcDbLine
 10
1054.410554894243
 20
332.9458685061863
 30
0.0
 11
1054.025545094244
 21
321.9458685061862
 31
0.0
  0
LINE
  5
D0D
330
1A
100
AcDbEntity
  8
1
  6
CONTINUOUS
 62
     8
100
AcDbLine
 10
1046.410554894243
 20
332.9458685061863
 30
0.0
 11
1046.794465994244
 21
321.9458685061862
 31
0.0
  0
LINE
  5
D0E
330
1A
100
AcDbEntity
  8
1
  6
CONTINUOUS
 62
     8
100
AcDbLine
 10
987.4116534942444
 20
332.9458685061863
 30
0.0
 11
987.7947139942437
 21
321.9458685061862
 31
0.0
  0
LINE
  5
D0F
330
1A
100
AcDbEntity
  8
1
  6
CONTINUOUS
 62
     8
100
AcDbLine
 10
995.4116534942444
 20
332.9458685061863
 30
0.0
 11
995.0267638942445
 21
321.9458685061862
 31
0.0
  0
LINE
  5
D10
330
1A
100
AcDbEntity
  8
1
  6
CONTINUOUS
 62
     8
100
AcDbLine
 10
995.7965430942445
 20
332.9458685061863
 30
0.0
 11
1046.410554894243
 21
332.9458685061863
 31
0.0
  0
LINE
  5
D11
330
1A
100
AcDbEntity
  8
1
  6
CONTINUOUS
 62
     8
100
AcDbLine
 10
1129.411653494244
 20
333.4458685061862
 30
0.0
 11
1187.919557594244
 21
333.4458685061861
 31
0.0
  0
LINE
  5
D16
330
1A
100
AcDbEntity
  8
1
  6
CONTINUOUS
 62
     8
100
AcDbLine
 10
1120.411653494244
 20
332.9458685061863
 30
0.0
 11
1120.795549394243
 21
321.9458685061862
 31
0.0
  0
LINE
  5
D17
330
1A
100
AcDbEntity
  8
1
  6
CONTINUOUS
 62
     8
100
AcDbLine
 10
1129.411653494244
 20
333.4458685061862
 30
0.0
 11
1129.009157194244
 21
321.9458685061862
 31
0.0
  0
LINE
  5
D18
330
1A
100
AcDbEntity
  8
1
  6
CONTINUOUS
100
AcDbLine
 10
1182.044009465129
 20
328.4457769061813
 30
0.0
 11
1183.863557794244
 21
333.4458685061862
 31
0.0
  0
ARC
  5
D1B
330
1A
100
AcDbEntity
  8
1
  6
CONTINUOUS
100
AcDbCircle
 10
1229.911653494244
 20
425.9458685061862
 30
0.0
 40
11.5
100
AcDbArc
 50
0.0
 51
90.0
  0
LINE
  5
D1C
330
1A
100
AcDbEntity
  8
1
  6
CONTINUOUS
100
AcDbLine
 10
1241.411653494244
 20
425.9458685061862
 30
0.0
 11
1241.411653494244
 21
367.4458685061862
 31
0.0
  0
LINE
  5
D1D
330
1A
100
AcDbEntity
  8
1
  6
CONTINUOUS
100
AcDbLine
 10
1271.979646694244
 20
339.3759833061863
 30
0.0
 11
1272.411653494244
 21
351.6458808061861
 31
0.0
  0
ARC
  5
D1E
330
1A
100
AcDbEntity
  8
1
  6
CONTINUOUS
100
AcDbCircle
 10
1269.980653694244
 20
339.4458685061862
 30
0.0
 40
2.0
100
AcDbArc
 50
270.0
 51
357.9833678999999
  0
ARC
  5
D1F
330
1A
100
AcDbEntity
  8
1
  6
CONTINUOUS
100
AcDbCircle
 10
1248.842561694244
 20
339.4458685061862
 30
0.0
 40
2.0
100
AcDbArc
 50
182.0168151999999
 51
270.0
  0
LINE
  5
D20
330
1A
100
AcDbEntity
  8
1
  6
CONTINUOUS
100
AcDbLine
 10
1246.843660294244
 20
339.3759833061863
 30
0.0
 11
1246.806062694243
 21
340.4458685061862
 31
0.0
  0
LINE
  5
D21
330
1A
100
AcDbEntity
  8
1
  6
CONTINUOUS
100
AcDbLine
 10
1248.842561694244
 20
337.4458685061862
 30
0.0
 11
1269.980653694244
 21
337.4458685061862
 31
0.0
  0
ARC
  5
D22
330
1A
100
AcDbEntity
  8
1
  6
CONTINUOUS
100
AcDbCircle
 10
1214.047655094244
 20
346.4458685061862
 30
0.0
 40
6.0
100
AcDbArc
 50
270.0
 51
343.3010024999997
  0
ARC
  5
D23
330
1A
100
AcDbEntity
  8
1
  6
CONTINUOUS
100
AcDbCircle
 10
1214.179552094244
 20
336.4458685061862
 30
0.0
 40
3.0
100
AcDbArc
 50
270.0
 51
343.3003998
  0
ARC
  5
D24
330
1A
100
AcDbEntity
  8
1
  6
CONTINUOUS
100
AcDbCircle
 10
1271.611665694244
 20
351.6458808061861
 30
0.0
 40
0.8
100
AcDbArc
 50
0.0
 51
90.0
  0
LINE
  5
D25
330
1A
100
AcDbEntity
  8
1
  6
CONTINUOUS
100
AcDbLine
 10
1237.929567294243
 20
351.6458808061861
 30
0.0
 11
1246.411653494244
 21
351.6458808061861
 31
0.0
  0
ARC
  5
D26
330
1A
100
AcDbEntity
  8
1
  6
CONTINUOUS
100
AcDbCircle
 10
1247.211549694243
 20
351.6458808061861
 30
0.0
 40
0.8
100
AcDbArc
 50
90.0
 51
180.0
  0
ARC
  5
D27
330
1A
100
AcDbEntity
  8
1
  6
CONTINUOUS
100
AcDbCircle
 10
1237.929567294243
 20
355.6458808061861
 30
0.0
 40
4.0
100
AcDbArc
 50
181.9966125000002
 51
270.0
  0
LINE
  5
D28
330
1A
100
AcDbEntity
  8
1
  6
CONTINUOUS
100
AcDbLine
 10
1247.211549694243
 20
352.4458685061862
 30
0.0
 11
1271.611665694244
 21
352.4458685061862
 31
0.0
  0
LINE
  5
D29
330
1A
100
AcDbEntity
  8
1
  6
CONTINUOUS
100
AcDbLine
 10
1217.053148294243
 20
335.5837775061863
 30
0.0
 11
1226.611650394244
 21
367.4458685061862
 31
0.0
  0
LINE
  5
D2A
330
1A
100
AcDbEntity
  8
1
  6
CONTINUOUS
100
AcDbLine
 10
1233.516359294244
 20
367.4458685061862
 30
0.0
 11
1233.932649594244
 21
355.5069647061863
 31
0.0
  0
LINE
  5
D3F
330
1A
100
AcDbEntity
  8
1
  6
CONTINUOUS
100
AcDbLine
 10
1204.919557594244
 20
333.4458685061862
 30
0.0
 11
1214.179552094244
 21
333.4458685061862
 31
0.0
  0
ARC
  5
D41
330
1A
100
AcDbEntity
  8
1
 62
     8
 48
0.25
100
AcDbCircle
 10
-214.5750497585987
 20
-369.5494100871711
 30
717.1428685411467
 40
20.0
210
0.0000000000000005
220
0.9205048534524403
230
0.3907311284892737
100
AcDbArc
 50
0.0
 51
90.0
  0
LINE
  5
D43
330
1A
100
AcDbEntity
  8
1
 62
     8
 48
0.25
100
AcDbLine
 10
331.075049758597
 20
815.5661035266597
 30
-85.96624537264347
 11
331.075049758597
 21
797.4947888340308
 31
-43.39289590046898
210
0.0000000000000005
220
0.9205048534524403
230
0.3907311284892737
  0
LINE
  5
D45
330
1A
100
AcDbEntity
  8
1
 62
     8
 48
0.25
100
AcDbLine
 10
331.0750497585983
 20
815.6637863087819
 30
-86.19637158600722
 11
331.0750497585983
 21
797.4947888340309
 31
-43.39289590046859
210
0.0000000000000005
220
0.9205048534524403
230
0.3907311284892737
  0
ARC
  5
D46
330
1A
100
AcDbEntity
  8
1
 62
     8
 48
0.25
100
AcDbCircle
 10
-213.1241357585501
 20
-373.4179141739776
 30
717.1428685411467
 40
26.1185502118284
210
0.0000000000000005
220
0.9205048534524403
230
0.3907311284892737
100
AcDbArc
 50
0.2626104772850812
 51
89.89232088829098
  0
ARC
  5
D47
330
1A
100
AcDbEntity
  8
1
 62
     8
 48
0.25
100
AcDbCircle
 10
-408.1442460360316
 20
-373.2981226309735
 30
717.1428685411467
 40
26.0
210
0.0000000000000005
220
0.9205048534524403
230
0.3907311284892737
100
AcDbArc
 50
89.42981080968911
 51
179.9999999999963
  0
ARC
  5
D48
330
1A
100
AcDbEntity
  8
1
 62
     8
 48
0.25
100
AcDbCircle
 10
-408.0704877198071
 20
-369.2994100871725
 30
717.1428685411467
 40
30.0
210
0.0000000000000005
220
0.9205048534524403
230
0.3907311284892737
100
AcDbArc
 50
90.0
 51
178.9999999999897
  0
ARC
  5
D49
330
1A
100
AcDbEntity
  8
1
 62
     8
 48
0.25
100
AcDbCircle
 10
-213.0750497585992
 20
-369.2994100871733
 30
717.1428685411467
 40
30.0
210
0.0000000000000005
220
0.9205048534524403
230
0.3907311284892737
100
AcDbArc
 50
0.0
 51
90.0
  0
ARC
  5
D4A
330
1A
100
AcDbEntity
  8
1
 62
     8
 48
0.25
100
AcDbCircle
 10
-408.0704857310659
 20
-368.5179099519771
 30
715.3017695987547
 40
30.0
210
0.0000000000000005
220
0.9205048534524403
230
0.3907311284892737
100
AcDbArc
 50
89.9998541952039
 51
178.9999999999897
  0
ARC
  5
D4B
330
1A
100
AcDbEntity
  8
1
 62
     8
 48
0.25
100
AcDbCircle
 10
-213.0796137861376
 20
-368.517909951977
 30
715.3017695987531
 40
30.0
210
-0.0000000000000059
220
0.9205048534524403
230
0.3907311284892737
100
AcDbArc
 50
1.000000000010224
 51
90.00014580479607
  0
ARC
  5
D4C
330
1A
100
AcDbEntity
  8
1
 62
     8
 48
0.25
100
AcDbCircle
 10
-213.0796147083475
 20
-368.1271776934031
 30
714.3812620829883
 40
30.0
210
-0.0000000000000059
220
0.9205048534524403
230
0.3907311284892737
100
AcDbArc
 50
1.000000000010224
 51
90.00013523002955
  0
ARC
  5
D4E
330
1A
100
AcDbEntity
  8
1
 62
     8
 48
0.25
100
AcDbCircle
 10
-213.0796157747969
 20
-363.0476684572203
 30
702.4146882317036
 40
30.0
210
-0.0000000000000059
220
0.9205048534524403
230
0.3907311284892737
100
AcDbArc
 50
7.256229116904332
 51
90.00014580479669
  0
ARC
  5
D4F
330
1A
100
AcDbEntity
  8
1
 62
     8
 48
0.25
100
AcDbCircle
 10
-213.0796136035963
 20
-363.9236833037786
 30
704.4784498804646
 40
30.0
210
-0.0000000000000059
220
0.9205048534524403
230
0.3907311284892737
100
AcDbArc
 50
7.256229116904332
 51
90.00014580479669
  0
ARC
  5
D50
330
1A
100
AcDbEntity
  8
1
 62
     8
 48
0.25
100
AcDbCircle
 10
-408.0704859136075
 20
-363.9236833037787
 30
704.4784498804663
 40
30.0
210
0.0000000000000005
220
0.9205048534524403
230
0.3907311284892737
100
AcDbArc
 50
89.99985419520328
 51
172.7437708830955
  0
ARC
  5
D51
330
1A
100
AcDbEntity
  8
1
 62
     8
 48
0.25
100
AcDbCircle
 10
-408.0704837424066
 20
-363.0476684572205
 30
702.4146882317054
 40
30.0
210
0.0000000000000005
220
0.9205048534524403
230
0.3907311284892737
100
AcDbArc
 50
89.99985419520328
 51
172.7437708830955
  0
LINE
  5
D52
330
1A
100
AcDbEntity
  8
1
 48
0.25
100
AcDbLine
 10
437.8302204516637
 20
786.9495946818617
 30
-46.82020369889587
 11
438.3589205313075
 21
798.7845308220783
 31
-74.70156600419795
210
0.0000000000000005
220
0.9205048534524403
230
0.3907311284892737
  0
ARC
  5
D53
330
1A
100
AcDbEntity
  8
1
 62
     8
 48
0.25
100
AcDbCircle
 10
-408.0704848088561
 20
-368.1271776934032
 30
714.3812620829898
 40
30.0
210
0.0000000000000005
220
0.9205048534524403
230
0.3907311284892737
100
AcDbArc
 50
89.99986476997042
 51
178.9999999999897
  0
LINE
  5
D54
330
1A
100
AcDbEntity
  8
1
 48
0.25
100
AcDbLine
 10
183.3198790655344
 20
786.9495946818608
 30
-46.82020369889587
 11
182.7911789858906
 21
798.7845308220776
 31
-74.70156600419795
210
-0.0000000000000059
220
0.9205048534524403
230
0.3907311284892737
  0
POLYLINE
  5
D55
330
1A
100
AcDbEntity
  8
1
 62
     8
 48
0.25
100
AcDb2dPolyline
 66
     1
 10
0.0
 20
0.0
 30
711.1165234550543
 70
     1
210
0.0000000000000005
220
0.9205048534524403
230
0.3907311284892737
  0
VERTEX
  5
1E38
330
D55
100
AcDbEntity
  8
1
 62
     8
 48
0.25
100
AcDbVertex
100
AcDb2dVertex
 10
-209.5750497585981
 20
-372.2779347888023
 30
711.1165234550543
  0
VERTEX
  5
1E39
330
D55
100
AcDbEntity
  8
1
 62
     8
 48
0.25
100
AcDbVertex
100
AcDb2dVertex
 10
-224.5750497585981
 20
-372.2779347888023
 30
711.1165234550543
 42
0.4142135623730951
  0
VERTEX
  5
1E3A
330
D55
100
AcDbEntity
  8
1
 62
     8
 48
0.25
100
AcDbVertex
100
AcDb2dVertex
 10
-226.5750497585981
 20
-374.2779347888025
 30
711.1165234550543
  0
VERTEX
  5
1E3B
330
D55
100
AcDbEntity
  8
1
 62
     8
 48
0.25
100
AcDbVertex
100
AcDb2dVertex
 10
-226.5750497585981
 20
-382.277934788802
 30
711.1165234550543
 42
0.4142135623730951
  0
VERTEX
  5
1E3C
330
D55
100
AcDbEntity
  8
1
 62
     8
 48
0.25
100
AcDbVertex
100
AcDb2dVertex
 10
-224.5750497585981
 20
-384.2779347888023
 30
711.1165234550543
  0
VERTEX
  5
1E3D
330
D55
100
AcDbEntity
  8
1
 62
     8
 48
0.25
100
AcDbVertex
100
AcDb2dVertex
 10
-209.5750497585981
 20
-384.2779347888023
 30
711.1165234550543
 42
0.4142135623730951
  0
VERTEX
  5
1E3E
330
D55
100
AcDbEntity
  8
1
 62
     8
 48
0.25
100
AcDbVertex
100
AcDb2dVertex
 10
-207.5750497585981
 20
-382.2779347888026
 30
711.1165234550543
  0
VERTEX
  5
1E3F
330
D55
100
AcDbEntity
  8
1
 62
     8
 48
0.25
100
AcDbVertex
100
AcDb2dVertex
 10
-207.5750497585981
 20
-374.2779347888025
 30
711.1165234550543
 42
0.4142135623730984
  0
SEQEND
  5
1E40
330
D55
100
AcDbEntity
  8
1
 62
     8
 48
0.25
  0
POLYLINE
  5
D56
330
1A
100
AcDbEntity
  8
1
 62
     8
 48
0.25
100
AcDb2dPolyline
 66
     1
 10
0.0
 20
0.0
 30
711.1165234550534
 70
     1
210
0.0000000000000005
220
0.9205048534524403
230
0.3907311284892737
  0
VERTEX
  5
1E41
330
D56
100
AcDbEntity
  8
1
 62
     8
 48
0.25
100
AcDbVertex
100
AcDb2dVertex
 10
-209.5750497585981
 20
-395.2779347888025
 30
711.1165234550534
  0
VERTEX
  5
1E42
330
D56
100
AcDbEntity
  8
1
 62
     8
 48
0.25
100
AcDbVertex
100
AcDb2dVertex
 10
-224.5750497585981
 20
-395.2779347888025
 30
711.1165234550534
 42
0.4142135623730951
  0
VERTEX
  5
1E43
330
D56
100
AcDbEntity
  8
1
 62
     8
 48
0.25
100
AcDbVertex
100
AcDb2dVertex
 10
-226.5750497585981
 20
-397.2779347888016
 30
711.1165234550534
  0
VERTEX
  5
1E44
330
D56
100
AcDbEntity
  8
1
 62
     8
 48
0.25
100
AcDbVertex
100
AcDb2dVertex
 10
-226.5750497585984
 20
-405.2779347888022
 30
711.1165234550534
 42
0.4142135623730951
  0
VERTEX
  5
1E45
330
D56
100
AcDbEntity
  8
1
 62
     8
 48
0.25
100
AcDbVertex
100
AcDb2dVertex
 10
-224.5750497585984
 20
-407.2779347888022
 30
711.1165234550534
  0
VERTEX
  5
1E46
330
D56
100
AcDbEntity
  8
1
 62
     8
 48
0.25
100
AcDbVertex
100
AcDb2dVertex
 10
-209.5750497585984
 20
-407.2779347888022
 30
711.1165234550534
 42
0.4142135623730951
  0
VERTEX
  5
1E47
330
D56
100
AcDbEntity
  8
1
 62
     8
 48
0.25
100
AcDbVertex
100
AcDb2dVertex
 10
-207.5750497585984
 20
-405.2779347888022
 30
711.1165234550534
  0
VERTEX
  5
1E48
330
D56
100
AcDbEntity
  8
1
 62
     8
 48
0.25
100
AcDbVertex
100
AcDb2dVertex
 10
-207.5750497585981
 20
-397.2779347888021
 30
711.1165234550534
 42
0.4142135623730984
  0
SEQEND
  5
1E49
330
D56
100
AcDbEntity
  8
1
 62
     8
 48
0.25
  0
LINE
  5
D57
330
1A
100
AcDbEntity
  8
1
 62
     8
 48
0.25
100
AcDbLine
 10
196.5750497585974
 20
817.1290280406163
 30
-89.64826478645273
 11
329.075049758597
 21
817.1290280406166
 31
-89.6482647864534
210
0.0000000000000005
220
0.9205048534524403
230
0.3907311284892737
  0
LINE
  5
D58
330
1A
100
AcDbEntity
  8
1
 62
     8
 48
0.25
100
AcDbLine
 10
196.5750497585993
 20
816.3475657836379
 30
-87.80725507954775
 11
329.075049758597
 21
816.3475657836382
 31
-87.80725507954844
210
0.0000000000000005
220
0.9205048534524403
230
0.3907311284892737
  0
LINE
  5
D5A
330
1A
100
AcDbEntity
  8
1
 62
     8
 48
0.25
100
AcDbLine
 10
196.5750497586006
 20
816.4452485657601
 30
-88.0373812929106
 11
329.0750497585983
 21
816.4452485657605
 31
-88.03738129291195
210
0.0000000000000005
220
0.9205048534524403
230
0.3907311284892737
  0
LINE
  5
D5B
330
1A
100
AcDbEntity
  8
1
 62
     8
 48
0.25
100
AcDbLine
 10
197.1375793794593
 20
823.7714572249341
 30
-105.2968472951441
 11
330.0750497585989
 21
823.7714572249339
 31
-105.2968472951447
210
0.0000000000000005
220
0.9205048534524403
230
0.3907311284892737
  0
LINE
  5
D5D
330
1A
100
AcDbEntity
  8
1
 62
     8
 48
0.25
100
AcDbLine
 10
196.5750497585974
 20
822.9899949679557
 30
-103.4558375882392
 11
329.0750497585988
 21
822.989994967955
 31
-103.455837588238
210
0.0000000000000005
220
0.9205048534524403
230
0.3907311284892737
  0
ARC
  5
D5E
330
1A
100
AcDbEntity
  8
1
 62
     8
 48
0.25
100
AcDbCircle
 10
-429.2625575611271
 20
-411.7994100871721
 30
717.1428685411467
 40
1.0
210
0.0000000000000005
220
0.9205048534524403
230
0.3907311284892737
100
AcDbArc
 50
90.0
 51
270.0
  0
ARC
  5
D5F
330
1A
100
AcDbEntity
  8
1
 62
     8
 48
0.25
100
AcDbCircle
 10
-366.0750575611267
 20
-411.7994100871723
 30
717.1428685411467
 40
1.0
210
0.0000000000000005
220
0.9205048534524403
230
0.3907311284892737
100
AcDbArc
 50
270.0
 51
90.0
  0
LINE
  5
D60
330
1A
100
AcDbEntity
  8
1
 62
     8
 48
0.25
100
AcDbLine
 10
331.075049758597
 20
817.9104902975952
 30
-91.48927449335815
 11
331.0750497585988
 21
822.2085327109764
 31
-101.6148278813334
210
0.0000000000000005
220
0.9205048534524403
230
0.3907311284892737
  0
LINE
  5
D61
330
1A
100
AcDbEntity
  8
1
 62
     8
 48
0.25
100
AcDbLine
 10
366.075057561126
 20
824.1621883534232
 30
-106.2173521485963
 11
429.5750575611261
 21
824.1621883534232
 31
-106.2173521485963
210
0.0000000000000005
220
0.9205048534524403
230
0.3907311284892737
  0
LINE
  5
D62
330
1A
100
AcDbEntity
  8
1
 62
     8
 48
0.25
100
AcDbLine
 10
366.075057561126
 20
823.3807260964447
 30
-104.3763424416914
 11
429.5750575611261
 21
823.3807260964447
 31
-104.3763424416914
210
0.0000000000000005
220
0.9205048534524403
230
0.3907311284892737
  0
LINE
  5
D63
330
1A
100
AcDbEntity
  8
1
 62
     8
 48
0.25
100
AcDbLine
 10
366.075057561126
 20
821.4270704539982
 30
-99.77381817442939
 11
429.2625575611261
 21
821.4270704539982
 31
-99.77381817442939
210
0.0000000000000005
220
0.9205048534524403
230
0.3907311284892737
  0
ARC
  5
D64
330
1A
100
AcDbEntity
  8
1
 62
     8
 48
0.25
100
AcDbCircle
 10
-429.5750575611271
 20
-418.7994100871723
 30
717.1428685411467
 40
1.0
210
0.0000000000000005
220
0.9205048534524403
230
0.3907311284892737
100
AcDbArc
 50
90.0
 51
270.0
  0
ARC
  5
D65
330
1A
100
AcDbEntity
  8
1
 62
     8
 48
0.25
100
AcDbCircle
 10
-366.0750575611267
 20
-418.7994100871723
 30
717.1428685411467
 40
1.0
210
0.0000000000000005
220
0.9205048534524403
230
0.3907311284892737
100
AcDbArc
 50
270.0
 51
90.0
  0
ARC
  5
D66
330
1A
100
AcDbEntity
  8
1
 62
     8
 48
0.25
100
AcDbCircle
 10
-330.0750497585992
 20
-425.7994100871732
 30
717.1428685411467
 40
7.0
210
0.0000000000000005
220
0.9205048534524403
230
0.3907311284892737
100
AcDbArc
 50
90.0
 51
180.0
  0
ARC
  5
D68
330
1A
100
AcDbEntity
  8
1
 62
     8
 48
0.25
100
AcDbCircle
 10
-329.0750497585992
 20
-414.7994100871715
 30
717.1428685411467
 40
2.0
210
0.0000000000000005
220
0.9205048534524403
230
0.3907311284892737
100
AcDbArc
 50
180.0
 51
270.0000000000005
  0
LINE
  5
D69
330
1A
100
AcDbEntity
  8
1
 62
     8
 48
0.25
100
AcDbLine
 10
366.075057561126
 20
815.9568346551482
 30
-86.88675022609528
 11
428.6375575611265
 21
815.9568346551482
 31
-86.88675022609528
210
0.0000000000000005
220
0.9205048534524403
230
0.3907311284892737
  0
LINE
  5
D6A
330
1A
100
AcDbEntity
  8
1
 62
     8
 48
0.25
100
AcDbLine
 10
366.075057561126
 20
815.1753723981697
 30
-85.04574051919028
 11
428.6375575611265
 21
815.1753723981697
 31
-85.04574051919028
210
0.0000000000000005
220
0.9205048534524403
230
0.3907311284892737
  0
LINE
  5
D6B
330
1A
100
AcDbEntity
  8
1
 62
     8
 48
0.25
100
AcDbLine
 10
366.075057561126
 20
820.6456081970198
 30
-97.93280846752441
 11
429.2625575611261
 21
820.6456081970198
 31
-97.93280846752441
210
0.0000000000000005
220
0.9205048534524403
230
0.3907311284892737
  0
LINE
  5
D6C
330
1A
100
AcDbEntity
  8
1
 62
     8
 48
0.25
100
AcDbLine
 10
366.075057561126
 20
818.6919525545734
 30
-93.33028420026222
 11
428.9500575611265
 21
818.6919525545734
 31
-93.33028420026222
210
0.0000000000000005
220
0.9205048534524403
230
0.3907311284892737
  0
LINE
  5
D6D
330
1A
100
AcDbEntity
  8
1
 62
     8
 48
0.25
100
AcDbLine
 10
366.075057561126
 20
817.9104902975947
 30
-91.48927449335749
 11
428.9500575611265
 21
817.9104902975947
 31
-91.48927449335749
210
0.0000000000000005
220
0.9205048534524403
230
0.3907311284892737
  0
ARC
  5
D6E
330
1A
100
AcDbEntity
  8
1
 62
     8
 48
0.25
100
AcDbCircle
 10
-428.9500575611276
 20
-404.7994100871721
 30
717.1428685411467
 40
1.0
210
0.0000000000000005
220
0.9205048534524403
230
0.3907311284892737
100
AcDbArc
 50
90.0
 51
270.0
  0
ARC
  5
D6F
330
1A
100
AcDbEntity
  8
1
 62
     8
 48
0.25
100
AcDbCircle
 10
-428.6375575611276
 20
-397.7994100871721
 30
717.1428685411467
 40
1.0
210
0.0000000000000005
220
0.9205048534524403
230
0.3907311284892737
100
AcDbArc
 50
90.0
 51
270.0
  0
POLYLINE
  5
D70
330
1A
100
AcDbEntity
  8
1
 62
     8
 48
0.25
100
AcDb2dPolyline
 66
     1
 10
0.0
 20
0.0
 30
711.1165234550527
 70
     1
210
0.0000000000000005
220
0.9205048534524403
230
0.3907311284892737
  0
VERTEX
  5
1E4A
330
D70
100
AcDbEntity
  8
1
 62
     8
 48
0.25
100
AcDbVertex
100
AcDb2dVertex
 10
-233.5750497585982
 20
-395.3959344899567
 30
711.1165234550527
  0
VERTEX
  5
1E4B
330
D70
100
AcDbEntity
  8
1
 62
     8
 48
0.25
100
AcDbVertex
100
AcDb2dVertex
 10
-248.5750497585978
 20
-395.3959344899567
 30
711.1165234550527
 42
0.4142135623730951
  0
VERTEX
  5
1E4C
330
D70
100
AcDbEntity
  8
1
 62
     8
 48
0.25
100
AcDbVertex
100
AcDb2dVertex
 10
-250.5750497585979
 20
-397.3959344899568
 30
711.1165234550527
  0
VERTEX
  5
1E4D
330
D70
100
AcDbEntity
  8
1
 62
     8
 48
0.25
100
AcDbVertex
100
AcDb2dVertex
 10
-250.5750497585982
 20
-405.395934489957
 30
711.1165234550527
 42
0.4142135623730951
  0
VERTEX
  5
1E4E
330
D70
100
AcDbEntity
  8
1
 62
     8
 48
0.25
100
AcDbVertex
100
AcDb2dVertex
 10
-248.575049758598
 20
-407.3959344899568
 30
711.1165234550527
  0
VERTEX
  5
1E4F
330
D70
100
AcDbEntity
  8
1
 62
     8
 48
0.25
100
AcDbVertex
100
AcDb2dVertex
 10
-233.5750497585983
 20
-407.3959344899568
 30
711.1165234550527
 42
0.4142135623730951
  0
VERTEX
  5
1E50
330
D70
100
AcDbEntity
  8
1
 62
     8
 48
0.25
100
AcDbVertex
100
AcDb2dVertex
 10
-231.5750497585983
 20
-405.395934489957
 30
711.1165234550527
  0
VERTEX
  5
1E51
330
D70
100
AcDbEntity
  8
1
 62
     8
 48
0.25
100
AcDbVertex
100
AcDb2dVertex
 10
-231.5750497585982
 20
-397.3959344899567
 30
711.1165234550527
 42
0.4142135623730984
  0
SEQEND
  5
1E52
330
D70
100
AcDbEntity
  8
1
 62
     8
 48
0.25
  0
POLYLINE
  5
D71
330
1A
100
AcDbEntity
  8
1
 62
     8
 48
0.25
100
AcDb2dPolyline
 66
     1
 10
0.0
 20
0.0
 30
711.116523455053
 70
     1
210
0.0000000000000005
220
0.9205048534524403
230
0.3907311284892737
  0
VERTEX
  5
1E53
330
D71
100
AcDbEntity
  8
1
 62
     8
 48
0.25
100
AcDbVertex
100
AcDb2dVertex
 10
-305.5750497585978
 20
-395.3959344899566
 30
711.116523455053
  0
VERTEX
  5
1E54
330
D71
100
AcDbEntity
  8
1
 62
     8
 48
0.25
100
AcDbVertex
100
AcDb2dVertex
 10
-320.5750497585978
 20
-395.3959344899566
 30
711.116523455053
 42
0.4142135623730951
  0
VERTEX
  5
1E55
330
D71
100
AcDbEntity
  8
1
 62
     8
 48
0.25
100
AcDbVertex
100
AcDb2dVertex
 10
-322.5750497585978
 20
-397.3959344899569
 30
711.116523455053
  0
VERTEX
  5
1E56
330
D71
100
AcDbEntity
  8
1
 62
     8
 48
0.25
100
AcDbVertex
100
AcDb2dVertex
 10
-322.5750497585982
 20
-405.3959344899565
 30
711.116523455053
 42
0.4142135623730951
  0
VERTEX
  5
1E57
330
D71
100
AcDbEntity
  8
1
 62
     8
 48
0.25
100
AcDbVertex
100
AcDb2dVertex
 10
-320.5750497585982
 20
-407.3959344899567
 30
711.116523455053
  0
VERTEX
  5
1E58
330
D71
100
AcDbEntity
  8
1
 62
     8
 48
0.25
100
AcDbVertex
100
AcDb2dVertex
 10
-305.5750497585983
 20
-407.3959344899568
 30
711.116523455053
 42
0.4142135623730951
  0
VERTEX
  5
1E59
330
D71
100
AcDbEntity
  8
1
 62
     8
 48
0.25
100
AcDbVertex
100
AcDb2dVertex
 10
-303.5750497585983
 20
-405.3959344899565
 30
711.116523455053
  0
VERTEX
  5
1E5A
330
D71
100
AcDbEntity
  8
1
 62
     8
 48
0.25
100
AcDbVertex
100
AcDb2dVertex
 10
-303.5750497585978
 20
-397.3959344899569
 30
711.116523455053
 42
0.4142135623730984
  0
SEQEND
  5
1E5B
330
D71
100
AcDbEntity
  8
1
 62
     8
 48
0.25
  0
POLYLINE
  5
D72
330
1A
100
AcDbEntity
  8
1
 62
     8
 48
0.25
100
AcDb2dPolyline
 66
     1
 10
0.0
 20
0.0
 30
711.116523455053
 70
     1
210
0.0000000000000005
220
0.9205048534524403
230
0.3907311284892737
  0
VERTEX
  5
1E5C
330
D72
100
AcDbEntity
  8
1
 62
     8
 48
0.25
100
AcDbVertex
100
AcDb2dVertex
 10
-257.5750497585978
 20
-395.3959344899568
 30
711.116523455053
  0
VERTEX
  5
1E5D
330
D72
100
AcDbEntity
  8
1
 62
     8
 48
0.25
100
AcDbVertex
100
AcDb2dVertex
 10
-272.5750497585978
 20
-395.3959344899568
 30
711.116523455053
 42
0.4142135623730951
  0
VERTEX
  5
1E5E
330
D72
100
AcDbEntity
  8
1
 62
     8
 48
0.25
100
AcDbVertex
100
AcDb2dVertex
 10
-274.5750497585978
 20
-397.3959344899568
 30
711.116523455053
  0
VERTEX
  5
1E5F
330
D72
100
AcDbEntity
  8
1
 62
     8
 48
0.25
100
AcDbVertex
100
AcDb2dVertex
 10
-274.5750497585981
 20
-405.395934489957
 30
711.116523455053
 42
0.4142135623730951
  0
VERTEX
  5
1E60
330
D72
100
AcDbEntity
  8
1
 62
     8
 48
0.25
100
AcDbVertex
100
AcDb2dVertex
 10
-272.5750497585981
 20
-407.3959344899569
 30
711.116523455053
  0
VERTEX
  5
1E61
330
D72
100
AcDbEntity
  8
1
 62
     8
 48
0.25
100
AcDbVertex
100
AcDb2dVertex
 10
-257.5750497585983
 20
-407.3959344899569
 30
711.116523455053
 42
0.4142135623730951
  0
VERTEX
  5
1E62
330
D72
100
AcDbEntity
  8
1
 62
     8
 48
0.25
100
AcDbVertex
100
AcDb2dVertex
 10
-255.5750497585983
 20
-405.395934489957
 30
711.116523455053
  0
VERTEX
  5
1E63
330
D72
100
AcDbEntity
  8
1
 62
     8
 48
0.25
100
AcDbVertex
100
AcDb2dVertex
 10
-255.5750497585978
 20
-397.3959344899568
 30
711.116523455053
 42
0.4142135623730984
  0
SEQEND
  5
1E64
330
D72
100
AcDbEntity
  8
1
 62
     8
 48
0.25
  0
POLYLINE
  5
D73
330
1A
100
AcDbEntity
  8
1
 62
     8
 48
0.25
100
AcDb2dPolyline
 66
     1
 10
0.0
 20
0.0
 30
711.116523455053
 70
     1
210
0.0000000000000005
220
0.9205048534524403
230
0.3907311284892737
  0
VERTEX
  5
1E65
330
D73
100
AcDbEntity
  8
1
 62
     8
 48
0.25
100
AcDbVertex
100
AcDb2dVertex
 10
-281.5750497585978
 20
-395.3959344899568
 30
711.116523455053
  0
VERTEX
  5
1E66
330
D73
100
AcDbEntity
  8
1
 62
     8
 48
0.25
100
AcDbVertex
100
AcDb2dVertex
 10
-296.5750497585978
 20
-395.3959344899566
 30
711.116523455053
 42
0.4142135623730951
  0
VERTEX
  5
1E67
330
D73
100
AcDbEntity
  8
1
 62
     8
 48
0.25
100
AcDbVertex
100
AcDb2dVertex
 10
-298.5750497585978
 20
-397.3959344899569
 30
711.116523455053
  0
VERTEX
  5
1E68
330
D73
100
AcDbEntity
  8
1
 62
     8
 48
0.25
100
AcDbVertex
100
AcDb2dVertex
 10
-298.5750497585982
 20
-405.3959344899566
 30
711.116523455053
 42
0.4142135623730951
  0
VERTEX
  5
1E69
330
D73
100
AcDbEntity
  8
1
 62
     8
 48
0.25
100
AcDbVertex
100
AcDb2dVertex
 10
-296.575049758598
 20
-407.3959344899568
 30
711.116523455053
  0
VERTEX
  5
1E6A
330
D73
100
AcDbEntity
  8
1
 62
     8
 48
0.25
100
AcDbVertex
100
AcDb2dVertex
 10
-281.5750497585984
 20
-407.3959344899569
 30
711.116523455053
 42
0.4142135623730951
  0
VERTEX
  5
1E6B
330
D73
100
AcDbEntity
  8
1
 62
     8
 48
0.25
100
AcDbVertex
100
AcDb2dVertex
 10
-279.5750497585983
 20
-405.3959344899568
 30
711.116523455053
  0
VERTEX
  5
1E6C
330
D73
100
AcDbEntity
  8
1
 62
     8
 48
0.25
100
AcDbVertex
100
AcDb2dVertex
 10
-279.5750497585978
 20
-397.3959344899567
 30
711.116523455053
 42
0.4142135623730984
  0
SEQEND
  5
1E6D
330
D73
100
AcDbEntity
  8
1
 62
     8
 48
0.25
  0
ARC
  5
D74
330
1A
100
AcDbEntity
  8
1
 62
     8
 48
0.25
100
AcDbCircle
 10
-366.0750575611267
 20
-404.7994100871723
 30
717.1428685411467
 40
1.0
210
0.0000000000000005
220
0.9205048534524403
230
0.3907311284892737
100
AcDbArc
 50
270.0
 51
90.0
  0
ARC
  5
D75
330
1A
100
AcDbEntity
  8
1
 62
     8
 48
0.25
100
AcDbCircle
 10
-329.0750497585974
 20
-397.7994100871732
 30
717.1428685411467
 40
2.0
210
0.0000000000000005
220
0.9205048534524403
230
0.3907311284892737
100
AcDbArc
 50
179.9999999999988
 51
270.0000000000005
  0
ARC
  5
D77
330
1A
100
AcDbEntity
  8
1
 62
     8
 48
0.25
100
AcDbCircle
 10
-329.0750497585987
 20
-398.0494100871727
 30
717.1428685411467
 40
2.0
210
0.0000000000000005
220
0.9205048534524403
230
0.3907311284892737
100
AcDbArc
 50
179.9999999999988
 51
270.0000000000005
  0
ARC
  5
D78
330
1A
100
AcDbEntity
  8
1
 62
     8
 48
0.25
100
AcDbCircle
 10
-366.0750575611267
 20
-397.7994100871723
 30
717.1428685411467
 40
1.0
210
0.0000000000000005
220
0.9205048534524403
230
0.3907311284892737
100
AcDbArc
 50
270.0
 51
90.0
  0
ARC
  5
D79
330
1A
100
AcDbEntity
  8
1
 62
     8
 48
0.25
100
AcDbCircle
 10
-329.0750497585974
 20
-403.7994100871732
 30
717.1428685411467
 40
2.0
210
0.0000000000000005
220
0.9205048534524403
230
0.3907311284892737
100
AcDbArc
 50
90.00000000000047
 51
179.9999999999938
  0
LINE
  5
D7A
330
1A
100
AcDbEntity
  8
1
 62
     8
 48
0.25
100
AcDbLine
 10
434.1284075385273
 20
805.6381435164675
 30
-62.577437294829
 11
434.3595297506819
 21
810.8118076159271
 31
-74.76582610351944
210
0.0000000000000005
220
0.9205048534524403
230
0.3907311284892737
  0
LINE
  5
D7B
330
1A
100
AcDbEntity
  8
1
 62
     8
 48
0.25
100
AcDbLine
 10
438.065918574499
 20
804.2256904108496
 30
-59.2499063043449
 11
438.3589205313075
 21
810.7845308220783
 31
-74.70156600419795
210
0.0000000000000005
220
0.9205048534524403
230
0.3907311284892737
  0
LINE
  5
D7C
330
1A
100
AcDbEntity
  8
1
 62
     8
 48
0.25
100
AcDbLine
 10
438.3589205313066
 20
804.7845308220782
 30
-74.70156600419763
 11
438.0659156635472
 21
801.2255905767222
 31
-59.24990630434585
  0
LINE
  5
D7D
330
1A
100
AcDbEntity
  8
1
 62
     8
 48
0.25
100
AcDbLine
 10
438.3589205313066
 20
805.7845308220782
 30
-74.70156600419763
 11
438.065916585757
 21
802.2255934689527
 31
-59.24990630434582
  0
POLYLINE
  5
D7E
330
1A
100
AcDbEntity
  8
1
 62
     8
 48
0.25
100
AcDb2dPolyline
 66
     1
 10
0.0
 20
0.0
 30
711.1165234550535
 70
     1
210
0.0000000000000005
220
0.9205048534524403
230
0.3907311284892737
  0
VERTEX
  5
1E6E
330
D7E
100
AcDbEntity
  8
1
 62
     8
 48
0.25
100
AcDbVertex
100
AcDb2dVertex
 10
-305.5750497585979
 20
-372.1599350876483
 30
711.1165234550535
  0
VERTEX
  5
1E6F
330
D7E
100
AcDbEntity
  8
1
 62
     8
 48
0.25
100
AcDbVertex
100
AcDb2dVertex
 10
-320.5750497585978
 20
-372.1599350876484
 30
711.1165234550535
 42
0.4142135623730951
  0
VERTEX
  5
1E70
330
D7E
100
AcDbEntity
  8
1
 62
     8
 48
0.25
100
AcDbVertex
100
AcDb2dVertex
 10
-322.5750497585978
 20
-374.1599350876484
 30
711.1165234550535
  0
VERTEX
  5
1E71
330
D7E
100
AcDbEntity
  8
1
 62
     8
 48
0.25
100
AcDbVertex
100
AcDb2dVertex
 10
-322.5750497585978
 20
-382.1599350876482
 30
711.1165234550535
 42
0.4142135623730951
  0
VERTEX
  5
1E72
330
D7E
100
AcDbEntity
  8
1
 62
     8
 48
0.25
100
AcDbVertex
100
AcDb2dVertex
 10
-320.5750497585978
 20
-384.1599350876483
 30
711.1165234550535
  0
VERTEX
  5
1E73
330
D7E
100
AcDbEntity
  8
1
 62
     8
 48
0.25
100
AcDbVertex
100
AcDb2dVertex
 10
-305.5750497585981
 20
-384.1599350876483
 30
711.1165234550535
 42
0.4142135623730951
  0
VERTEX
  5
1E74
330
D7E
100
AcDbEntity
  8
1
 62
     8
 48
0.25
100
AcDbVertex
100
AcDb2dVertex
 10
-303.5750497585981
 20
-382.1599350876482
 30
711.1165234550535
  0
VERTEX
  5
1E75
330
D7E
100
AcDbEntity
  8
1
 62
     8
 48
0.25
100
AcDbVertex
100
AcDb2dVertex
 10
-303.5750497585978
 20
-374.1599350876484
 30
711.1165234550535
 42
0.4142135623730984
  0
SEQEND
  5
1E76
330
D7E
100
AcDbEntity
  8
1
 62
     8
 48
0.25
  0
POLYLINE
  5
D7F
330
1A
100
AcDbEntity
  8
1
 62
     8
 48
0.25
100
AcDb2dPolyline
 66
     1
 10
0.0
 20
0.0
 30
711.1165234550533
 70
     1
210
0.0000000000000005
220
0.9205048534524403
230
0.3907311284892737
  0
VERTEX
  5
1E77
330
D7F
100
AcDbEntity
  8
1
 62
     8
 48
0.25
100
AcDbVertex
100
AcDb2dVertex
 10
-281.5750497585978
 20
-372.1599350876483
 30
711.1165234550533
  0
VERTEX
  5
1E78
330
D7F
100
AcDbEntity
  8
1
 62
     8
 48
0.25
100
AcDbVertex
100
AcDb2dVertex
 10
-296.5750497585979
 20
-372.1599350876483
 30
711.1165234550533
 42
0.4142135623730951
  0
VERTEX
  5
1E79
330
D7F
100
AcDbEntity
  8
1
 62
     8
 48
0.25
100
AcDbVertex
100
AcDb2dVertex
 10
-298.5750497585978
 20
-374.1599350876483
 30
711.1165234550533
  0
VERTEX
  5
1E7A
330
D7F
100
AcDbEntity
  8
1
 62
     8
 48
0.25
100
AcDbVertex
100
AcDb2dVertex
 10
-298.5750497585978
 20
-382.1599350876486
 30
711.1165234550533
 42
0.4142135623730951
  0
VERTEX
  5
1E7B
330
D7F
100
AcDbEntity
  8
1
 62
     8
 48
0.25
100
AcDbVertex
100
AcDb2dVertex
 10
-296.5750497585978
 20
-384.1599350876487
 30
711.1165234550533
  0
VERTEX
  5
1E7C
330
D7F
100
AcDbEntity
  8
1
 62
     8
 48
0.25
100
AcDbVertex
100
AcDb2dVertex
 10
-281.5750497585982
 20
-384.1599350876487
 30
711.1165234550533
 42
0.4142135623730951
  0
VERTEX
  5
1E7D
330
D7F
100
AcDbEntity
  8
1
 62
     8
 48
0.25
100
AcDbVertex
100
AcDb2dVertex
 10
-279.5750497585982
 20
-382.1599350876486
 30
711.1165234550533
  0
VERTEX
  5
1E7E
330
D7F
100
AcDbEntity
  8
1
 62
     8
 48
0.25
100
AcDbVertex
100
AcDb2dVertex
 10
-279.5750497585978
 20
-374.1599350876487
 30
711.1165234550533
 42
0.4142135623730984
  0
SEQEND
  5
1E7F
330
D7F
100
AcDbEntity
  8
1
 62
     8
 48
0.25
  0
LINE
  5
D80
330
1A
100
AcDbEntity
  8
1
 62
     8
 48
0.25
100
AcDbLine
 10
366.075057561126
 20
813.2217167557234
 30
-80.44321625192811
 11
428.3250575611265
 21
813.2217167557234
 31
-80.44321625192811
210
0.0000000000000005
220
0.9205048534524403
230
0.3907311284892737
  0
LINE
  5
D81
330
1A
100
AcDbEntity
  8
1
 62
     8
 48
0.25
100
AcDbLine
 10
366.075057561126
 20
812.4402544987448
 30
-78.60220654502312
 11
428.3250575611265
 21
812.4402544987448
 31
-78.60220654502312
210
0.0000000000000005
220
0.9205048534524403
230
0.3907311284892737
  0
LINE
  5
D82
330
1A
100
AcDbEntity
  8
1
 62
     8
 48
0.25
100
AcDbLine
 10
366.075057561126
 20
810.4865988562986
 30
-73.99968227776094
 11
428.0125575611266
 21
810.4865988562986
 31
-73.99968227776094
210
0.0000000000000005
220
0.9205048534524403
230
0.3907311284892737
  0
LINE
  5
D83
330
1A
100
AcDbEntity
  8
1
 62
     8
 48
0.25
100
AcDbLine
 10
366.075057561126
 20
809.70513659932
 30
-72.15867257085618
 11
428.0125575611266
 21
809.70513659932
 31
-72.15867257085618
210
0.0000000000000005
220
0.9205048534524403
230
0.3907311284892737
  0
ARC
  5
D84
330
1A
100
AcDbEntity
  8
1
 62
     8
 48
0.25
100
AcDbCircle
 10
-428.3250575611275
 20
-390.799410087172
 30
717.1428685411467
 40
1.0
210
0.0000000000000005
220
0.9205048534524403
230
0.3907311284892737
100
AcDbArc
 50
90.0
 51
270.0
  0
ARC
  5
D85
330
1A
100
AcDbEntity
  8
1
 62
     8
 48
0.25
100
AcDbCircle
 10
-428.0125575611276
 20
-383.7994100871723
 30
717.1428685411467
 40
1.0
210
0.0000000000000005
220
0.9205048534524403
230
0.3907311284892737
100
AcDbArc
 50
90.0
 51
270.0
  0
ARC
  5
D86
330
1A
100
AcDbEntity
  8
1
 62
     8
 48
0.25
100
AcDbCircle
 10
-366.0750575611267
 20
-390.7994100871723
 30
717.1428685411467
 40
1.0
210
0.0000000000000005
220
0.9205048534524403
230
0.3907311284892737
100
AcDbArc
 50
270.0
 51
90.0
  0
ARC
  5
D87
330
1A
100
AcDbEntity
  8
1
 62
     8
 48
0.25
100
AcDbCircle
 10
-366.0750575611267
 20
-383.7994100871725
 30
717.1428685411467
 40
1.0
210
0.0000000000000005
220
0.9205048534524403
230
0.3907311284892737
100
AcDbArc
 50
270.0
 51
90.0
  0
LINE
  5
D88
330
1A
100
AcDbEntity
  8
1
 62
     8
 48
0.25
100
AcDbLine
 10
366.075057561126
 20
804.23490080047
 30
-59.27160462252185
 11
427.3875575611265
 21
804.23490080047
 31
-59.27160462252185
210
0.0000000000000005
220
0.9205048534524403
230
0.3907311284892737
  0
LINE
  5
D89
330
1A
100
AcDbEntity
  8
1
 62
     8
 48
0.25
100
AcDbLine
 10
366.075057561126
 20
807.7514809568736
 30
-67.556148303594
 11
427.7000575611266
 21
807.7514809568736
 31
-67.556148303594
210
0.0000000000000005
220
0.9205048534524403
230
0.3907311284892737
  0
LINE
  5
D8A
330
1A
100
AcDbEntity
  8
1
 62
     8
 48
0.25
100
AcDbLine
 10
366.075057561126
 20
806.970018699895
 30
-65.71513859668903
 11
427.7000575611266
 21
806.970018699895
 31
-65.71513859668903
210
0.0000000000000005
220
0.9205048534524403
230
0.3907311284892737
  0
LINE
  5
D8B
330
1A
100
AcDbEntity
  8
1
 62
     8
 48
0.25
100
AcDbLine
 10
366.075057561126
 20
805.0163630574484
 30
-61.11261432942683
 11
427.3875575611265
 21
805.0163630574484
 31
-61.11261432942683
210
0.0000000000000005
220
0.9205048534524403
230
0.3907311284892737
  0
ARC
  5
D8C
330
1A
100
AcDbEntity
  8
1
 62
     8
 48
0.25
100
AcDbCircle
 10
-427.7000575611276
 20
-376.7994100871725
 30
717.1428685411467
 40
1.0
210
0.0000000000000005
220
0.9205048534524403
230
0.3907311284892737
100
AcDbArc
 50
90.0
 51
270.0
  0
ARC
  5
D8D
330
1A
100
AcDbEntity
  8
1
 62
     8
 48
0.25
100
AcDbCircle
 10
-427.3875575611276
 20
-369.7994100871726
 30
717.1428685411467
 40
1.0
210
0.0000000000000005
220
0.9205048534524403
230
0.3907311284892737
100
AcDbArc
 50
90.0
 51
270.0
  0
ARC
  5
D8E
330
1A
100
AcDbEntity
  8
1
 62
     8
 48
0.25
100
AcDbCircle
 10
-366.0750575611267
 20
-376.7994100871725
 30
717.1428685411467
 40
1.0
210
0.0000000000000005
220
0.9205048534524403
230
0.3907311284892737
100
AcDbArc
 50
270.0
 51
90.0
  0
ARC
  5
D8F
330
1A
100
AcDbEntity
  8
1
 62
     8
 48
0.25
100
AcDbCircle
 10
-366.0750575611267
 20
-369.7994100871726
 30
717.1428685411467
 40
1.0
210
0.0000000000000005
220
0.9205048534524403
230
0.3907311284892737
100
AcDbArc
 50
270.0
 51
90.0
  0
LINE
  5
D91
330
1A
100
AcDbEntity
  8
1
 62
     8
 48
0.25
100
AcDbLine
 10
194.5750497585993
 20
815.5661035266593
 30
-85.96624537264302
 11
194.5750497585975
 21
804.527949146837
 31
-59.96198326261106
210
0.0000000000000005
220
0.9205048534524403
230
0.3907311284892737
  0
LINE
  5
D92
330
1A
100
AcDbEntity
  8
1
 62
     8
 48
0.25
100
AcDbLine
 10
194.5750497586006
 20
815.6637863087818
 30
-86.19637158600562
 11
194.5750497585988
 21
804.5279491468372
 31
-59.96198326261083
210
0.0000000000000005
220
0.9205048534524403
230
0.3907311284892737
  0
LINE
  5
D93
330
1A
100
AcDbEntity
  8
1
 62
     8
 48
0.25
100
AcDbLine
 10
194.5750497585974
 20
817.910490297595
 30
-91.4892744933577
 11
194.5750497585974
 21
822.2085327109773
 31
-101.6148278813343
210
0.0000000000000005
220
0.9205048534524403
230
0.3907311284892737
  0
ARC
  5
D94
330
1A
100
AcDbEntity
  8
1
 62
     8
 48
0.25
100
AcDbCircle
 10
-197.1375793794597
 20
-430.7994100871715
 30
717.1428685411467
 40
12.0
210
0.0000000000000005
220
0.9205048534524403
230
0.3907311284892737
100
AcDbArc
 50
19.61597913540471
 51
90.0
  0
ARC
  5
D96
330
1A
100
AcDbEntity
  8
1
 62
     8
 48
0.25
100
AcDbCircle
 10
-196.5750497585978
 20
-414.7994100871715
 30
717.1428685411467
 40
2.0
210
0.0000000000000005
220
0.9205048534524403
230
0.3907311284892737
100
AcDbArc
 50
270.0000000000005
 51
0.0
  0
ARC
  5
D97
330
1A
100
AcDbEntity
  8
1
 62
     8
 48
0.25
100
AcDbCircle
 10
-196.5750497585996
 20
-397.7994100871715
 30
717.1428685411467
 40
2.0
210
0.0000000000000005
220
0.9205048534524403
230
0.3907311284892737
100
AcDbArc
 50
270.0000000000005
 51
359.9999999999987
  0
ARC
  5
D99
330
1A
100
AcDbEntity
  8
1
 62
     8
 48
0.25
100
AcDbCircle
 10
-196.575049758601
 20
-398.0494100871709
 30
717.1428685411467
 40
2.0
210
0.0000000000000005
220
0.9205048534524403
230
0.3907311284892737
100
AcDbArc
 50
270.0000000000005
 51
359.9999999999987
  0
ARC
  5
D9A
330
1A
100
AcDbEntity
  8
1
 62
     8
 48
0.25
100
AcDbCircle
 10
-196.5750497585978
 20
-403.7994100871714
 30
717.1428685411467
 40
2.0
210
0.0000000000000005
220
0.9205048534524403
230
0.3907311284892737
100
AcDbArc
 50
0.0
 51
90.00000000000047
  0
LINE
  5
D9B
330
1A
100
AcDbEntity
  8
1
 62
     8
 48
0.25
100
AcDbLine
 10
187.0058598917809
 20
805.9927189873697
 30
-63.41276475681684
 11
186.7905775690449
 21
810.8118076159263
 31
-74.76582610351602
210
0.0000000000000005
220
0.9205048534524403
230
0.3907311284892737
  0
LINE
  5
D9C
330
1A
100
AcDbEntity
  8
1
 62
     8
 48
0.25
100
AcDbLine
 10
183.0750497585992
 20
804.4302663647156
 30
-59.73185704924981
 11
182.7911867884192
 21
810.7845308220781
 31
-74.70156600419612
210
0.0000000000000005
220
0.9205048534524403
230
0.3907311284892737
  0
LINE
  5
D9D
330
1A
100
AcDbEntity
  8
1
 48
0.25
100
AcDbLine
 10
330.5917105735427
 20
698.0451747633751
 30
0.0
 11
330.5917105735427
 21
657.0451747633751
 31
0.0
  0
LINE
  5
D9E
330
1A
100
AcDbEntity
  8
1
 48
0.25
100
AcDbLine
 10
332.9917105735432
 20
653.2451747633754
 30
0.0
 11
332.9917105735432
 21
698.0451747633741
 31
0.0
  0
LINE
  5
D9F
330
1A
100
AcDbEntity
  8
1
 48
0.25
100
AcDbLine
 10
351.9917105735422
 20
654.2321899688686
 30
0.0
 11
351.9917105735432
 21
702.2581595578822
 31
0.0
  0
LINE
  5
DA0
330
1A
100
AcDbEntity
  8
1
 62
     8
 48
0.25
100
AcDbLine
 10
352.491710573544
 20
655.7451747633749
 30
0.0
 11
352.4917105735432
 21
700.7451747633754
 31
0.0
  0
LINE
  5
DA1
330
1A
100
AcDbEntity
  8
1
 48
0.25
100
AcDbLine
 10
290.3917105735438
 20
698.0451747633751
 30
0.0
 11
290.3917105735438
 21
657.0451747633756
 31
0.0
  0
LINE
  5
DA2
330
1A
100
AcDbEntity
  8
1
 62
     8
 48
0.25
100
AcDbLine
 10
268.4917105735422
 20
655.7451747633749
 30
0.0
 11
268.4917105735432
 21
700.7451747633754
 31
0.0
  0
LINE
  5
DA3
330
1A
100
AcDbEntity
  8
1
 48
0.25
100
AcDbLine
 10
268.991710573544
 20
654.2321899688686
 30
0.0
 11
268.9917105735432
 21
702.2581595578822
 31
0.0
  0
LINE
  5
DA4
330
1A
100
AcDbEntity
  8
1
 48
0.25
100
AcDbLine
 10
287.9917105735433
 20
653.2451747633754
 30
0.0
 11
287.9917105735433
 21
698.0451747633756
 31
0.0
  0
LINE
  5
DA5
330
1A
100
AcDbEntity
  8
1
 48
0.25
100
AcDbLine
 10
290.4917105735422
 20
685.0451747633756
 30
0.0
 11
290.4917105735419
 21
610.1169102829588
 31
0.0
  0
LINE
  5
DA6
330
1A
100
AcDbEntity
  8
1
 48
0.25
100
AcDbLine
 10
330.4917105735453
 20
685.0451747633756
 30
0.0
 11
330.4917105735456
 21
611.093234910586
 31
0.0
  0
LINE
  5
DB2
330
1A
100
AcDbEntity
  8
1
  6
CONTINUOUS
100
AcDbLine
 10
197.5219821461628
 20
321.9458685061862
 30
0.0
 11
423.4614390009102
 21
321.9458685061862
 31
0.0
  0
LINE
  5
DB3
330
1A
100
AcDbEntity
  8
1
  6
CONTINUOUS
100
AcDbLine
 10
142.855708973544
 20
340.4461737061861
 30
0.0
 11
478.1277121735437
 21
340.446173706186
 31
0.0
  0
LINE
  5
DB4
330
1A
100
AcDbEntity
  8
1
  6
CONTINUOUS
100
AcDbLine
 10
505.4917105735438
 20
367.4458685061863
 30
0.0
 11
115.4917105735439
 21
367.4458685061863
 31
0.0
  0
LINE
  5
DB5
330
1A
100
AcDbEntity
  8
1
  6
CONTINUOUS
100
AcDbLine
 10
493.991710573544
 20
437.4458685061863
 30
0.0
 11
126.9917105735439
 21
437.4458685061863
 31
0.0
  0
LINE
  5
DB6
330
1A
100
AcDbEntity
  8
1
  6
CONTINUOUS
 62
     8
100
AcDbLine
 10
255.4917105735439
 20
333.4461737061861
 30
0.0
 11
173.0397147735438
 21
333.4461737061861
 31
0.0
  0
LINE
  5
E87
330
1A
100
AcDbEntity
  8
1
 48
0.25
100
AcDbLine
 10
330.4917105735456
 20
606.0932349105858
 30
0.0
 11
330.4917105735467
 21
437.4458685061863
 31
0.0
  0
LINE
  5
E88
330
1A
100
AcDbEntity
  8
1
 48
0.25
100
AcDbLine
 10
290.4917105735419
 20
605.1169102829589
 30
0.0
 11
290.4917105735411
 21
437.4458685061863
 31
0.0
  0
LINE
  5
E8F
330
1A
100
AcDbEntity
  8
1
  6
CONTINUOUS
 62
     8
100
AcDbLine
 10
365.4917105735439
 20
333.4461737061861
 30
0.0
 11
447.943706373544
 21
333.446173706186
 31
0.0
  0
ARC
  5
ED1
330
1A
100
AcDbEntity
  8
1
  6
CONTINUOUS
100
AcDbCircle
 10
493.991710573544
 20
425.9458685061862
 30
0.0
 40
11.5
100
AcDbArc
 50
0.0
 51
90.0
  0
LINE
  5
ED2
330
1A
100
AcDbEntity
  8
1
  6
CONTINUOUS
100
AcDbLine
 10
505.4917105735438
 20
425.9458685061863
 30
0.0
 11
505.4917105735438
 21
367.4458685061863
 31
0.0
  0
LINE
  5
ED3
330
1A
100
AcDbEntity
  8
1
  6
CONTINUOUS
100
AcDbLine
 10
450.4917105735438
 20
340.446173706186
 30
0.0
 11
446.1245577153959
 21
328.4462653061808
 31
0.0
  0
ARC
  5
ED4
330
1A
100
AcDbEntity
  8
1
  6
CONTINUOUS
100
AcDbCircle
 10
478.1277121735437
 20
346.4461737061858
 30
0.0
 40
6.0
100
AcDbArc
 50
270.0
 51
343.3008118
  0
LINE
  5
EEB
330
1A
100
AcDbEntity
  8
1
  6
CONTINUOUS
100
AcDbLine
 10
483.8657034735441
 20
344.692877806186
 30
0.0
 11
490.6917074735447
 21
367.4458685061863
 31
0.0
  0
LINE
  5
EEC
330
1A
100
AcDbEntity
  8
1
  6
CONTINUOUS
 62
     8
100
AcDbLine
 10
356.4917105735439
 20
332.9461737061861
 30
0.0
 11
356.8756216735445
 21
321.9458685061863
 31
0.0
  0
LINE
  5
EED
330
1A
100
AcDbEntity
  8
1
  6
CONTINUOUS
 62
     8
100
AcDbLine
 10
335.4917105735438
 20
332.9461737061861
 30
0.0
 11
335.8756197735438
 21
321.9458685061863
 31
0.0
  0
LINE
  5
EEE
330
1A
100
AcDbEntity
  8
1
  6
CONTINUOUS
 62
     8
100
AcDbLine
 10
341.4917105735439
 20
332.9461737061861
 30
0.0
 11
341.107221473545
 21
321.9458685061863
 31
0.0
  0
LINE
  5
EEF
330
1A
100
AcDbEntity
  8
1
  6
CONTINUOUS
 62
     8
100
AcDbLine
 10
365.4917105735439
 20
333.4461737061861
 30
0.0
 11
365.0897291735445
 21
321.9458685061863
 31
0.0
  0
LINE
  5
EF0
330
1A
100
AcDbEntity
  8
1
  6
CONTINUOUS
 62
     8
100
AcDbLine
 10
264.4917105735439
 20
332.9461737061861
 30
0.0
 11
264.1078299735444
 21
321.9458685061863
 31
0.0
  0
LINE
  5
EF1
330
1A
100
AcDbEntity
  8
1
  6
CONTINUOUS
 62
     8
100
AcDbLine
 10
255.4917105735439
 20
333.4461737061861
 30
0.0
 11
255.8937224735444
 21
321.9458685061863
 31
0.0
  0
LINE
  5
EF2
330
1A
100
AcDbEntity
  8
1
  6
CONTINUOUS
 62
     8
100
AcDbLine
 10
313.4917105735439
 20
332.9461737061861
 30
0.0
 11
313.107219573544
 21
321.9458685061863
 31
0.0
  0
LINE
  5
EF3
330
1A
100
AcDbEntity
  8
1
  6
CONTINUOUS
 62
     8
100
AcDbLine
 10
307.4917105735439
 20
332.9461737061861
 30
0.0
 11
307.875621473544
 21
321.9458685061863
 31
0.0
  0
LINE
  5
EF4
330
1A
100
AcDbEntity
  8
1
  6
CONTINUOUS
 62
     8
100
AcDbLine
 10
285.4917105735438
 20
332.9461737061861
 30
0.0
 11
285.1078299735444
 21
321.9458685061863
 31
0.0
  0
LINE
  5
EF5
330
1A
100
AcDbEntity
  8
1
  6
CONTINUOUS
 62
     8
100
AcDbLine
 10
279.4917105735439
 20
332.9461737061861
 30
0.0
 11
279.876230173544
 21
321.9458685061863
 31
0.0
  0
LINE
  5
EF9
330
1A
100
AcDbEntity
  8
1
  6
CONTINUOUS
 62
     8
100
AcDbLine
 10
341.4917105735439
 20
332.9461737061861
 30
0.0
 11
356.4917105735439
 21
332.9461737061861
 31
0.0
  0
LINE
  5
EFA
330
1A
100
AcDbEntity
  8
1
  6
CONTINUOUS
 62
     8
100
AcDbLine
 10
410.9437140735444
 20
333.446173706186
 30
0.0
 11
413.4917105735438
 21
340.4453802061861
 31
0.0
  0
LINE
  5
EFB
330
1A
100
AcDbEntity
  8
1
  6
CONTINUOUS
 62
     8
100
AcDbLine
 10
264.4917105735439
 20
332.9461737061861
 30
0.0
 11
279.4917105735439
 21
332.9461737061861
 31
0.0
  0
LINE
  5
EFC
330
1A
100
AcDbEntity
  8
1
  6
CONTINUOUS
 62
     8
100
AcDbLine
 10
285.4917105735438
 20
332.9461737061861
 30
0.0
 11
307.4917105735439
 21
332.9461737061861
 31
0.0
  0
LINE
  5
EFD
330
1A
100
AcDbEntity
  8
1
  6
CONTINUOUS
 62
     8
100
AcDbLine
 10
313.4917105735439
 20
332.9461737061861
 30
0.0
 11
335.4917105735438
 21
332.9461737061861
 31
0.0
  0
SPLINE
  5
EFE
330
1A
100
AcDbEntity
  8
1
 62
     8
100
AcDbSpline
210
0.0
220
0.0
230
1.0
 70
     8
 71
     3
 72
    11
 73
     7
 74
     5
 42
0.0000000001
 43
0.0000000001
 44
0.0000000001
 40
0.0
 40
0.0
 40
0.0
 40
0.0
 40
11.18618691122466
 40
23.22700273253214
 40
31.36093216241013
 40
43.09610963621341
 40
43.09610963621341
 40
43.09610963621341
 40
43.09610963621341
 10
290.4917105735413
 20
610.1169102829588
 30
0.0
 10
293.5318160907526
 20
612.1897330728361
 30
0.0
 10
299.8442923363085
 20
616.4937430975771
 30
0.0
 10
311.8712859987572
 20
618.3119675593125
 30
0.0
 10
319.1390191490857
 20
608.7786644890922
 30
0.0
 10
326.2762742396585
 20
610.2337978055587
 30
0.0
 10
330.4917105735461
 20
611.093234910586
 30
0.0
 11
290.4917105735413
 21
610.1169102829588
 31
0.0
 11
300.2139458825211
 21
615.6494429949888
 31
0.0
 11
312.2503627080046
 21
615.9748898352916
 31
0.0
 11
318.7565330997429
 21
611.0932349105858
 31
0.0
 11
330.4917105735461
 21
611.093234910586
 31
0.0
  0
SPLINE
  5
EFF
330
1A
100
AcDbEntity
  8
1
 62
     8
100
AcDbSpline
210
0.0
220
0.0
230
1.0
 70
     8
 71
     3
 72
    11
 73
     7
 74
     5
 42
0.0000000001
 43
0.0000000001
 44
0.0000000001
 40
0.0
 40
0.0
 40
0.0
 40
0.0
 40
11.18618691122455
 40
23.22700273253203
 40
31.36093216241002
 40
43.0961096362133
 40
43.0961096362133
 40
43.0961096362133
 40
43.0961096362133
 10
290.4917105735413
 20
605.1169102829588
 30
0.0
 10
293.5318160907526
 20
607.189733072836
 30
0.0
 10
299.8442923363085
 20
611.4937430975766
 30
0.0
 10
311.8712859987573
 20
613.3119675593127
 30
0.0
 10
319.1390191490857
 20
603.7786644890919
 30
0.0
 10
326.2762742396585
 20
605.2337978055586
 30
0.0
 10
330.4917105735461
 20
606.093234910586
 30
0.0
 11
290.4917105735413
 21
605.1169102829588
 31
0.0
 11
300.2139458825211
 21
610.6494429949886
 31
0.0
 11
312.2503627080046
 21
610.9748898352916
 31
0.0
 11
318.7565330997429
 21
606.0932349105858
 31
0.0
 11
330.4917105735461
 21
606.093234910586
 31
0.0
  0
LINE
  5
F00
330
1A
100
AcDbEntity
  8
1
 48
0.25
100
AcDbLine
 10
351.5048639145863
 20
653.7323630091922
 30
0.0
 11
332.9917105735432
 21
653.2451747633754
 31
0.0
  0
ARC
  5
F01
330
1A
100
AcDbEntity
  8
1
 48
0.25
100
AcDbCircle
 10
328.5917105735427
 20
657.0451747633755
 30
0.0
 40
2.0
100
AcDbArc
 50
341.8051276612386
 51
0.0
  0
ARC
  5
F02
330
1A
100
AcDbEntity
  8
1
 62
     8
 48
0.25
100
AcDbCircle
 10
351.9917105735442
 20
655.7451747633749
 30
0.0
 40
0.5
100
AcDbArc
 50
270.0
 51
0.0
  0
ARC
  5
F03
330
1A
100
AcDbEntity
  8
1
 48
0.25
100
AcDbCircle
 10
351.4917105735422
 20
654.2321899688685
 30
0.0
 40
0.5
100
AcDbArc
 50
271.5074357587749
 51
0.0
  0
ARC
  5
F04
330
1A
100
AcDbEntity
  8
1
 48
0.25
100
AcDbCircle
 10
292.3917105735438
 20
657.0451747633758
 30
0.0
 40
2.0
100
AcDbArc
 50
180.0
 51
198.1948723388024
  0
ARC
  5
F05
330
1A
100
AcDbEntity
  8
1
 48
0.25
100
AcDbCircle
 10
269.4917105735441
 20
654.2321899688685
 30
0.0
 40
0.5
100
AcDbArc
 50
180.0
 51
268.492564241225
  0
LINE
  5
F06
330
1A
100
AcDbEntity
  8
1
 48
0.25
100
AcDbLine
 10
269.4785572325
 20
653.7323630091922
 30
0.0
 11
287.9917105735433
 21
653.2451747633754
 31
0.0
  0
ARC
  5
F07
330
1A
100
AcDbEntity
  8
1
 62
     8
 48
0.25
100
AcDbCircle
 10
268.9917105735422
 20
655.7451747633749
 30
0.0
 40
0.5
100
AcDbArc
 50
180.0
 51
270.0
  0
LINE
  5
FE1
330
1A
100
AcDbEntity
  8
1
  6
CONTINUOUS
100
AcDbLine
 10
115.4917105735439
 20
425.9458685061863
 30
0.0
 11
115.4917105735439
 21
367.4458685061863
 31
0.0
  0
ARC
  5
FE2
330
1A
100
AcDbEntity
  8
1
  6
CONTINUOUS
100
AcDbCircle
 10
126.9917105735439
 20
425.9458685061862
 30
0.0
 40
11.5
100
AcDbArc
 50
90.0
 51
180.0
  0
ARC
  5
FE3
330
1A
100
AcDbEntity
  8
1
  6
CONTINUOUS
100
AcDbCircle
 10
142.855708973544
 20
346.4461737061859
 30
0.0
 40
6.0
100
AcDbArc
 50
196.6992035
 51
270.0
  0
LINE
  5
FE4
330
1A
100
AcDbEntity
  8
1
  6
CONTINUOUS
 62
     8
100
AcDbLine
 10
210.0397070735443
 20
333.4461737061861
 30
0.0
 11
207.4917105735439
 21
340.4453802061861
 31
0.0
  0
LINE
  5
FE5
330
1A
100
AcDbEntity
  8
1
  6
CONTINUOUS
100
AcDbLine
 10
170.4917105735439
 20
340.4461737061861
 30
0.0
 11
174.1309213300546
 21
330.4464789061857
 31
0.0
  0
LINE
  5
FE6
330
1A
100
AcDbEntity
  8
1
  6
CONTINUOUS
100
AcDbLine
 10
170.4917105735439
 20
340.4461737061861
 30
0.0
 11
174.8588634316934
 21
328.4462653061808
 31
0.0
  0
LINE
  5
FFD
330
1A
100
AcDbEntity
  8
1
  6
CONTINUOUS
100
AcDbLine
 10
137.1177176735445
 20
344.6928778061861
 30
0.0
 11
130.291713673545
 21
367.4458685061863
 31
0.0
  0
LINE
  5
FFF
330
1A
100
AcDbEntity
  8
1
 62
     8
 48
0.25
100
AcDbLine
 10
213.0750497585987
 20
792.7083325100372
 30
-32.11671144567663
 11
340.5750497585988
 21
792.7083325100368
 31
-32.11671144567572
210
0.0000000000000005
220
0.9205048534524403
230
0.3907311284892737
  0
LINE
  5
1000
330
1A
100
AcDbEntity
  8
1
 62
     8
 48
0.25
100
AcDbLine
 10
384.4049455263614
 20
778.9502336054654
 30
-32.11671144567587
 11
212.908888533225
 21
778.9503996867307
 31
-32.11671144567587
  0
LINE
  5
1001
330
1A
100
AcDbEntity
  8
1
 62
     8
 48
0.25
100
AcDbLine
 10
369.6784600838547
 20
776.7082591646276
 30
-32.11671144567587
 11
212.9088091685527
 21
776.7084109844565
 31
-32.11671144567587
  0
LINE
  5
1002
330
1A
100
AcDbEntity
  8
1
 62
     8
 48
0.25
100
AcDbLine
 10
408.070414002578
 20
789.7082326759747
 30
-32.11671144567587
 11
212.9133724516502
 21
789.7084126512249
 31
-32.11671144567587
  0
LINE
  5
1003
330
1A
100
AcDbEntity
  8
1
 62
     8
 48
0.25
100
AcDbLine
 10
213.0750497585987
 20
795.8341815379514
 30
-39.48075027329628
 11
340.5750497585988
 21
795.834181537951
 31
-39.48075027329537
210
0.0000000000000005
220
0.9205048534524403
230
0.3907311284892737
  0
LINE
  5
1006
330
1A
100
AcDbEntity
  8
1
 62
     8
 48
0.25
100
AcDbLine
 10
214.5750497585984
 20
796.7133265770518
 30
-41.55188619356295
 11
329.0750497585983
 21
796.7133265770522
 31
-41.55188619356386
210
0.0000000000000005
220
0.9205048534524403
230
0.3907311284892737
  0
LINE
  5
1007
330
1A
100
AcDbEntity
  8
1
 48
0.25
100
AcDbLine
 10
403.3756001450698
 20
751.6500349295191
 30
-0.0000000000001137
 11
217.6078210020183
 21
751.6502156881757
 31
0.0000000000001421
  0
LINE
  5
1010
330
1A
100
AcDbEntity
  8
1
 62
     8
 48
0.25
100
AcDbLine
 10
433.1354115631559
 20
761.8914086207652
 30
-24.12716443980395
 11
432.4846003454661
 21
781.6180749018733
 31
-39.81419751634563
  0
LINE
  5
1011
330
1A
100
AcDbEntity
  8
1
 48
0.25
100
AcDbLine
 10
435.5473425160045
 20
783.7247683245274
 30
-43.11698143494021
 11
433.1061974150154
 21
761.8043611335017
 31
-8.751149680899969
  0
ARC
  5
1016
330
1A
100
AcDbEntity
  8
1
 62
     8
 48
0.25
100
AcDbCircle
 10
-329.0750497585987
 20
-351.5494100871739
 30
717.1428685411467
 40
2.0
210
0.0000000000000005
220
0.9205048534524403
230
0.3907311284892737
100
AcDbArc
 50
90.00000000000047
 51
179.9999999999988
  0
LINE
  5
1017
330
1A
100
AcDbEntity
  8
1
 62
     8
 48
0.25
100
AcDbLine
 10
366.075057561126
 20
802.2812451580236
 30
-54.66908035525968
 11
427.0750575611271
 21
802.2812451580236
 31
-54.66908035525968
210
0.0000000000000005
220
0.9205048534524403
230
0.3907311284892737
  0
LINE
  5
1018
330
1A
100
AcDbEntity
  8
1
 62
     8
 48
0.25
100
AcDbLine
 10
366.075057561126
 20
801.499782901045
 30
-52.82807064835492
 11
427.0750575611271
 21
801.499782901045
 31
-52.82807064835492
210
0.0000000000000005
220
0.9205048534524403
230
0.3907311284892737
  0
ARC
  5
1019
330
1A
100
AcDbEntity
  8
1
 62
     8
 48
0.25
100
AcDbCircle
 10
-427.075057561128
 20
-362.7994100871733
 30
717.1428685411467
 40
1.0
210
0.0000000000000005
220
0.9205048534524403
230
0.3907311284892737
100
AcDbArc
 50
90.0
 51
270.0
  0
ARC
  5
101A
330
1A
100
AcDbEntity
  8
1
 62
     8
 48
0.25
100
AcDbCircle
 10
-366.0750575611267
 20
-362.7994100871725
 30
717.1428685411467
 40
1.0
210
0.0000000000000005
220
0.9205048534524403
230
0.3907311284892737
100
AcDbArc
 50
270.0
 51
90.0
  0
LINE
  5
101B
330
1A
100
AcDbEntity
  8
1
 62
     8
 48
0.25
100
AcDbLine
 10
341.0750575611274
 20
795.8341815379506
 30
-39.48075027329446
 11
407.885506659844
 21
795.8341815379506
 31
-39.48075027329446
210
0.0000000000000005
220
0.9205048534524403
230
0.3907311284892737
  0
LINE
  5
101C
330
1A
100
AcDbEntity
  8
1
 62
     8
 48
0.25
100
AcDbLine
 10
369.6784600838547
 20
777.3749937385812
 30
-32.11671144567587
 11
369.6784600838547
 21
770.2323754802002
 31
-32.11671144567587
  0
LINE
  5
101D
330
1A
100
AcDbEntity
  8
1
 62
     8
 48
0.25
100
AcDbLine
 10
376.6784600838547
 20
777.3749937385812
 30
-32.11671144567587
 11
376.6784600838547
 21
770.232375480201
 31
-32.11671144567587
  0
LINE
  5
101E
330
1A
100
AcDbEntity
  8
1
 62
     8
 48
0.25
100
AcDbLine
 10
376.6784600838547
 20
777.3749937385812
 30
-32.11671144567587
 11
369.6784600838547
 21
777.3749937385812
 31
-32.11671144567587
  0
ELLIPSE
  5
101F
330
1A
100
AcDbEntity
  8
1
 62
     8
 48
0.25
100
AcDbEllipse
 10
373.1784600838547
 20
770.232375480201
 30
-32.11671144567587
 11
-0.0000000000000004
 21
-7.142618258379116
 31
0.0
210
0.0
220
0.0
230
1.0
 40
0.4900163880232709
 41
4.712388980384688
 42
7.853981633974482
  0
LINE
  5
1020
330
1A
100
AcDbEntity
  8
1
 62
     8
 48
0.25
100
AcDbLine
 10
408.0704073991935
 20
776.7082209906544
 30
-32.11671144567587
 11
376.6784600838547
 21
776.7082522043712
 31
-32.11671144567587
  0
LINE
  5
1021
330
1A
100
AcDbEntity
  8
1
 62
     8
 48
0.25
100
AcDbLine
 10
408.0704095703937
 20
778.950209874277
 30
-32.11671144567587
 11
376.6784622550551
 21
778.9502410879937
 31
-32.11671144567587
  0
LINE
  5
1022
330
1A
100
AcDbEntity
  8
1
 62
     8
 48
0.25
100
AcDbLine
 10
340.5750497585988
 20
793.0990636385261
 30
-33.0372162991282
 11
341.0750497585989
 21
793.0990636385261
 31
-33.0372162991282
210
0.0000000000000005
220
0.9205048534524403
230
0.3907311284892737
  0
LINE
  5
1023
330
1A
100
AcDbEntity
  8
1
 62
     8
 48
0.25
100
AcDbLine
 10
341.0750575611274
 20
792.7083325100368
 30
-32.11671144567503
 11
408.0704877198065
 21
792.7083325100368
 31
-32.11671144567503
210
0.0000000000000005
220
0.9205048534524403
230
0.3907311284892737
  0
LINE
  5
1024
330
1A
100
AcDbEntity
  8
1
 62
     8
 48
0.25
100
AcDbLine
 10
342.1762416008339
 20
789.7081956900875
 30
-32.11671144567587
 11
342.1762416008339
 21
792.7083010882642
 31
-32.11671144567587
  0
LINE
  5
1025
330
1A
100
AcDbEntity
  8
1
 62
     8
 48
0.25
100
AcDbLine
 10
408.0704093878527
 20
790.7082355682152
 30
-32.11671144567587
 11
212.9069911563223
 21
790.7084296235754
 31
-32.11671144567587
  0
ARC
  5
1028
330
1A
100
AcDbEntity
  8
1
 62
     8
 48
0.25
100
AcDbCircle
 10
320.4917105735444
 20
746.6501253088256
 30
0.0
 40
2.0
100
AcDbArc
 50
180.0
 51
270.0
  0
ARC
  5
1029
330
1A
100
AcDbEntity
  8
1
 62
     8
 48
0.25
100
AcDbCircle
 10
300.491710573544
 20
746.6501253088256
 30
0.0
 40
2.0
100
AcDbArc
 50
270.0
 51
0.0
  0
LINE
  5
102A
330
1A
100
AcDbEntity
  8
1
 62
     8
 48
0.25
100
AcDbLine
 10
300.491710573544
 20
744.6501253088256
 30
0.0
 11
265.6524436083137
 21
744.6501253088256
 31
0.0
  0
ARC
  5
102B
330
1A
100
AcDbEntity
  8
1
 48
0.25
100
AcDbCircle
 10
374.9917105735442
 20
746.1501253088256
 30
0.0
 40
1.5
100
AcDbArc
 50
270.0
 51
0.0
  0
ARC
  5
102C
330
1A
100
AcDbEntity
  8
1
 48
0.25
100
AcDbCircle
 10
245.9917105735443
 20
746.1501253088256
 30
0.0
 40
1.5
100
AcDbArc
 50
180.0
 51
270.0
  0
LINE
  5
102D
330
1A
100
AcDbEntity
  8
1
 48
0.25
100
AcDbLine
 10
376.4917105735442
 20
746.1501253088256
 30
0.0
 11
376.4917105735442
 21
748.6500610885002
 31
0.0
  0
LINE
  5
102E
330
1A
100
AcDbEntity
  8
1
 48
0.25
100
AcDbLine
 10
244.4917105735442
 20
746.1501253088256
 30
0.0
 11
244.4917105735442
 21
748.6501895291952
 31
0.0
  0
LINE
  5
102F
330
1A
100
AcDbEntity
  8
1
 48
0.25
100
AcDbLine
 10
374.9917105735442
 20
744.6501253088256
 30
0.0
 11
355.3309775387773
 21
744.6501253088257
 31
0.0
  0
LINE
  5
1030
330
1A
100
AcDbEntity
  8
1
 48
0.25
100
AcDbLine
 10
388.0750497586006
 20
748.650049817499
 30
-0.0000000000000853
 11
353.0750497585947
 21
748.650083873744
 31
-0.0000000000000284
  0
LINE
  5
1031
330
1A
100
AcDbEntity
  8
1
 48
0.25
100
AcDbLine
 10
268.0750497586048
 20
748.6501665817672
 30
0.0000000000000568
 11
233.0750497585992
 21
748.6502006380122
 31
0.0000000000001137
  0
LINE
  5
1032
330
1A
100
AcDbEntity
  8
1
 48
0.25
100
AcDbLine
 10
350.4917105735432
 20
698.0451747633751
 30
0.0
 11
330.5917105735427
 21
698.0451747633748
 31
0.0
  0
LINE
  5
1033
330
1A
100
AcDbEntity
  8
1
 62
     8
 48
0.25
100
AcDbLine
 10
337.4309775387762
 20
744.6501253088256
 30
0.0
 11
332.5917105735427
 21
698.0451747633751
 31
0.0
  0
LINE
  5
1034
330
1A
100
AcDbEntity
  8
1
 48
0.25
100
AcDbLine
 10
355.3309775387772
 20
744.6501253088256
 30
0.0
 11
350.4917105735432
 21
698.0451747633751
 31
0.0
  0
ARC
  5
1035
330
1A
100
AcDbEntity
  8
1
 48
0.25
100
AcDbCircle
 10
351.4917105735432
 20
702.2581595578819
 30
0.0
 40
0.5
100
AcDbArc
 50
0.0
 51
88.49256424122506
  0
ARC
  5
1036
330
1A
100
AcDbEntity
  8
1
 62
     8
 48
0.25
100
AcDbCircle
 10
351.9917105735432
 20
700.7451747633751
 30
0.0
 40
0.5
100
AcDbArc
 50
0.0
 51
90.0
  0
LINE
  5
1037
330
1A
100
AcDbEntity
  8
1
 48
0.25
100
AcDbLine
 10
351.5048639145872
 20
702.7579865175584
 30
0.0
 11
350.9824970015936
 21
702.7717330152685
 31
0.0
  0
LINE
  5
1038
330
1A
100
AcDbEntity
  8
1
 62
     8
 48
0.25
100
AcDbLine
 10
315.4917105735432
 20
685.0451747633756
 30
0.0
 11
315.4917105735455
 21
751.6501204436697
 31
0.0
  0
LINE
  5
1039
330
1A
100
AcDbEntity
  8
1
 62
     8
 48
0.25
100
AcDbLine
 10
313.9917105735432
 20
685.0451747633756
 30
0.0
 11
313.9917105735455
 21
751.6501219032233
 31
0.0
  0
LINE
  5
103A
330
1A
100
AcDbEntity
  8
1
 62
     8
 48
0.25
100
AcDbLine
 10
311.2417105735432
 20
685.0451747633756
 30
0.0
 11
311.2417105735455
 21
751.6501245790708
 31
0.0
  0
LINE
  5
103B
330
1A
100
AcDbEntity
  8
1
 62
     8
 48
0.25
100
AcDbLine
 10
309.7417105735441
 20
685.0451747633756
 30
0.0
 11
309.7417105735441
 21
751.6501260386243
 31
0.0
  0
LINE
  5
103C
330
1A
100
AcDbEntity
  8
1
 62
     8
 48
0.25
100
AcDbLine
 10
306.9917105735441
 20
685.0451747633756
 30
0.0
 11
306.9917105735441
 21
751.6501287144721
 31
0.0
  0
LINE
  5
103D
330
1A
100
AcDbEntity
  8
1
 62
     8
 48
0.25
100
AcDbLine
 10
305.4917105735432
 20
685.0451747633756
 30
0.0
 11
305.4917105735451
 21
751.6501301740254
 31
0.0
  0
LINE
  5
103E
330
1A
100
AcDbEntity
  8
1
 48
0.25
100
AcDbLine
 10
265.6524436083137
 20
744.6501253088256
 30
0.0
 11
270.4917105735422
 21
698.0451747633756
 31
0.0
  0
LINE
  5
103F
330
1A
100
AcDbEntity
  8
1
 62
     8
 48
0.25
100
AcDbLine
 10
283.552443608312
 20
744.6501253088256
 30
0.0
 11
288.3917105735438
 21
698.0451747633756
 31
0.0
  0
LINE
  5
1040
330
1A
100
AcDbEntity
  8
1
 48
0.25
100
AcDbLine
 10
290.3917105735438
 20
698.0451747633756
 30
0.0
 11
270.4917105735422
 21
698.0451747633756
 31
0.0
  0
ARC
  5
1041
330
1A
100
AcDbEntity
  8
1
 62
     8
 48
0.25
100
AcDbCircle
 10
268.9917105735432
 20
700.7451747633751
 30
0.0
 40
0.5
100
AcDbArc
 50
90.0
 51
180.0
  0
ARC
  5
1042
330
1A
100
AcDbEntity
  8
1
 48
0.25
100
AcDbCircle
 10
269.4917105735432
 20
702.2581595578819
 30
0.0
 40
0.5
100
AcDbArc
 50
91.50743575877495
 51
180.0
  0
LINE
  5
1043
330
1A
100
AcDbEntity
  8
1
 48
0.25
100
AcDbLine
 10
269.4785572324992
 20
702.7579865175584
 30
0.0
 11
270.0009241454937
 21
702.771733015269
 31
0.0
  0
LINE
  5
1044
330
1A
100
AcDbEntity
  8
1
 48
0.25
100
AcDbLine
 10
330.5917105735427
 20
685.0451747633756
 30
0.0
 11
290.3917105735438
 21
685.0451747633756
 31
0.0
  0
LINE
  5
1046
330
1A
100
AcDbEntity
  8
1
  6
CONTINUOUS
 62
     8
100
AcDbLine
 10
1297.821492237513
 20
818.0074851278389
 30
0.0
 11
1295.984153862353
 21
817.2174296265167
 31
0.0
  0
ARC
  5
1047
330
1A
100
AcDbEntity
  8
1
  6
CONTINUOUS
 62
     8
100
AcDbCircle
 10
1296.902823049933
 20
817.6124573771781
 30
0.0
 40
1.0
100
AcDbArc
 50
23.26770481015119
 51
203.2677048101512
  0
LINE
  5
1048
330
1A
100
AcDbEntity
  8
1
  6
CONTINUOUS
 62
     8
100
AcDbLine
 10
1291.390807924456
 20
815.2422908732122
 30
0.0
 11
1289.553469549297
 21
814.4522353718905
 31
0.0
  0
ARC
  5
1049
330
1A
100
AcDbEntity
  8
1
  6
CONTINUOUS
 62
     8
100
AcDbCircle
 10
1290.472138736877
 20
814.847263122551
 30
0.0
 40
1.0
100
AcDbArc
 50
23.26770481015119
 51
203.2677048101512
  0
ARC
  5
104A
330
1A
100
AcDbEntity
  8
1
  6
CONTINUOUS
100
AcDbCircle
 10
1282.235686117486
 20
785.1808416077223
 30
0.0
 40
1.0
100
AcDbArc
 50
248.2677048101241
 51
293.2677048100661
  0
ARC
  5
104B
330
1A
100
AcDbEntity
  8
1
  6
CONTINUOUS
100
AcDbCircle
 10
1278.837349463781
 20
786.5354233508031
 30
0.0
 40
1.0
100
AcDbArc
 50
208.2677048100687
 51
248.2677048101214
  0
LINE
  5
104C
330
1A
100
AcDbEntity
  8
1
  6
CONTINUOUS
100
AcDbLine
 10
1281.865415706531
 20
784.251917594268
 30
0.0
 11
1278.467079052825
 21
785.6064993373482
 31
0.0
  0
LINE
  5
104D
330
1A
100
AcDbEntity
  8
1
  6
CONTINUOUS
 62
     8
100
AcDbLine
 10
1420.427221135161
 20
857.6655751098613
 30
0.0
 11
1273.440151122409
 21
794.4611350041997
 31
0.0
  0
LINE
  5
104E
330
1A
100
AcDbEntity
  8
1
  6
CONTINUOUS
100
AcDbLine
 10
1273.440151122409
 20
794.4611350041997
 30
0.0
 11
1277.956605026829
 21
786.0618315046132
 31
0.0
  0
ARC
  5
104F
330
1A
100
AcDbEntity
  8
1
  6
CONTINUOUS
100
AcDbCircle
 10
1276.824724602704
 20
807.8903439244667
 30
0.0
 40
1.0
100
AcDbArc
 50
113.2677048101516
 51
158.2677048101741
  0
LINE
  5
1050
330
1A
100
AcDbEntity
  8
1
  6
CONTINUOUS
100
AcDbLine
 10
1289.792492011872
 20
814.555015030799
 30
0.0
 11
1276.429696852044
 21
808.8090131120457
 31
0.0
  0
LINE
  5
1052
330
1A
100
AcDbEntity
  8
1
  6
CONTINUOUS
 62
     8
100
AcDbLine
 10
1274.14752639694
 20
795.8538374923546
 30
0.0
 11
1274.542554147511
 21
794.9351683049947
 31
0.0
  0
LINE
  5
1053
330
1A
100
AcDbEntity
  8
1
  6
CONTINUOUS
 62
     8
100
AcDbLine
 10
1273.963792559424
 20
795.7748319422083
 30
0.0
 11
1273.04512337187
 21
795.3798041914932
 31
0.0
  0
ARC
  5
1054
330
1A
100
AcDbEntity
  8
1
  6
CONTINUOUS
100
AcDbCircle
 10
1273.074346731678
 20
798.4815011953477
 30
0.0
 40
1.0
100
AcDbArc
 50
158.2677048101814
 51
198.2677048101134
  0
LINE
  5
1055
330
1A
100
AcDbEntity
  8
1
  6
CONTINUOUS
100
AcDbLine
 10
1273.04512337187
 20
795.3798041914932
 30
0.0
 11
1272.124744420696
 21
798.1680439399232
 31
0.0
  0
LINE
  5
1056
330
1A
100
AcDbEntity
  8
1
  6
CONTINUOUS
 62
     8
100
AcDbLine
 10
1274.153011188214
 20
795.8372216049284
 30
0.0
 11
1274.147526396945
 21
795.8538374923427
 31
0.0
  0
LINE
  5
1057
330
1A
100
AcDbEntity
  8
1
  6
CONTINUOUS
100
AcDbLine
 10
1275.89580058925
 20
808.2606143354214
 30
0.0
 11
1272.145422718224
 21
798.8517716063023
 31
0.0
  0
LINE
  5
1059
330
1A
100
AcDbEntity
  8
1
  6
CONTINUOUS
100
AcDbLine
 10
1287.762203756778
 20
786.4687130722542
 30
0.0
 11
1302.055884418099
 21
763.7253032780011
 31
0.0
  0
LINE
  5
1078
330
1A
100
AcDbEntity
  8
1
 48
0.25
100
AcDbLine
 10
185.6027570011935
 20
783.7247683245268
 30
-43.11698143494021
 11
188.0439021021832
 21
761.8043611335
 31
-8.75114968089872
  0
LINE
  5
1079
330
1A
100
AcDbEntity
  8
1
 62
     8
 48
0.25
100
AcDbLine
 10
188.0146879540422
 20
761.8914086207655
 30
-24.12716443980392
 11
188.6654991717321
 21
781.6180749018727
 31
-39.81419751634563
  0
DIMENSION
  5
1085
330
1A
100
AcDbEntity
  8
MEASURE
100
AcDbDimension
  2
*D3
 10
1519.223798614384
 20
866.9458685061872
 30
0.0
 11
1509.723798614384
 21
589.1958227061844
 31
0.0
 70
    32
  1
（777）
  3
AD-STANDARD
100
AcDbAlignedDimension
 13
1208.419557594237
 23
311.4457769061814
 33
0.0
 14
1411.631686140131
 24
866.9458685061872
 34
0.0
 50
90.0
100
AcDbRotatedDimension
1001
ACAD
1000
DSTYLE
1002
{
1070
   287
1070
     1
1070
   287
1070
     1
1070
    40
1040
5.0
1070
   140
1040
2.799999999999998
1070
   271
1070
     3
1070
   272
1070
     8
1070
   289
1070
     1
1002
}
  0
LINE
  5
1086
330
1A
100
AcDbEntity
  8
1
  6
CONTINUOUS
100
AcDbLine
 10
1331.411607694244
 20
564.0071230647017
 30
0.0
 11
1331.411607694244
 21
409.9458685061862
 31
0.0
  0
LINE
  5
1087
330
1A
100
AcDbEntity
  8
1
  6
CONTINUOUS
100
AcDbLine
 10
1371.411607694244
 20
574.8944235526771
 30
0.0
 11
1371.411607694244
 21
409.9458685061867
 31
0.0
  0
ARC
  5
108A
330
1A
100
AcDbEntity
  8
1
  6
CONTINUOUS
100
AcDbCircle
 10
1375.689668594244
 20
406.9458685061863
 30
0.0
 40
3.0
100
AcDbArc
 50
1.999511700000056
 51
90.0
  0
LINE
  5
108B
330
1A
100
AcDbEntity
  8
1
  6
CONTINUOUS
100
AcDbLine
 10
1383.211549694243
 20
362.9458685061862
 30
0.0
 11
1362.231538794244
 21
362.9458685061862
 31
0.0
  0
LINE
  5
108C
330
1A
100
AcDbEntity
  8
1
  6
CONTINUOUS
100
AcDbLine
 10
1380.227540994244
 20
362.9458685061862
 30
0.0
 11
1378.687654494243
 21
407.0508795061863
 31
0.0
  0
ARC
  5
108D
330
1A
100
AcDbEntity
  8
1
  6
CONTINUOUS
100
AcDbCircle
 10
1327.133546794243
 20
406.9458685061863
 30
0.0
 40
3.0
100
AcDbArc
 50
90.0
 51
178.0004882999999
  0
ARC
  5
108E
330
1A
100
AcDbEntity
  8
1
  6
CONTINUOUS
100
AcDbCircle
 10
1362.231538794244
 20
242.9458685061863
 30
0.0
 40
120.0
100
AcDbArc
 50
90.0
 51
100.3048096000027
  0
LINE
  5
108F
330
1A
100
AcDbEntity
  8
1
  6
CONTINUOUS
100
AcDbLine
 10
1375.689668594244
 20
409.9458685061862
 30
0.0
 11
1327.133546794243
 21
409.9458685061862
 31
0.0
  0
ARC
  5
109A
330
1A
100
AcDbEntity
  8
1
  6
CONTINUOUS
100
AcDbCircle
 10
1391.071565594244
 20
326.9458685061862
 30
0.0
 40
10.66046999999999
100
AcDbArc
 50
130.5495911000024
 51
180.0
  0
LINE
  5
109B
330
1A
100
AcDbEntity
  8
1
  6
CONTINUOUS
100
AcDbLine
 10
1383.211549694243
 20
362.9458685061862
 30
0.0
 11
1384.144563694244
 21
334.9458685061863
 31
0.0
  0
LINE
  5
109C
330
1A
100
AcDbEntity
  8
1
  6
CONTINUOUS
100
AcDbLine
 10
1322.411653494244
 20
357.6729804061865
 30
0.0
 11
1324.135652494244
 21
407.0508795061863
 31
0.0
  0
LINE
  5
10ED
330
1A
100
AcDbEntity
  8
1
  6
CONTINUOUS
 62
     8
100
AcDbLine
 10
1383.393053915843
 20
753.9417659104873
 30
0.0
 11
1379.363140533536
 21
677.0464378229735
 31
0.0
  0
LINE
  5
10EE
330
1A
100
AcDbEntity
  8
1
  6
CONTINUOUS
100
AcDbLine
 10
1384.254384356394
 20
756.0464378229794
 30
0.0
 11
1380.153475627497
 21
677.7964378229735
 31
0.0
  0
CIRCLE
  5
10EF
330
1A
100
AcDbEntity
  8
1
  6
CONTINUOUS
 62
     8
100
AcDbCircle
 10
1351.411607694244
 20
694.0464620857145
 30
0.0
 40
23.0
  0
CIRCLE
  5
10F0
330
1A
100
AcDbEntity
  8
1
  6
CONTINUOUS
 62
     8
100
AcDbCircle
 10
1351.411607694244
 20
694.0464620857145
 30
0.0
 40
24.5
  0
CIRCLE
  5
10F1
330
1A
100
AcDbEntity
  8
1
  6
CONTINUOUS
100
AcDbCircle
 10
1351.411607694244
 20
694.0464620857145
 30
0.0
 40
25.0
  0
SPLINE
  5
10F2
330
1A
100
AcDbEntity
  8
1
  6
CONTINUOUS
 62
     8
100
AcDbSpline
210
0.0
220
0.0
230
1.0
 70
     8
 71
     3
 72
    11
 73
     7
 74
     5
 42
0.0000000001
 43
0.0000000001
 44
0.0000000001
 40
0.0
 40
0.0
 40
0.0
 40
0.0
 40
13.43216614429868
 40
28.73723501832052
 40
42.04537364078992
 40
57.148675801873
 40
57.148675801873
 40
57.148675801873
 40
57.148675801873
 10
1331.411607694244
 20
569.0071230647028
 30
0.0
 10
1332.577688307962
 20
574.1754345599157
 30
0.0
 10
1335.072440999874
 20
585.2326966939804
 30
0.0
 10
1352.504456856855
 20
579.4729367598137
 30
0.0
 10
1362.094061081863
 20
562.8650659100399
 30
0.0
 10
1368.177629682106
 20
573.9837938055792
 30
0.0
 10
1371.411607694244
 20
579.8944235526777
 30
0.0
 11
1331.411607694244
 21
569.0071230647028
 31
0.0
 11
1336.967822070269
 21
581.2362509622962
 31
0.0
 11
1351.734020838527
 21
577.2107687334393
 31
0.0
 11
1361.667643152697
 21
568.3547142330262
 31
0.0
 11
1371.411607694244
 21
579.8944235526777
 31
0.0
  0
SPLINE
  5
10F3
330
1A
100
AcDbEntity
  8
1
  6
CONTINUOUS
 62
     8
100
AcDbSpline
210
0.0
220
0.0
230
1.0
 70
     8
 71
     3
 72
    11
 73
     7
 74
     5
 42
0.0000000001
 43
0.0000000001
 44
0.0000000001
 40
0.0
 40
0.0
 40
0.0
 40
0.0
 40
13.43216614429889
 40
28.73723501832073
 40
42.04537364079011
 40
57.1486758018732
 40
57.1486758018732
 40
57.1486758018732
 40
57.1486758018732
 10
1331.411607694244
 20
564.0071230647025
 30
0.0
 10
1332.577688307962
 20
569.1754345599156
 30
0.0
 10
1335.072440999873
 20
580.2326966939804
 30
0.0
 10
1352.504456856855
 20
574.4729367598137
 30
0.0
 10
1362.094061081863
 20
557.8650659100401
 30
0.0
 10
1368.177629682107
 20
568.9837938055792
 30
0.0
 10
1371.411607694244
 20
574.8944235526777
 30
0.0
 11
1331.411607694244
 21
564.0071230647025
 31
0.0
 11
1336.967822070269
 21
576.2362509622962
 31
0.0
 11
1351.734020838527
 21
572.2107687334393
 31
0.0
 11
1361.667643152697
 21
563.3547142330262
 31
0.0
 11
1371.411607694244
 21
574.8944235526777
 31
0.0
  0
LINE
  5
10F4
330
1A
100
AcDbEntity
  8
1
  6
CONTINUOUS
100
AcDbLine
 10
1380.153475627497
 20
677.796437822973
 30
0.0
 11
1379.363140533535
 21
677.0464378229735
 31
0.0
  0
LINE
  5
10F5
330
1A
100
AcDbEntity
  8
1
  6
CONTINUOUS
100
AcDbLine
 10
1379.363140533534
 20
677.0464378229735
 30
0.0
 11
1369.741887972139
 21
677.0464378229735
 31
0.0
  0
LINE
  5
10F6
330
1A
100
AcDbEntity
  8
1
  6
CONTINUOUS
100
AcDbLine
 10
1331.411607694244
 20
679.0464620857147
 30
0.0
 11
1331.411607694244
 21
569.0071230647017
 31
0.0
  0
LINE
  5
10F7
330
1A
100
AcDbEntity
  8
1
  6
CONTINUOUS
100
AcDbLine
 10
1371.411607694244
 20
677.0464378229735
 30
0.0
 11
1371.411607694244
 21
579.8944235526771
 31
0.0
  0
LINE
  5
10F8
330
1A
100
AcDbEntity
  8
1
  6
CONTINUOUS
100
AcDbLine
 10
1416.58519033412
 20
841.8625973005255
 30
0.0
 11
1420.936592051386
 21
843.7337000389506
 31
0.0
  0
LINE
  5
10F9
330
1A
100
AcDbEntity
  8
1
  6
CONTINUOUS
100
AcDbLine
 10
1420.969235955881
 20
843.7477369178839
 30
0.0
 11
1415.389864750025
 21
777.3712175397657
 31
0.0
  0
LINE
  5
10FA
330
1A
100
AcDbEntity
  8
1
  6
CONTINUOUS
 62
     8
100
AcDbLine
 10
1417.612173111941
 20
846.6583243764539
 30
0.0
 11
1423.259112636145
 21
849.0865083718622
 31
0.0
  0
ARC
  5
10FC
330
1A
100
AcDbEntity
  8
1
  6
CONTINUOUS
100
AcDbCircle
 10
1373.161691434218
 20
853.6693641437446
 30
0.0
 40
45.0
100
AcDbArc
 50
235.4986574455561
 51
351.0367521745761
  0
ARC
  5
10FD
330
1A
100
AcDbEntity
  8
1
  6
CONTINUOUS
 62
     8
100
AcDbCircle
 10
1341.917613241323
 20
836.9688171595633
 30
0.0
 40
1.0
100
AcDbArc
 50
23.26770481015119
 51
203.2677048101512
  0
LINE
  5
10FE
330
1A
100
AcDbEntity
  8
1
  6
CONTINUOUS
 62
     8
100
AcDbLine
 10
1342.836282428902
 20
837.3638449102243
 30
0.0
 11
1340.998944053744
 21
836.5737894089027
 31
0.0
  0
LINE
  5
10FF
330
1A
100
AcDbEntity
  8
1
  6
CONTINUOUS
 62
     8
100
AcDbLine
 10
1336.405598115847
 20
834.5986506555981
 30
0.0
 11
1334.568259740688
 21
833.8085951542762
 31
0.0
  0
ARC
  5
1100
330
1A
100
AcDbEntity
  8
1
  6
CONTINUOUS
 62
     8
100
AcDbCircle
 10
1335.486928928267
 20
834.2036229049366
 30
0.0
 40
1.0
100
AcDbArc
 50
23.26770481015119
 51
203.2677048101512
  0
LINE
  5
1101
330
1A
100
AcDbEntity
  8
1
  6
CONTINUOUS
 62
     8
100
AcDbLine
 10
1329.974913802791
 20
831.8334564009715
 30
0.0
 11
1328.137575427632
 21
831.0434008996496
 31
0.0
  0
ARC
  5
1102
330
1A
100
AcDbEntity
  8
1
  6
CONTINUOUS
 62
     8
100
AcDbCircle
 10
1329.056244615212
 20
831.4384286503104
 30
0.0
 40
1.0
100
AcDbArc
 50
23.26770481015119
 51
203.2677048101512
  0
LINE
  5
1103
330
1A
100
AcDbEntity
  8
1
  6
CONTINUOUS
 62
     8
100
AcDbLine
 10
1323.544229489736
 20
829.0682621463451
 30
0.0
 11
1321.706891114576
 21
828.2782066450231
 31
0.0
  0
LINE
  5
1104
330
1A
100
AcDbEntity
  8
1
  6
CONTINUOUS
 62
     8
100
AcDbLine
 10
1310.682860863624
 20
823.5378736370918
 30
0.0
 11
1308.845522488465
 21
822.7478181357701
 31
0.0
  0
ARC
  5
1105
330
1A
100
AcDbEntity
  8
1
  6
CONTINUOUS
 62
     8
100
AcDbCircle
 10
1309.764191676045
 20
823.1428458864307
 30
0.0
 40
1.0
100
AcDbArc
 50
23.26770481015119
 51
203.2677048101512
  0
LINE
  5
1106
330
1A
100
AcDbEntity
  8
1
  6
CONTINUOUS
 62
     8
100
AcDbLine
 10
1317.113545176679
 20
826.3030678917186
 30
0.0
 11
1315.276206801521
 21
825.5130123903967
 31
0.0
  0
ARC
  5
1107
330
1A
100
AcDbEntity
  8
1
  6
CONTINUOUS
 62
     8
100
AcDbCircle
 10
1316.194875989101
 20
825.9080401410574
 30
0.0
 40
1.0
100
AcDbArc
 50
23.26770481015119
 51
203.2677048101512
  0
ARC
  5
1108
330
1A
100
AcDbEntity
  8
1
  6
CONTINUOUS
 62
     8
100
AcDbCircle
 10
1322.625560302157
 20
828.6732343956836
 30
0.0
 40
1.0
100
AcDbArc
 50
23.26770481015119
 51
203.2677048101512
  0
LINE
  5
1109
330
1A
100
AcDbEntity
  8
1
  6
CONTINUOUS
 62
     8
100
AcDbLine
 10
1318.715097071802
 20
795.0464378229971
 30
-0.0000000000000002
 11
1318.715097071802
 21
764.0464378229974
 31
0.0000000000000107
  0
LINE
  5
110A
330
1A
100
AcDbEntity
  8
1
  6
CONTINUOUS
 62
     8
100
AcDbLine
 10
1318.568869252617
 20
764.0464378229973
 30
0.0
 11
1400.715097071801
 21
764.0464378229967
 31
0.0
  0
LINE
  5
110B
330
1A
100
AcDbEntity
  8
1
  6
CONTINUOUS
 62
     8
100
AcDbLine
 10
1400.715097071801
 20
764.0464378229967
 30
0.0000000000000107
 11
1400.715097071802
 21
795.0464378229963
 31
0.0000000000000105
  0
LINE
  5
110C
330
1A
100
AcDbEntity
  8
1
  6
CONTINUOUS
 62
     8
100
AcDbLine
 10
1318.715097071802
 20
795.0464378229971
 30
0.0
 11
1400.715097071802
 21
795.0464378229963
 31
0.0
  0
LINE
  5
110D
330
1A
100
AcDbEntity
  8
1
  6
CONTINUOUS
100
AcDbLine
 10
1416.55770108892
 20
865.0457992949657
 30
0.0
 11
1420.032193384547
 21
858.584244297298
 31
0.0
  0
LINE
  5
110E
330
1A
100
AcDbEntity
  8
1
  6
CONTINUOUS
 62
     8
100
AcDbLine
 10
1419.389124953242
 20
858.3077248718355
 30
0.0
 11
1419.784152703844
 21
857.389055684394
 31
0.0
  0
ARC
  5
1110
330
1A
100
AcDbEntity
  8
1
  6
CONTINUOUS
100
AcDbCircle
 10
1415.676956651968
 20
864.5722074487757
 30
0.0
 40
1.0
100
AcDbArc
 50
28.26770481015932
 51
68.26770481015238
  0
ARC
  5
1111
330
1A
100
AcDbEntity
  8
1
  6
CONTINUOUS
100
AcDbCircle
 10
1412.026713890792
 20
866.0271993186078
 30
0.0
 40
1.0
100
AcDbArc
 50
68.26770481015238
 51
113.2677048101522
  0
LINE
  5
1112
330
1A
100
AcDbEntity
  8
1
  6
CONTINUOUS
100
AcDbLine
 10
1412.396984301747
 20
866.956123332061
 30
0.0
 11
1416.047227062923
 21
865.5011314622289
 31
0.0
  0
LINE
  5
1113
330
1A
100
AcDbEntity
  8
1
  6
CONTINUOUS
 62
     8
100
AcDbLine
 10
1326.319860291591
 20
756.0464378229911
 30
0.0
 11
1328.887841476459
 21
707.046437822974
 31
0.0
  0
LINE
  5
1114
330
1A
100
AcDbEntity
  8
1
  6
CONTINUOUS
 62
     8
100
AcDbLine
 10
1337.734558757186
 20
752.0464378229735
 30
0.0
 11
1339.411607694244
 21
720.046437822974
 31
0.0
  0
LINE
  5
1115
330
1A
100
AcDbEntity
  8
1
  6
CONTINUOUS
 62
     8
100
AcDbLine
 10
1365.0886566313
 20
752.0464378229735
 30
0.0
 11
1363.411607694244
 21
720.046437822974
 31
0.0
  0
LINE
  5
1116
330
1A
100
AcDbEntity
  8
1
  6
CONTINUOUS
100
AcDbLine
 10
1325.568831032092
 20
756.0464378229915
 30
0.0
 11
1328.097506382499
 21
707.7964378229744
 31
0.0
  0
LINE
  5
1117
330
1A
100
AcDbEntity
  8
1
  6
CONTINUOUS
100
AcDbLine
 10
1330.480663559033
 20
707.0464378229735
 30
0.0
 11
1328.887841476461
 21
707.0464378229735
 31
0.0
  0
LINE
  5
1118
330
1A
100
AcDbEntity
  8
1
  6
CONTINUOUS
100
AcDbLine
 10
1328.887841476461
 20
707.0464378229735
 30
0.0
 11
1328.0975063825
 21
707.7964378229735
 31
0.0
  0
LINE
  5
1119
330
1A
100
AcDbEntity
  8
1
  6
CONTINUOUS
 62
     8
100
AcDbLine
 10
1363.411607694244
 20
720.046437822974
 30
0.0
 11
1339.411607694244
 21
720.046437822974
 31
0.0
  0
LINE
  5
111A
330
1A
100
AcDbEntity
  8
1
  6
CONTINUOUS
 62
     8
100
AcDbLine
 10
1381.395794846334
 20
752.0464378229735
 30
0.0
 11
1328.427420542153
 21
752.0464378229735
 31
0.0
  0
LINE
  5
111B
330
1A
100
AcDbEntity
  8
1
  6
CONTINUOUS
100
AcDbLine
 10
1318.568869252625
 20
756.0464378229907
 30
0.0
 11
1345.308304937437
 21
756.0464378229934
 31
0.0
  0
LINE
  5
111C
330
1A
100
AcDbEntity
  8
1
  6
CONTINUOUS
100
AcDbLine
 10
1318.568869252621
 20
759.0464378229953
 30
0.0
 11
1395.460147315937
 21
759.0464378229962
 31
0.0
  0
ARC
  5
111E
330
1A
100
AcDbEntity
  8
1
  6
CONTINUOUS
 62
     8
100
AcDbCircle
 10
1328.427420542153
 20
754.0464378229735
 30
0.0
 40
2.0
100
AcDbArc
 50
183.0
 51
270.0
  0
LINE
  5
111F
330
1A
100
AcDbEntity
  8
1
  6
CONTINUOUS
100
AcDbLine
 10
1318.568869252625
 20
756.0464378229907
 30
0.0
 11
1317.278869252617
 21
759.0464378229953
 31
0.0
  0
LINE
  5
1120
330
1A
100
AcDbEntity
  8
1
  6
CONTINUOUS
100
AcDbLine
 10
1310.522615024073
 20
759.0464378229953
 30
0.0
 11
1318.56886925262
 21
759.0464378229958
 31
0.0
  0
LINE
  5
1121
330
1A
100
AcDbEntity
  8
1
  6
CONTINUOUS
 62
     8
100
AcDbLine
 10
1363.411607694244
 20
743.0464378229739
 30
0.0
 11
1339.411607694244
 21
743.0464378229739
 31
0.0
  0
LINE
  5
1123
330
1A
100
AcDbEntity
  8
1
  6
CONTINUOUS
 62
     8
100
AcDbLine
 10
1391.737182407087
 20
857.3027007805759
 30
0.0
 11
1390.63477938199
 21
856.8286674797816
 31
0.0
  0
LINE
  5
112B
330
1A
100
AcDbEntity
  8
1
  6
CONTINUOUS
 62
     8
100
AcDbLine
 10
1391.342154656427
 20
858.2213699681531
 30
0.0
 11
1396.08248766429
 21
847.1973397173574
 31
0.0
  0
LINE
  5
112C
330
1A
100
AcDbEntity
  8
1
  6
CONTINUOUS
 62
     8
100
AcDbLine
 10
1390.239751631331
 20
857.7473366673601
 30
0.0
 11
1394.585056888585
 21
847.641975603984
 31
0.0
  0
LINE
  5
112F
330
1A
100
AcDbEntity
  8
1
  6
CONTINUOUS
100
AcDbLine
 10
1373.587107694247
 20
756.0464378229617
 30
0.0
 11
1372.297107694227
 21
759.0464378229962
 31
0.0
  0
LINE
  5
1130
330
1A
100
AcDbEntity
  8
1
  6
CONTINUOUS
100
AcDbLine
 10
1345.308304937437
 20
756.046437822914
 30
0.0
 11
1345.308304937432
 21
759.0464378229897
 31
0.0
  0
LINE
  5
1131
330
1A
100
AcDbEntity
  8
1
  6
CONTINUOUS
100
AcDbLine
 10
1392.587107694243
 20
759.0464378230008
 30
0.0
 11
1392.587107694248
 21
756.0464378229934
 31
0.0
  0
LINE
  5
1132
330
1A
100
AcDbEntity
  8
1
  6
CONTINUOUS
100
AcDbLine
 10
1373.587107694247
 20
756.0464378229617
 30
0.0
 11
1392.587107694248
 21
756.0464378229934
 31
0.0
  0
ARC
  5
1133
330
1A
100
AcDbEntity
  8
1
  6
CONTINUOUS
 62
     8
100
AcDbCircle
 10
1381.395794846334
 20
754.0464378229735
 30
0.0
 40
2.0
100
AcDbArc
 50
270.0
 51
357.0000000000003
  0
LINE
  5
1134
330
1A
100
AcDbEntity
  8
1
  6
CONTINUOUS
 62
     8
100
AcDbLine
 10
1383.503355096896
 20
756.0464378229782
 30
0.0
 11
1383.393053915843
 21
753.9417659104873
 31
0.0
  0
LINE
  5
1135
330
1A
100
AcDbEntity
  8
1
  6
CONTINUOUS
100
AcDbLine
 10
1411.631686140132
 20
866.9458685061862
 30
0.0
 11
1391.342154656427
 21
858.2213699681531
 31
0.0
  0
LINE
  5
1136
330
1A
100
AcDbEntity
  8
1
  6
CONTINUOUS
 62
     8
100
AcDbLine
 10
1420.032193384547
 20
858.584244297298
 30
0.0
 11
1395.687459913696
 21
848.1160089047833
 31
0.0
  0
ARC
  5
1137
330
1A
100
AcDbEntity
  8
1
  6
CONTINUOUS
100
AcDbCircle
 10
1395.460147315936
 20
779.0464378229994
 30
0.0
 40
20.0
100
AcDbArc
 50
270.0000000000007
 51
355.1952178742094
  0
LINE
  5
1138
330
1A
100
AcDbEntity
  8
1
  6
CONTINUOUS
100
AcDbLine
 10
1423.395857912504
 20
847.9258742470117
 30
0.0
 11
1422.041276169425
 21
844.5275375933297
 31
0.0
  0
ARC
  5
1139
330
1A
100
AcDbEntity
  8
1
  6
CONTINUOUS
100
AcDbCircle
 10
1421.112352155974
 20
844.8978080042866
 30
0.0
 40
1.0
100
AcDbArc
 50
293.2677048100608
 51
338.2677048100326
  0
LINE
  5
113A
330
1A
100
AcDbEntity
  8
1
  6
CONTINUOUS
100
AcDbLine
 10
1420.969235955881
 20
843.7477369178839
 30
0.0
 11
1421.507379906632
 21
843.9791388167041
 31
0.0
  0
ARC
  5
113B
330
1A
100
AcDbEntity
  8
1
  6
CONTINUOUS
100
AcDbCircle
 10
1422.466933899051
 20
848.2961446579704
 30
0.0
 40
1.0
100
AcDbArc
 50
338.2677048100301
 51
18.26770481006096
  0
LINE
  5
113C
330
1A
100
AcDbEntity
  8
1
  6
CONTINUOUS
100
AcDbLine
 10
1420.427221135208
 20
857.6655751097186
 30
0.0
 11
1423.416536210031
 21
848.609601913392
 31
0.0
  0
DIMENSION
  5
12B2
330
1A
100
AcDbEntity
  8
MEASURE
100
AcDbDimension
  2
*D4
 10
1241.411653494244
 20
545.1016344042382
 30
0.0
 11
976.4116992942447
 21
554.6016344042381
 31
0.0
 70
    32
  3
AD-STANDARD
100
AcDbAlignedDimension
 13
711.4117450942448
 23
425.9458685061862
 33
0.0
 14
1241.411653494244
 24
425.9458685061862
 34
0.0
100
AcDbRotatedDimension
1001
ACAD
1000
DSTYLE
1002
{
1070
   287
1070
     1
1070
   287
1070
     1
1070
    40
1040
5.0
1070
   140
1040
2.799999999999998
1070
   271
1070
     3
1070
   272
1070
     8
1070
   289
1070
     1
1002
}
  0
DIMENSION
  5
131B
330
1A
100
AcDbEntity
  8
MEASURE
100
AcDbDimension
  2
*D5
 10
639.1582619494247
 20
437.4458685061863
 30
0.0
 11
629.6582619494246
 21
402.4458685061864
 31
0.0
 70
    32
  3
AD-STANDARD
100
AcDbAlignedDimension
 13
711.4117450942448
 23
367.4458685061862
 33
0.0
 14
722.9117602942451
 24
437.4458685061862
 34
0.0
 50
90.0
100
AcDbRotatedDimension
1001
ACAD
1000
DSTYLE
1002
{
1070
   287
1070
     1
1070
   287
1070
     1
1070
    40
1040
5.0
1070
   140
1040
2.799999999999998
1070
   271
1070
     3
1070
   272
1070
     8
1070
   289
1070
     1
1002
}
  0
DIMENSION
  5
1328
330
1A
100
AcDbEntity
  8
MEASURE
100
AcDbDimension
  2
*D6
 10
611.5338862184271
 20
437.4458685061863
 30
0.0
 11
602.033886218427
 21
374.4458227061886
 31
0.0
 70
    32
  1
131～141
  3
AD-STANDARD
100
AcDbAlignedDimension
 13
744.4117438951398
 23
311.4457769061906
 33
0.0
 14
722.9117602942451
 24
437.4458685061862
 34
0.0
 50
90.0
100
AcDbRotatedDimension
1001
ACAD
1000
DSTYLE
1002
{
1070
   287
1070
     1
1070
   287
1070
     1
1070
    40
1040
5.0
1070
   140
1040
2.799999999999998
1070
   271
1070
     3
1070
   272
1070
     8
1070
   289
1070
     1
1002
}
  0
DIMENSION
  5
1335
330
1A
100
AcDbEntity
  8
MEASURE
100
AcDbDimension
  2
*D7
 10
460.4917105735438
 20
230.3329349802714
 30
0.0
 11
310.4917105735438
 21
239.8329349802714
 31
0.0
 70
    32
  3
AD-STANDARD
100
AcDbAlignedDimension
 13
160.4917105735439
 23
313.4462710061856
 33
0.0
 14
460.4917105735438
 24
313.4462710061856
 34
0.0
100
AcDbRotatedDimension
1001
ACAD
1000
DSTYLE
1002
{
1070
   287
1070
     1
1070
   287
1070
     1
1070
    40
1040
5.0
1070
   140
1040
2.799999999999998
1070
   271
1070
     3
1070
   272
1070
     8
1070
   289
1070
     1
1002
}
  0
DIMENSION
  5
1342
330
1A
100
AcDbEntity
  8
MEASURE
100
AcDbDimension
  2
*D8
 10
711.4117450942448
 20
230.3329349802714
 30
0.0
 11
733.9117526942446
 21
239.8329349802714
 31
0.0
 70
    32
  3
AD-STANDARD
100
AcDbAlignedDimension
 13
756.4117602942442
 23
313.4457826061863
 33
0.0
 14
711.4117450942448
 24
367.4458685061862
 34
0.0
100
AcDbRotatedDimension
1001
ACAD
1000
DSTYLE
1002
{
1070
   287
1070
     1
1070
   287
1070
     1
1070
    40
1040
5.0
1070
   140
1040
2.799999999999998
1070
   271
1070
     3
1070
   272
1070
     8
1070
   289
1070
     1
1002
}
  0
DIMENSION
  5
1381
330
1A
100
AcDbEntity
  8
MEASURE
100
AcDbDimension
  2
*D9
 10
1196.411760294243
 20
230.3329349802714
 30
0.0
 11
976.4117602942439
 21
239.8329349802714
 31
0.0
 70
    32
  3
AD-STANDARD
100
AcDbAlignedDimension
 13
756.4117602942442
 23
313.4457826061863
 33
0.0
 14
1196.411760294243
 24
313.4457826061863
 34
0.0
100
AcDbRotatedDimension
1001
ACAD
1000
DSTYLE
1002
{
1070
   287
1070
     1
1070
   287
1070
     1
1070
    40
1040
5.0
1070
   140
1040
2.799999999999998
1070
   271
1070
     3
1070
   272
1070
     8
1070
   289
1070
     1
1002
}
  0
DIMENSION
  5
138E
330
1A
100
AcDbEntity
  8
MEASURE
100
AcDbDimension
  2
*D10
 10
1369.411653494244
 20
230.3329349802714
 30
0.0
 11
1282.911706894244
 21
239.8329349802714
 31
0.0
 70
    32
  3
AD-STANDARD
100
AcDbAlignedDimension
 13
1196.411760294243
 23
308.4457826061863
 33
0.0
 14
1369.411653494244
 24
312.9169684061867
 34
0.0
100
AcDbRotatedDimension
1001
ACAD
1000
DSTYLE
1002
{
1070
   287
1070
     1
1070
   287
1070
     1
1070
    40
1040
5.0
1070
   140
1040
2.799999999999998
1070
   271
1070
     3
1070
   272
1070
     8
1070
   289
1070
     1
1002
}
  0
DIMENSION
  5
13DF
330
1A
100
AcDbEntity
  8
MEASURE
100
AcDbDimension
  2
*D11
 10
505.4917105735438
 20
201.3181598372448
 30
0.0
 11
310.4917105735438
 21
210.8181598372448
 31
0.0
 70
    32
  3
AD-STANDARD
100
AcDbAlignedDimension
 13
115.4917105735439
 23
367.4458685061863
 33
0.0
 14
505.4917105735438
 24
367.4458685061862
 34
0.0
100
AcDbRotatedDimension
1001
ACAD
1000
DSTYLE
1002
{
1070
   287
1070
     1
1070
   287
1070
     1
1070
    40
1040
5.0
1070
   140
1040
2.799999999999998
1070
   271
1070
     3
1070
   272
1070
     8
1070
   289
1070
     1
1002
}
  0
ARC
  5
1669
330
1A
100
AcDbEntity
  8
1
  6
CONTINUOUS
100
AcDbCircle
 10
1379.130877087838
 20
325.9169684061938
 30
0.0
 40
1.0
100
AcDbArc
 50
14.03624346792649
 51
29.99813292536593
  0
LINE
  5
166A
330
1A
100
AcDbEntity
  8
1
  6
CONTINUOUS
 62
     8
100
AcDbLine
 10
1377.661653494237
 20
318.9169684061902
 30
0.0
 11
1377.661653494237
 21
314.9169684061902
 31
0.0
  0
LINE
  5
166B
330
1A
100
AcDbEntity
  8
1
  6
CONTINUOUS
 62
     8
100
AcDbLine
 10
1378.534372947186
 20
318.9169684061902
 30
0.0
 11
1378.534372947186
 21
314.9169684061902
 31
0.0
  0
LINE
  5
166C
330
1A
100
AcDbEntity
  8
1
  6
CONTINUOUS
 62
     8
100
AcDbLine
 10
1380.114047286443
 20
318.9169684061902
 30
0.0
 11
1380.114047286443
 21
314.9169684061902
 31
0.0
  0
LINE
  5
166D
330
1A
100
AcDbEntity
  8
1
  6
CONTINUOUS
 62
     8
100
AcDbLine
 10
1380.744809324642
 20
318.9169684061902
 30
0.0
 11
1380.744809324642
 21
314.9169684061902
 31
0.0
  0
LINE
  5
166E
330
1A
100
AcDbEntity
  8
1
  6
CONTINUOUS
 62
     8
100
AcDbLine
 10
1382.142399912678
 20
318.9169684061902
 30
0.0
 11
1382.142399912678
 21
314.9169684061829
 31
0.0
  0
LINE
  5
166F
330
1A
100
AcDbEntity
  8
1
  6
CONTINUOUS
 62
     8
100
AcDbLine
 10
1384.594793704884
 20
318.9169684061829
 30
0.0
 11
1384.594793704884
 21
314.9169684061829
 31
0.0
  0
LINE
  5
1670
330
1A
100
AcDbEntity
  8
1
  6
CONTINUOUS
 62
     8
100
AcDbLine
 10
1383.658062630064
 20
318.9169684061829
 30
0.0
 11
1383.658062630064
 21
314.9169684061902
 31
0.0
  0
ARC
  5
1671
330
1A
100
AcDbEntity
  8
1
  6
CONTINUOUS
100
AcDbCircle
 10
1384.911653494237
 20
318.4169684061938
 30
0.0
 40
0.5
100
AcDbArc
 50
0.000000000000007
 51
90.00000000000005
  0
ARC
  5
1672
330
1A
100
AcDbEntity
  8
1
  6
CONTINUOUS
100
AcDbCircle
 10
1383.411653494238
 20
313.9169684061938
 30
0.0
 40
1.0
100
AcDbArc
 50
269.999999999998
 51
0.000000000000007
  0
LINE
  5
1673
330
1A
100
AcDbEntity
  8
1
  6
CONTINUOUS
100
AcDbLine
 10
1384.411653494244
 20
314.9169684061902
 30
0.0
 11
1384.411653494251
 21
313.916968406183
 31
0.0
  0
LINE
  5
1674
330
1A
100
AcDbEntity
  8
1
  6
CONTINUOUS
100
AcDbLine
 10
1381.142516657259
 20
322.7117567057333
 30
0.0
 11
1384.411653494244
 21
318.9169684061902
 31
0.0
  0
LINE
  5
1675
330
1A
100
AcDbEntity
  8
1
  6
CONTINUOUS
100
AcDbLine
 10
1385.411653494237
 20
318.4169684061902
 30
0.0
 11
1385.411653494237
 21
314.9169684061902
 31
0.0
  0
LINE
  5
1676
330
1A
100
AcDbEntity
  8
1
  6
CONTINUOUS
100
AcDbLine
 10
1380.101019587986
 20
326.1595040312144
 30
0.0
 11
1380.836737995953
 21
323.2166303993776
 31
0.0
  0
ARC
  5
1677
330
1A
100
AcDbEntity
  8
1
  6
CONTINUOUS
100
AcDbCircle
 10
1359.69242990065
 20
325.9169684061938
 30
0.0
 40
1.0
100
AcDbArc
 50
150.0016971302515
 51
165.9637565320734
  0
ARC
  5
1678
330
1A
100
AcDbEntity
  8
1
  6
CONTINUOUS
100
AcDbCircle
 10
1357.016426492388
 20
323.4591660244126
 30
0.0
 40
1.0
100
AcDbArc
 50
311.6335393365702
 51
345.9637565320773
  0
LINE
  5
1679
330
1A
100
AcDbEntity
  8
1
  6
CONTINUOUS
100
AcDbLine
 10
1357.680790331229
 20
322.7117567057262
 30
0.0
 11
1354.411653494244
 21
318.9169684061902
 31
0.0
  0
ARC
  5
167A
330
1A
100
AcDbEntity
  8
1
  6
CONTINUOUS
100
AcDbCircle
 10
1355.411653494237
 20
313.9169684061867
 30
0.0
 40
1.0
100
AcDbArc
 50
180.0
 51
270.0
  0
LINE
  5
167B
330
1A
100
AcDbEntity
  8
1
  6
CONTINUOUS
 62
     8
100
AcDbLine
 10
1369.979394039408
 20
318.9169684061829
 30
0.0
 11
1369.979394039408
 21
314.9169684061829
 31
0.0
  0
LINE
  5
167C
330
1A
100
AcDbEntity
  8
1
  6
CONTINUOUS
 62
     8
100
AcDbLine
 10
1371.92074430966
 20
318.9169684061902
 30
0.0
 11
1371.92074430966
 21
314.9169684061902
 31
0.0
  0
LINE
  5
167D
330
1A
100
AcDbEntity
  8
1
  6
CONTINUOUS
 62
     8
100
AcDbLine
 10
1374.892399912686
 20
318.9169684061902
 30
0.0
 11
1374.892399912678
 21
314.9169684061902
 31
0.0
  0
LINE
  5
167E
330
1A
100
AcDbEntity
  8
1
  6
CONTINUOUS
 62
     8
100
AcDbLine
 10
1375.925229953958
 20
318.9169684061829
 30
0.0
 11
1375.925229953958
 21
314.9169684061902
 31
0.0
  0
LINE
  5
167F
330
1A
100
AcDbEntity
  8
1
  6
CONTINUOUS
 62
     8
100
AcDbLine
 10
1373.031412413839
 20
318.9169684061976
 30
0.0
 11
1373.031412413839
 21
314.9169684061829
 31
0.0
  0
LINE
  5
1680
330
1A
100
AcDbEntity
  8
1
  6
CONTINUOUS
 62
     8
100
AcDbLine
 10
1355.165244358424
 20
318.9169684061829
 30
0.0
 11
1355.165244358424
 21
314.9169684061829
 31
0.0
  0
LINE
  5
1681
330
1A
100
AcDbEntity
  8
1
  6
CONTINUOUS
 62
     8
100
AcDbLine
 10
1354.228513283604
 20
318.9169684061829
 30
0.0
 11
1354.228513283604
 21
314.9169684061829
 31
0.0
  0
LINE
  5
1682
330
1A
100
AcDbEntity
  8
1
  6
CONTINUOUS
 62
     8
100
AcDbLine
 10
1356.68090707581
 20
318.9169684061829
 30
0.0
 11
1356.68090707581
 21
314.9169684061829
 31
0.0
  0
LINE
  5
1683
330
1A
100
AcDbEntity
  8
1
  6
CONTINUOUS
 62
     8
100
AcDbLine
 10
1358.078497663846
 20
318.9169684061829
 30
0.0
 11
1358.078497663846
 21
314.9169684061829
 31
0.0
  0
LINE
  5
1684
330
1A
100
AcDbEntity
  8
1
  6
CONTINUOUS
 62
     8
100
AcDbLine
 10
1358.709259702038
 20
318.9169684061829
 30
0.0
 11
1358.709259702045
 21
314.9169684061829
 31
0.0
  0
LINE
  5
1685
330
1A
100
AcDbEntity
  8
1
  6
CONTINUOUS
 62
     8
100
AcDbLine
 10
1360.288934041302
 20
318.9169684061829
 30
0.0
 11
1360.288934041302
 21
314.9169684061829
 31
0.0
  0
LINE
  5
1686
330
1A
100
AcDbEntity
  8
1
  6
CONTINUOUS
 62
     8
100
AcDbLine
 10
1361.161653494244
 20
318.9169684061976
 30
0.0
 11
1361.161653494244
 21
314.9169684061902
 31
0.0
  0
LINE
  5
1687
330
1A
100
AcDbEntity
  8
1
  6
CONTINUOUS
 62
     8
100
AcDbLine
 10
1362.89807703453
 20
318.9169684061829
 30
0.0
 11
1362.89807703453
 21
314.9169684061829
 31
0.0
  0
LINE
  5
1688
330
1A
100
AcDbEntity
  8
1
  6
CONTINUOUS
 62
     8
100
AcDbLine
 10
1363.93090707581
 20
318.9169684061902
 30
0.0
 11
1363.93090707581
 21
314.9169684061902
 31
0.0
  0
LINE
  5
1689
330
1A
100
AcDbEntity
  8
1
  6
CONTINUOUS
 62
     8
100
AcDbLine
 10
1365.791894574642
 20
318.9169684061902
 30
0.0
 11
1365.791894574642
 21
314.9169684061902
 31
0.0
  0
LINE
  5
168A
330
1A
100
AcDbEntity
  8
1
  6
CONTINUOUS
 62
     8
100
AcDbLine
 10
1368.84391294908
 20
318.9169684061902
 30
0.0
 11
1368.84391294908
 21
314.9169684061829
 31
0.0
  0
LINE
  5
168B
330
1A
100
AcDbEntity
  8
1
  6
CONTINUOUS
 62
     8
100
AcDbLine
 10
1366.902562678821
 20
318.9169684061902
 30
0.0
 11
1366.902562678821
 21
314.9169684061902
 31
0.0
  0
ARC
  5
168C
330
1A
100
AcDbEntity
  8
1
  6
CONTINUOUS
100
AcDbCircle
 10
1353.911653494237
 20
318.4169684061938
 30
0.0
 40
0.5
100
AcDbArc
 50
90.00000000000005
 51
180.0
  0
LINE
  5
168D
330
1A
100
AcDbEntity
  8
1
  6
CONTINUOUS
100
AcDbLine
 10
1354.411653494244
 20
314.9169684061902
 30
0.0
 11
1354.411653494244
 21
313.9169684061976
 31
0.0
  0
LINE
  5
168E
330
1A
100
AcDbEntity
  8
1
  6
CONTINUOUS
100
AcDbLine
 10
1353.411653494244
 20
318.4169684061976
 30
0.0
 11
1353.411653494244
 21
314.9169684061829
 31
0.0
  0
LINE
  5
168F
330
1A
100
AcDbEntity
  8
1
  6
CONTINUOUS
100
AcDbLine
 10
1358.722287400502
 20
326.159504031229
 30
0.0
 11
1357.986568992543
 21
323.2166303993631
 31
0.0
  0
LINE
  5
1690
330
1A
100
AcDbEntity
  8
1
  6
CONTINUOUS
 62
     8
100
AcDbLine
 10
1357.911653494237
 20
322.9169684061902
 30
0.0
 11
1380.911653494244
 21
322.9169684061976
 31
0.0
  0
LINE
  5
1691
330
1A
100
AcDbEntity
  8
1
  6
CONTINUOUS
100
AcDbLine
 10
1353.911653494237
 20
318.9169684061902
 30
0.0
 11
1384.911653494251
 21
318.9169684061829
 31
0.0
  0
LINE
  5
1692
330
1A
100
AcDbEntity
  8
1
  6
CONTINUOUS
100
AcDbLine
 10
1353.411653494244
 20
314.9169684061829
 30
0.0
 11
1385.411653494237
 21
314.9169684061902
 31
0.0
  0
LINE
  5
1693
330
1A
100
AcDbEntity
  8
1
  6
CONTINUOUS
100
AcDbLine
 10
1355.411653494237
 20
312.9169684061902
 30
0.0
 11
1383.411653494251
 21
312.9169684061829
 31
0.0
  0
POLYLINE
  5
1898
330
1A
100
AcDbEntity
  8
DEFPOINTS
100
AcDb2dPolyline
 66
     1
 10
0.0
 20
0.0
 30
0.0
 70
     1
  0
VERTEX
  5
1ED5
330
1898
100
AcDbEntity
  8
DEFPOINTS
100
AcDbVertex
100
AcDb2dVertex
 10
0.0
 20
0.0
 30
0.0
  0
VERTEX
  5
1ED6
330
1898
100
AcDbEntity
  8
DEFPOINTS
100
AcDbVertex
100
AcDb2dVertex
 10
1680.0
 20
0.0
 30
0.0
  0
VERTEX
  5
1ED7
330
1898
100
AcDbEntity
  8
DEFPOINTS
100
AcDbVertex
100
AcDb2dVertex
 10
1680.0
 20
1188.0
 30
0.0
  0
VERTEX
  5
1ED8
330
1898
100
AcDbEntity
  8
DEFPOINTS
100
AcDbVertex
100
AcDb2dVertex
 10
0.0
 20
1188.0
 30
0.0
  0
SEQEND
  5
1ED9
330
1898
100
AcDbEntity
  8
DEFPOINTS
  0
LINE
  5
1AB2
330
1A
100
AcDbEntity
  8
1
100
AcDbLine
 10
151.9917105735438
 20
340.4462653061808
 30
0.0
 11
151.9917105735438
 21
332.4462653061808
 31
0.0
  0
ARC
  5
1AB3
330
1A
100
AcDbEntity
  8
1
 62
     8
100
AcDbCircle
 10
164.7417105735438
 20
328.1707586677792
 30
0.0
 40
12.27550663840317
100
AcDbArc
 50
69.7438419996073
 51
110.2561580003927
  0
LINE
  5
1AB4
330
1A
100
AcDbEntity
  8
1
100
AcDbLine
 10
151.9917105735438
 20
340.4462653061808
 30
0.0
 11
168.9917105735438
 21
340.4462653061808
 31
0.0
  0
ARC
  5
1AB5
330
1A
100
AcDbEntity
  8
1
 62
     8
100
AcDbCircle
 10
156.2417105735438
 20
328.1707586677792
 30
0.0
 40
12.27550663840317
100
AcDbArc
 50
69.7438419996073
 51
110.2561580003927
  0
LINE
  5
1AB6
330
1A
100
AcDbEntity
  8
1
100
AcDbLine
 10
151.9917105735438
 20
332.4462653061808
 30
0.0
 11
168.9917105735438
 21
332.4462653061808
 31
0.0
  0
ARC
  5
1AB7
330
1A
100
AcDbEntity
  8
1
 62
     8
100
AcDbCircle
 10
164.7417105735365
 20
344.7217719445824
 30
0.0
 40
12.27550663840317
100
AcDbArc
 50
249.7438419996072
 51
290.2561580003927
  0
LINE
  5
1AB8
330
1A
100
AcDbEntity
  8
1
100
AcDbLine
 10
151.9917105735365
 20
332.4462653061808
 30
0.0
 11
168.9917105735365
 21
332.4462653061808
 31
0.0
  0
ARC
  5
1AB9
330
1A
100
AcDbEntity
  8
1
 62
     8
100
AcDbCircle
 10
156.2417105735365
 20
344.7217719445824
 30
0.0
 40
12.27550663840317
100
AcDbArc
 50
249.7438419996072
 51
290.2561580003927
  0
LINE
  5
1ABA
330
1A
100
AcDbEntity
  8
1
100
AcDbLine
 10
168.9917105735438
 20
340.4462653061808
 30
0.0
 11
168.9917105735438
 21
332.4462653061808
 31
0.0
  0
LINE
  5
1ABB
330
1A
100
AcDbEntity
  8
1
 62
     8
100
AcDbLine
 10
160.4917105735438
 20
339.6870759276269
 30
0.0
 11
160.4917105735511
 21
333.2054546847274
 31
0.0
  0
LINE
  5
1ABC
330
1A
100
AcDbEntity
  8
1
100
AcDbLine
 10
152.4917105735438
 20
332.4462653061808
 30
0.0
 11
168.4917105735438
 21
332.4462653061808
 31
0.0
  0
LINE
  5
1ABD
330
1A
100
AcDbEntity
  8
1
100
AcDbLine
 10
149.4917105735365
 20
332.4462653061808
 30
0.0
 11
171.4917105735365
 21
332.4462653061808
 31
0.0
  0
ARC
  5
1ABE
330
1A
100
AcDbEntity
  8
1
100
AcDbCircle
 10
148.4917105735365
 20
313.4462653061808
 30
0.0
 40
2.0
100
AcDbArc
 50
180.0
 51
270.0
  0
LINE
  5
1ABF
330
1A
100
AcDbEntity
  8
1
100
AcDbLine
 10
149.4917105735365
 20
332.4462653061808
 30
0.0
 11
146.4917105735365
 21
328.4462653061808
 31
0.0
  0
LINE
  5
1AC0
330
1A
100
AcDbEntity
  8
1
100
AcDbLine
 10
132.4803541012365
 20
328.4462653061808
 30
0.0
 11
123.9023264192365
 21
324.4462653061808
 31
0.0
  0
LINE
  5
1AC1
330
1A
100
AcDbEntity
  8
1
100
AcDbLine
 10
146.4917105735365
 20
316.4462653061808
 30
0.0
 11
146.4917105735365
 21
313.4462653061808
 31
0.0
  0
LINE
  5
1AC2
330
1A
100
AcDbEntity
  8
1
 62
     8
100
AcDbLine
 10
146.4917105735365
 20
313.4462653061808
 30
0.0
 11
174.4917105735365
 21
313.4462653061808
 31
0.0
  0
ARC
  5
1AC3
330
1A
100
AcDbEntity
  8
1
100
AcDbCircle
 10
172.4917105735365
 20
313.4462653061808
 30
0.0
 40
2.0
100
AcDbArc
 50
270.0
 51
0.0
  0
LINE
  5
1AC4
330
1A
100
AcDbEntity
  8
1
100
AcDbLine
 10
174.4917105735365
 20
328.4462653061808
 30
0.0
 11
171.4917105735365
 21
332.4462653061808
 31
0.0
  0
LINE
  5
1AC5
330
1A
100
AcDbEntity
  8
1
100
AcDbLine
 10
197.0810947278365
 20
324.4462653061808
 30
0.0
 11
188.5030670458365
 21
328.4462653061808
 31
0.0
  0
LINE
  5
1AC6
330
1A
100
AcDbEntity
  8
1
100
AcDbLine
 10
123.9023264192365
 20
324.4462653061808
 30
0.0
 11
122.4917105735365
 21
316.4462653061808
 31
0.0
  0
LINE
  5
1AC7
330
1A
100
AcDbEntity
  8
1
100
AcDbLine
 10
198.4917105735365
 20
316.4462653061808
 30
0.0
 11
197.0810947278365
 21
324.4462653061808
 31
0.0
  0
LINE
  5
1AC8
330
1A
100
AcDbEntity
  8
1
100
AcDbLine
 10
174.4917105735365
 20
313.4462653061808
 30
0.0
 11
174.4917105735365
 21
316.4462653061808
 31
0.0
  0
LINE
  5
1AC9
330
1A
100
AcDbEntity
  8
1
 62
     8
100
AcDbLine
 10
123.9023264192365
 20
324.4462653061808
 30
0.0
 11
124.2159705167365
 21
324.4462653061808
 31
0.0
  0
LINE
  5
1ACA
330
1A
100
AcDbEntity
  8
1
 62
     8
100
AcDbLine
 10
197.0810947278365
 20
324.4462653061808
 30
0.0
 11
196.7674506303365
 21
324.4462653061808
 31
0.0
  0
LINE
  5
1ACB
330
1A
100
AcDbEntity
  8
1
100
AcDbLine
 10
130.0580907005365
 20
316.4462653061808
 30
0.0
 11
122.8816028771365
 21
316.4462653061808
 31
0.0
  0
LINE
  5
1ACC
330
1A
100
AcDbEntity
  8
1
100
AcDbLine
 10
198.1018182699365
 20
316.4462653061808
 30
0.0
 11
198.4917105735365
 21
316.4462653061808
 31
0.0
  0
LINE
  5
1ACD
330
1A
100
AcDbEntity
  8
1
100
AcDbLine
 10
183.2468150871365
 20
316.4462653061808
 30
0.0
 11
190.9253304465365
 21
316.4462653061808
 31
0.0
  0
ARC
  5
1ACE
330
1A
100
AcDbEntity
  8
1
 62
     8
100
AcDbCircle
 10
146.9662034559365
 20
300.1967968638808
 30
0.0
 40
25.7781087156
100
AcDbArc
 50
70.16945679559973
 51
109.8305432044002
  0
SPLINE
  5
1ACF
330
1A
100
AcDbEntity
  8
1
 62
     8
100
AcDbSpline
210
0.0
220
0.0
230
1.0
 70
     8
 71
     3
 72
    14
 73
    10
 74
     0
 42
0.0000000001
 43
0.0000000001
 40
0.0
 40
0.0
 40
0.0
 40
0.0
 40
0.25
 40
0.25
 40
0.5
 40
0.5
 40
0.75
 40
0.75
 40
1.0
 40
1.0
 40
1.0
 40
1.0
 10
131.4605251878091
 20
324.4462653062303
 30
0.0
 10
131.5013538387692
 20
324.9144514754273
 30
0.0
 10
131.3840747595874
 20
325.2951749900767
 30
0.0
 10
130.8050453247252
 20
325.8262387683848
 30
0.0
 10
130.3351902301569
 20
325.9704468627663
 30
0.0
 10
129.0807010844353
 20
325.9705854522625
 30
0.0
 10
128.2780190116307
 20
325.8269863512857
 30
0.0
 10
126.4206800792875
 20
325.2955477281645
 30
0.0
 10
125.3737622319801
 20
324.9145042606483
 30
0.0
 10
124.2159705167039
 20
324.4462653062303
 30
0.0
  0
LINE
  5
1AD0
330
1A
100
AcDbEntity
  8
1
100
AcDbLine
 10
198.1018182699365
 20
316.4462653061808
 30
0.0
 11
190.9253304465365
 21
316.4462653061808
 31
0.0
  0
SPLINE
  5
1AD1
330
1A
100
AcDbEntity
  8
1
 62
     8
100
AcDbSpline
210
0.0
220
0.0
230
1.0
 70
     8
 71
     3
 72
    14
 73
    10
 74
     0
 42
0.0000000001
 43
0.0000000001
 40
0.0
 40
0.0
 40
0.0
 40
0.0
 40
0.2500000000000001
 40
0.2500000000000001
 40
0.5000000000000001
 40
0.5000000000000001
 40
0.75
 40
0.75
 40
1.0
 40
1.0
 40
1.0
 40
1.0
 10
196.7674506303636
 20
324.4462653062303
 30
0.0
 10
195.609789434539
 20
324.9144514754273
 30
0.0
 10
194.5636402191744
 20
325.2951749900767
 30
0.0
 10
192.708417572862
 20
325.8262387683848
 30
0.0
 10
191.903826039199
 20
325.9704468627663
 30
0.0
 10
190.6490118400813
 20
325.9705854522625
 30
0.0
 10
190.1796157121937
 20
325.8269863512857
 30
0.0
 10
189.5993289002032
 20
325.2955477281645
 30
0.0
 10
189.4820627051093
 20
324.9145042606483
 30
0.0
 10
189.5228959592583
 20
324.4462653062303
 30
0.0
  0
ARC
  5
1AD2
330
1A
100
AcDbEntity
  8
1
 62
     8
100
AcDbCircle
 10
174.0172176911365
 20
300.1973809466809
 30
0.0
 40
25.7775592697
100
AcDbArc
 50
70.1690163812013
 51
109.8309836187987
  0
ARC
  5
1AD3
330
1A
100
AcDbEntity
  8
1
 62
     8
100
AcDbCircle
 10
-2908.544801660364
 20
133.1577645250811
 30
0.0
 40
3097.219733229899
100
AcDbArc
 50
3.392654614601419
 51
3.540918781501424
  0
LINE
  5
1AD4
330
1A
100
AcDbEntity
  8
1
100
AcDbLine
 10
183.2468150871365
 20
316.4462653061808
 30
0.0
 11
165.9212408536365
 21
316.4462653061808
 31
0.0
  0
ARC
  5
1AD5
330
1A
100
AcDbEntity
  8
1
 62
     8
100
AcDbCircle
 10
-7534.145928140164
 20
1664.13719592348
 30
0.0
 40
7781.792472617199
100
AcDbArc
 50
350.0269374223015
 51
350.086738056502
  0
LINE
  5
1AD6
330
1A
100
AcDbEntity
  8
1
 62
     8
100
AcDbLine
 10
122.8816028771365
 20
316.4462653061808
 30
0.0
 11
124.2159705167365
 21
324.4462653061808
 31
0.0
  0
ARC
  5
1AD7
330
1A
100
AcDbEntity
  8
1
 62
     8
100
AcDbCircle
 10
-7445.822086901664
 20
-954.4180384655183
 30
0.0
 40
7748.8495111633
100
AcDbArc
 50
9.439544516698507
 51
9.499514528300428
  0
LINE
  5
1AD8
330
1A
100
AcDbEntity
  8
1
 62
     8
100
AcDbLine
 10
137.7366060599365
 20
316.4462653061808
 30
0.0
 11
138.2212523857365
 21
324.4462653061808
 31
0.0
  0
LINE
  5
1AD9
330
1A
100
AcDbEntity
  8
1
 62
     8
100
AcDbLine
 10
190.9253304465365
 20
316.4462653061808
 30
0.0
 11
189.5228959592365
 21
324.4462653061808
 31
0.0
  0
LINE
  5
1ADA
330
1A
100
AcDbEntity
  8
1
 62
     8
100
AcDbLine
 10
189.5228959592365
 20
324.4462653061808
 30
0.0
 11
182.7621687613365
 21
324.4462653061808
 31
0.0
  0
LINE
  5
1ADB
330
1A
100
AcDbEntity
  8
1
 62
     8
100
AcDbLine
 10
165.2722666209365
 20
324.4462653061808
 30
0.0
 11
155.7111545261365
 21
324.4462653061808
 31
0.0
  0
LINE
  5
1ADC
330
1A
100
AcDbEntity
  8
1
 62
     8
100
AcDbLine
 10
138.2212523857365
 20
324.4462653061808
 30
0.0
 11
131.4605251878365
 21
324.4462653061808
 31
0.0
  0
ARC
  5
1ADD
330
1A
100
AcDbEntity
  8
1
 62
     8
100
AcDbCircle
 10
-2945.129500239763
 20
571.965652902781
 30
0.0
 40
3110.7038774987
100
AcDbArc
 50
355.288302297197
 51
355.4361376759024
  0
LINE
  5
1ADE
330
1A
100
AcDbEntity
  8
1
100
AcDbLine
 10
155.0621802934365
 20
316.4462653061808
 30
0.0
 11
165.9212408536365
 21
316.4462653061808
 31
0.0
  0
LINE
  5
1ADF
330
1A
100
AcDbEntity
  8
1
100
AcDbLine
 10
155.0621802934365
 20
316.4462653061808
 30
0.0
 11
137.7366060599365
 21
316.4462653061808
 31
0.0
  0
LINE
  5
1AE0
330
1A
100
AcDbEntity
  8
1
100
AcDbLine
 10
130.0580907005365
 20
316.4462653061808
 30
0.0
 11
137.7366060599365
 21
316.4462653061808
 31
0.0
  0
LINE
  5
1AE1
330
1A
100
AcDbEntity
  8
1
100
AcDbLine
 10
122.4917105735365
 20
316.4462653061808
 30
0.0
 11
122.8816028771365
 21
316.4462653061808
 31
0.0
  0
LINE
  5
1AE2
330
1A
100
AcDbEntity
  8
1
100
AcDbLine
 10
132.4803541012365
 20
328.4462653061808
 30
0.0
 11
188.5030670458365
 21
328.4462653061808
 31
0.0
  0
LINE
  5
1AE3
330
1A
100
AcDbEntity
  8
1
100
AcDbLine
 10
148.4917105735365
 20
311.4462653061808
 30
0.0
 11
172.4917105735365
 21
311.4462653061808
 31
0.0
  0
LINE
  5
1AE4
330
1A
100
AcDbEntity
  8
1
 62
     8
100
AcDbLine
 10
165.9212408536365
 20
316.4462653061808
 30
0.0
 11
165.2722666209365
 21
324.4462653061808
 31
0.0
  0
LINE
  5
1AE5
330
1A
100
AcDbEntity
  8
1
100
AcDbLine
 10
451.9917105735437
 20
340.4462653061807
 30
0.0
 11
451.9917105735437
 21
332.4462653061806
 31
0.0
  0
ARC
  5
1AE6
330
1A
100
AcDbEntity
  8
1
 62
     8
100
AcDbCircle
 10
464.7417105735437
 20
328.1707586677791
 30
0.0
 40
12.27550663840317
100
AcDbArc
 50
69.7438419996073
 51
110.2561580003927
  0
LINE
  5
1AE7
330
1A
100
AcDbEntity
  8
1
100
AcDbLine
 10
451.9917105735437
 20
340.4462653061807
 30
0.0
 11
468.9917105735437
 21
340.4462653061807
 31
0.0
  0
ARC
  5
1AE8
330
1A
100
AcDbEntity
  8
1
 62
     8
100
AcDbCircle
 10
456.2417105735437
 20
328.1707586677791
 30
0.0
 40
12.27550663840317
100
AcDbArc
 50
69.7438419996073
 51
110.2561580003927
  0
LINE
  5
1AE9
330
1A
100
AcDbEntity
  8
1
100
AcDbLine
 10
451.9917105735437
 20
332.4462653061806
 30
0.0
 11
468.9917105735437
 21
332.4462653061806
 31
0.0
  0
ARC
  5
1AEA
330
1A
100
AcDbEntity
  8
1
 62
     8
100
AcDbCircle
 10
464.7417105735364
 20
344.7217719445822
 30
0.0
 40
12.27550663840317
100
AcDbArc
 50
249.7438419996072
 51
290.2561580003927
  0
LINE
  5
1AEB
330
1A
100
AcDbEntity
  8
1
100
AcDbLine
 10
451.9917105735364
 20
332.4462653061806
 30
0.0
 11
468.9917105735364
 21
332.4462653061806
 31
0.0
  0
ARC
  5
1AEC
330
1A
100
AcDbEntity
  8
1
 62
     8
100
AcDbCircle
 10
456.2417105735364
 20
344.7217719445822
 30
0.0
 40
12.27550663840317
100
AcDbArc
 50
249.7438419996072
 51
290.2561580003927
  0
LINE
  5
1AED
330
1A
100
AcDbEntity
  8
1
100
AcDbLine
 10
468.9917105735437
 20
340.4462653061807
 30
0.0
 11
468.9917105735437
 21
332.4462653061806
 31
0.0
  0
LINE
  5
1AEE
330
1A
100
AcDbEntity
  8
1
 62
     8
100
AcDbLine
 10
460.4917105735437
 20
339.6870759276268
 30
0.0
 11
460.491710573551
 21
333.2054546847273
 31
0.0
  0
LINE
  5
1AEF
330
1A
100
AcDbEntity
  8
1
100
AcDbLine
 10
452.4917105735437
 20
332.4462653061806
 30
0.0
 11
468.4917105735437
 21
332.4462653061806
 31
0.0
  0
LINE
  5
1AF0
330
1A
100
AcDbEntity
  8
1
100
AcDbLine
 10
449.4917105735364
 20
332.4462653061806
 30
0.0
 11
471.4917105735365
 21
332.4462653061806
 31
0.0
  0
ARC
  5
1AF1
330
1A
100
AcDbEntity
  8
1
100
AcDbCircle
 10
448.4917105735364
 20
313.4462653061806
 30
0.0
 40
2.0
100
AcDbArc
 50
180.0
 51
270.0
  0
LINE
  5
1AF2
330
1A
100
AcDbEntity
  8
1
100
AcDbLine
 10
449.4917105735364
 20
332.4462653061806
 30
0.0
 11
446.4917105735365
 21
328.4462653061807
 31
0.0
  0
LINE
  5
1AF3
330
1A
100
AcDbEntity
  8
1
100
AcDbLine
 10
432.4803541012363
 20
328.4462653061807
 30
0.0
 11
423.9023264192364
 21
324.4462653061807
 31
0.0
  0
LINE
  5
1AF4
330
1A
100
AcDbEntity
  8
1
100
AcDbLine
 10
446.4917105735365
 20
316.4462653061807
 30
0.0
 11
446.4917105735365
 21
313.4462653061806
 31
0.0
  0
LINE
  5
1AF5
330
1A
100
AcDbEntity
  8
1
 62
     8
100
AcDbLine
 10
446.4917105735365
 20
313.4462653061806
 30
0.0
 11
474.4917105735364
 21
313.4462653061806
 31
0.0
  0
ARC
  5
1AF6
330
1A
100
AcDbEntity
  8
1
100
AcDbCircle
 10
472.4917105735364
 20
313.4462653061806
 30
0.0
 40
2.0
100
AcDbArc
 50
270.0
 51
0.0
  0
LINE
  5
1AF7
330
1A
100
AcDbEntity
  8
1
100
AcDbLine
 10
474.4917105735364
 20
328.4462653061807
 30
0.0
 11
471.4917105735365
 21
332.4462653061806
 31
0.0
  0
LINE
  5
1AF8
330
1A
100
AcDbEntity
  8
1
100
AcDbLine
 10
497.0810947278364
 20
324.4462653061807
 30
0.0
 11
488.5030670458364
 21
328.4462653061807
 31
0.0
  0
LINE
  5
1AF9
330
1A
100
AcDbEntity
  8
1
100
AcDbLine
 10
423.9023264192364
 20
324.4462653061807
 30
0.0
 11
422.4917105735364
 21
316.4462653061807
 31
0.0
  0
LINE
  5
1AFA
330
1A
100
AcDbEntity
  8
1
100
AcDbLine
 10
498.4917105735364
 20
316.4462653061807
 30
0.0
 11
497.0810947278364
 21
324.4462653061807
 31
0.0
  0
LINE
  5
1AFB
330
1A
100
AcDbEntity
  8
1
100
AcDbLine
 10
474.4917105735364
 20
313.4462653061806
 30
0.0
 11
474.4917105735364
 21
316.4462653061807
 31
0.0
  0
LINE
  5
1AFC
330
1A
100
AcDbEntity
  8
1
 62
     8
100
AcDbLine
 10
423.9023264192364
 20
324.4462653061807
 30
0.0
 11
424.2159705167364
 21
324.4462653061807
 31
0.0
  0
LINE
  5
1AFD
330
1A
100
AcDbEntity
  8
1
 62
     8
100
AcDbLine
 10
497.0810947278364
 20
324.4462653061807
 30
0.0
 11
496.7674506303364
 21
324.4462653061807
 31
0.0
  0
LINE
  5
1AFE
330
1A
100
AcDbEntity
  8
1
100
AcDbLine
 10
430.0580907005365
 20
316.4462653061807
 30
0.0
 11
422.8816028771364
 21
316.4462653061807
 31
0.0
  0
LINE
  5
1AFF
330
1A
100
AcDbEntity
  8
1
100
AcDbLine
 10
498.1018182699364
 20
316.4462653061807
 30
0.0
 11
498.4917105735364
 21
316.4462653061807
 31
0.0
  0
LINE
  5
1B00
330
1A
100
AcDbEntity
  8
1
100
AcDbLine
 10
483.2468150871364
 20
316.4462653061807
 30
0.0
 11
490.9253304465364
 21
316.4462653061807
 31
0.0
  0
ARC
  5
1B01
330
1A
100
AcDbEntity
  8
1
 62
     8
100
AcDbCircle
 10
446.9662034559364
 20
300.1967968638807
 30
0.0
 40
25.7781087156
100
AcDbArc
 50
70.16945679559973
 51
109.8305432044002
  0
SPLINE
  5
1B02
330
1A
100
AcDbEntity
  8
1
 62
     8
100
AcDbSpline
210
0.0
220
0.0
230
1.0
 70
     8
 71
     3
 72
    14
 73
    10
 74
     0
 42
0.0000000001
 43
0.0000000001
 40
0.0
 40
0.0
 40
0.0
 40
0.0
 40
0.25
 40
0.25
 40
0.5
 40
0.5
 40
0.75
 40
0.75
 40
1.0
 40
1.0
 40
1.0
 40
1.0
 10
431.460525187809
 20
324.4462653062302
 30
0.0
 10
431.5013538387692
 20
324.9144514754271
 30
0.0
 10
431.3840747595873
 20
325.2951749900765
 30
0.0
 10
430.8050453247251
 20
325.8262387683847
 30
0.0
 10
430.3351902301568
 20
325.9704468627662
 30
0.0
 10
429.0807010844353
 20
325.9705854522624
 30
0.0
 10
428.2780190116306
 20
325.8269863512856
 30
0.0
 10
426.4206800792874
 20
325.2955477281644
 30
0.0
 10
425.37376223198
 20
324.9145042606482
 30
0.0
 10
424.2159705167038
 20
324.4462653062302
 30
0.0
  0
LINE
  5
1B03
330
1A
100
AcDbEntity
  8
1
100
AcDbLine
 10
498.1018182699364
 20
316.4462653061807
 30
0.0
 11
490.9253304465364
 21
316.4462653061807
 31
0.0
  0
SPLINE
  5
1B04
330
1A
100
AcDbEntity
  8
1
 62
     8
100
AcDbSpline
210
0.0
220
0.0
230
1.0
 70
     8
 71
     3
 72
    14
 73
    10
 74
     0
 42
0.0000000001
 43
0.0000000001
 40
0.0
 40
0.0
 40
0.0
 40
0.0
 40
0.2500000000000001
 40
0.2500000000000001
 40
0.5000000000000001
 40
0.5000000000000001
 40
0.75
 40
0.75
 40
1.0
 40
1.0
 40
1.0
 40
1.0
 10
496.7674506303635
 20
324.4462653062302
 30
0.0
 10
495.6097894345389
 20
324.9144514754271
 30
0.0
 10
494.5636402191744
 20
325.2951749900765
 30
0.0
 10
492.7084175728619
 20
325.8262387683847
 30
0.0
 10
491.903826039199
 20
325.9704468627662
 30
0.0
 10
490.6490118400812
 20
325.9705854522624
 30
0.0
 10
490.1796157121936
 20
325.8269863512856
 30
0.0
 10
489.5993289002031
 20
325.2955477281644
 30
0.0
 10
489.4820627051092
 20
324.9145042606482
 30
0.0
 10
489.5228959592582
 20
324.4462653062302
 30
0.0
  0
ARC
  5
1B05
330
1A
100
AcDbEntity
  8
1
 62
     8
100
AcDbCircle
 10
474.0172176911364
 20
300.1973809466808
 30
0.0
 40
25.7775592697
100
AcDbArc
 50
70.1690163812013
 51
109.8309836187987
  0
ARC
  5
1B06
330
1A
100
AcDbEntity
  8
1
 62
     8
100
AcDbCircle
 10
-2608.544801660364
 20
133.157764525081
 30
0.0
 40
3097.219733229899
100
AcDbArc
 50
3.392654614601467
 51
3.540918781501374
  0
LINE
  5
1B07
330
1A
100
AcDbEntity
  8
1
100
AcDbLine
 10
483.2468150871364
 20
316.4462653061807
 30
0.0
 11
465.9212408536364
 21
316.4462653061807
 31
0.0
  0
ARC
  5
1B08
330
1A
100
AcDbEntity
  8
1
 62
     8
100
AcDbCircle
 10
-7234.145928140164
 20
1664.13719592348
 30
0.0
 40
7781.792472617199
100
AcDbArc
 50
350.0269374223015
 51
350.086738056502
  0
LINE
  5
1B09
330
1A
100
AcDbEntity
  8
1
 62
     8
100
AcDbLine
 10
422.8816028771364
 20
316.4462653061807
 30
0.0
 11
424.2159705167364
 21
324.4462653061807
 31
0.0
  0
ARC
  5
1B0A
330
1A
100
AcDbEntity
  8
1
 62
     8
100
AcDbCircle
 10
-7145.822086901664
 20
-954.4180384655183
 30
0.0
 40
7748.8495111633
100
AcDbArc
 50
9.439544516698639
 51
9.499514528300293
  0
LINE
  5
1B0B
330
1A
100
AcDbEntity
  8
1
 62
     8
100
AcDbLine
 10
437.7366060599364
 20
316.4462653061807
 30
0.0
 11
438.2212523857364
 21
324.4462653061807
 31
0.0
  0
LINE
  5
1B0C
330
1A
100
AcDbEntity
  8
1
 62
     8
100
AcDbLine
 10
490.9253304465364
 20
316.4462653061807
 30
0.0
 11
489.5228959592365
 21
324.4462653061807
 31
0.0
  0
LINE
  5
1B0D
330
1A
100
AcDbEntity
  8
1
 62
     8
100
AcDbLine
 10
489.5228959592365
 20
324.4462653061807
 30
0.0
 11
482.7621687613365
 21
324.4462653061807
 31
0.0
  0
LINE
  5
1B0E
330
1A
100
AcDbEntity
  8
1
 62
     8
100
AcDbLine
 10
465.2722666209364
 20
324.4462653061807
 30
0.0
 11
455.7111545261364
 21
324.4462653061807
 31
0.0
  0
LINE
  5
1B0F
330
1A
100
AcDbEntity
  8
1
 62
     8
100
AcDbLine
 10
438.2212523857364
 20
324.4462653061807
 30
0.0
 11
431.4605251878364
 21
324.4462653061807
 31
0.0
  0
ARC
  5
1B10
330
1A
100
AcDbEntity
  8
1
 62
     8
100
AcDbCircle
 10
-2645.129500239764
 20
571.9656529027808
 30
0.0
 40
3110.7038774987
100
AcDbArc
 50
355.288302297197
 51
355.4361376759024
  0
LINE
  5
1B11
330
1A
100
AcDbEntity
  8
1
100
AcDbLine
 10
455.0621802934364
 20
316.4462653061807
 30
0.0
 11
465.9212408536364
 21
316.4462653061807
 31
0.0
  0
LINE
  5
1B12
330
1A
100
AcDbEntity
  8
1
100
AcDbLine
 10
455.0621802934364
 20
316.4462653061807
 30
0.0
 11
437.7366060599364
 21
316.4462653061807
 31
0.0
  0
LINE
  5
1B13
330
1A
100
AcDbEntity
  8
1
100
AcDbLine
 10
430.0580907005365
 20
316.4462653061807
 30
0.0
 11
437.7366060599364
 21
316.4462653061807
 31
0.0
  0
LINE
  5
1B14
330
1A
100
AcDbEntity
  8
1
100
AcDbLine
 10
422.4917105735364
 20
316.4462653061807
 30
0.0
 11
422.8816028771364
 21
316.4462653061807
 31
0.0
  0
LINE
  5
1B15
330
1A
100
AcDbEntity
  8
1
100
AcDbLine
 10
432.4803541012363
 20
328.4462653061807
 30
0.0
 11
488.5030670458364
 21
328.4462653061807
 31
0.0
  0
LINE
  5
1B16
330
1A
100
AcDbEntity
  8
1
100
AcDbLine
 10
448.4917105735364
 20
311.4462653061806
 30
0.0
 11
472.4917105735364
 21
311.4462653061806
 31
0.0
  0
LINE
  5
1B17
330
1A
100
AcDbEntity
  8
1
 62
     8
100
AcDbLine
 10
465.9212408536364
 20
316.4462653061807
 30
0.0
 11
465.2722666209364
 21
324.4462653061807
 31
0.0
  0
LINE
  5
1CDB
330
1A
100
AcDbEntity
  8
1
 62
     8
 48
0.25
100
AcDbLine
 10
355.3309775387772
 20
744.6501253088258
 30
0.0
 11
320.4917105735442
 21
744.6501253088256
 31
0.0
  0
LINE
  5
1CDC
330
1A
100
AcDbEntity
  8
1
 48
0.25
100
AcDbLine
 10
265.6524436083137
 20
744.6501253088256
 30
0.0
 11
245.991710573544
 21
744.6501253088256
 31
0.0
  0
LINE
  5
1CE1
330
1A
100
AcDbEntity
  8
1
  6
CONTINUOUS
100
AcDbLine
 10
1187.919557594244
 20
340.4457769061814
 30
0.0
 11
1187.919557594244
 21
332.4457769061814
 31
0.0
  0
ARC
  5
1CE2
330
1A
100
AcDbEntity
  8
1
  6
CONTINUOUS
 62
     8
100
AcDbCircle
 10
1200.669557594244
 20
328.1702702677798
 30
0.0
 40
12.27550663840317
100
AcDbArc
 50
69.74384199961034
 51
110.2561580003896
  0
LINE
  5
1CE3
330
1A
100
AcDbEntity
  8
1
  6
CONTINUOUS
100
AcDbLine
 10
1187.919557594244
 20
340.4457769061814
 30
0.0
 11
1204.919557594244
 21
340.4457769061814
 31
0.0
  0
ARC
  5
1CE4
330
1A
100
AcDbEntity
  8
1
  6
CONTINUOUS
 62
     8
100
AcDbCircle
 10
1192.169557594244
 20
328.1702702677798
 30
0.0
 40
12.27550663840317
100
AcDbArc
 50
69.74384199961034
 51
110.2561580003896
  0
LINE
  5
1CE5
330
1A
100
AcDbEntity
  8
1
  6
CONTINUOUS
100
AcDbLine
 10
1187.919557594244
 20
332.4457769061814
 30
0.0
 11
1204.919557594244
 21
332.4457769061814
 31
0.0
  0
ARC
  5
1CE6
330
1A
100
AcDbEntity
  8
1
  6
CONTINUOUS
 62
     8
100
AcDbCircle
 10
1200.669557594236
 20
344.7212835445829
 30
0.0
 40
12.27550663840317
100
AcDbArc
 50
249.7438419996103
 51
290.2561580003896
  0
LINE
  5
1CE7
330
1A
100
AcDbEntity
  8
1
  6
CONTINUOUS
100
AcDbLine
 10
1187.919557594236
 20
332.4457769061814
 30
0.0
 11
1204.919557594236
 21
332.4457769061814
 31
0.0
  0
ARC
  5
1CE8
330
1A
100
AcDbEntity
  8
1
  6
CONTINUOUS
 62
     8
100
AcDbCircle
 10
1192.169557594236
 20
344.7212835445829
 30
0.0
 40
12.27550663840317
100
AcDbArc
 50
249.7438419996103
 51
290.2561580003896
  0
LINE
  5
1CE9
330
1A
100
AcDbEntity
  8
1
  6
CONTINUOUS
100
AcDbLine
 10
1204.919557594244
 20
340.4457769061814
 30
0.0
 11
1204.919557594244
 21
332.4457769061814
 31
0.0
  0
LINE
  5
1CEA
330
1A
100
AcDbEntity
  8
1
  6
CONTINUOUS
 62
     8
100
AcDbLine
 10
1196.419557594244
 20
339.6865875276275
 30
0.0
 11
1196.419557594251
 21
333.204966284728
 31
0.0
  0
LINE
  5
1CEB
330
1A
100
AcDbEntity
  8
1
  6
CONTINUOUS
100
AcDbLine
 10
1188.419557594244
 20
332.4457769061814
 30
0.0
 11
1204.419557594244
 21
332.4457769061814
 31
0.0
  0
LINE
  5
1CEC
330
1A
100
AcDbEntity
  8
1
  6
CONTINUOUS
100
AcDbLine
 10
1185.419557594236
 20
332.4457769061814
 30
0.0
 11
1207.419557594236
 21
332.4457769061814
 31
0.0
  0
ARC
  5
1CED
330
1A
100
AcDbEntity
  8
1
  6
CONTINUOUS
100
AcDbCircle
 10
1184.419557594236
 20
313.4457769061814
 30
0.0
 40
2.0
100
AcDbArc
 50
180.0
 51
270.0
  0
LINE
  5
1CEE
330
1A
100
AcDbEntity
  8
1
  6
CONTINUOUS
100
AcDbLine
 10
1185.419557594236
 20
332.4457769061814
 30
0.0
 11
1182.419557594236
 21
328.4457769061814
 31
0.0
  0
LINE
  5
1CEF
330
1A
100
AcDbEntity
  8
1
  6
CONTINUOUS
100
AcDbLine
 10
1168.408201121936
 20
328.4457769061814
 30
0.0
 11
1159.830173439936
 21
324.4457769061814
 31
0.0
  0
LINE
  5
1CF0
330
1A
100
AcDbEntity
  8
1
  6
CONTINUOUS
100
AcDbLine
 10
1182.419557594236
 20
316.4457769061813
 30
0.0
 11
1182.419557594236
 21
313.4457769061814
 31
0.0
  0
LINE
  5
1CF1
330
1A
100
AcDbEntity
  8
1
  6
CONTINUOUS
 62
     8
100
AcDbLine
 10
1182.419557594236
 20
313.4457769061814
 30
0.0
 11
1210.419557594236
 21
313.4457769061814
 31
0.0
  0
ARC
  5
1CF2
330
1A
100
AcDbEntity
  8
1
  6
CONTINUOUS
100
AcDbCircle
 10
1208.419557594236
 20
313.4457769061814
 30
0.0
 40
2.0
100
AcDbArc
 50
270.0
 51
0.0
  0
LINE
  5
1CF3
330
1A
100
AcDbEntity
  8
1
  6
CONTINUOUS
100
AcDbLine
 10
1210.419557594236
 20
328.4457769061814
 30
0.0
 11
1207.419557594236
 21
332.4457769061814
 31
0.0
  0
LINE
  5
1CF4
330
1A
100
AcDbEntity
  8
1
  6
CONTINUOUS
100
AcDbLine
 10
1233.008941748537
 20
324.4457769061814
 30
0.0
 11
1224.430914066537
 21
328.4457769061814
 31
0.0
  0
LINE
  5
1CF5
330
1A
100
AcDbEntity
  8
1
  6
CONTINUOUS
100
AcDbLine
 10
1159.830173439936
 20
324.4457769061814
 30
0.0
 11
1158.419557594237
 21
316.4457769061813
 31
0.0
  0
LINE
  5
1CF6
330
1A
100
AcDbEntity
  8
1
  6
CONTINUOUS
100
AcDbLine
 10
1234.419557594236
 20
316.4457769061813
 30
0.0
 11
1233.008941748537
 21
324.4457769061814
 31
0.0
  0
LINE
  5
1CF7
330
1A
100
AcDbEntity
  8
1
  6
CONTINUOUS
100
AcDbLine
 10
1210.419557594236
 20
313.4457769061814
 30
0.0
 11
1210.419557594236
 21
316.4457769061813
 31
0.0
  0
LINE
  5
1CF8
330
1A
100
AcDbEntity
  8
1
  6
CONTINUOUS
 62
     8
100
AcDbLine
 10
1159.830173439936
 20
324.4457769061814
 30
0.0
 11
1160.143817537437
 21
324.4457769061814
 31
0.0
  0
LINE
  5
1CF9
330
1A
100
AcDbEntity
  8
1
  6
CONTINUOUS
 62
     8
100
AcDbLine
 10
1233.008941748537
 20
324.4457769061814
 30
0.0
 11
1232.695297651036
 21
324.4457769061814
 31
0.0
  0
LINE
  5
1CFA
330
1A
100
AcDbEntity
  8
1
  6
CONTINUOUS
100
AcDbLine
 10
1165.985937721236
 20
316.4457769061813
 30
0.0
 11
1158.809449897836
 21
316.4457769061813
 31
0.0
  0
LINE
  5
1CFB
330
1A
100
AcDbEntity
  8
1
  6
CONTINUOUS
100
AcDbLine
 10
1234.029665290636
 20
316.4457769061813
 30
0.0
 11
1234.419557594236
 21
316.4457769061813
 31
0.0
  0
LINE
  5
1CFC
330
1A
100
AcDbEntity
  8
1
  6
CONTINUOUS
100
AcDbLine
 10
1219.174662107836
 20
316.4457769061813
 30
0.0
 11
1226.853177467237
 21
316.4457769061813
 31
0.0
  0
ARC
  5
1CFD
330
1A
100
AcDbEntity
  8
1
  6
CONTINUOUS
 62
     8
100
AcDbCircle
 10
1182.894050476636
 20
300.1963084638814
 30
0.0
 40
25.7781087156
100
AcDbArc
 50
70.16945679560278
 51
109.8305432043972
  0
SPLINE
  5
1CFE
330
1A
100
AcDbEntity
  8
1
  6
CONTINUOUS
 62
     8
100
AcDbSpline
210
0.0
220
0.0
230
1.0
 70
     8
 71
     3
 72
    14
 73
    10
 74
     0
 42
0.0000000001
 43
0.0000000001
 40
0.0
 40
0.0
 40
0.0
 40
0.0
 40
0.25
 40
0.25
 40
0.5
 40
0.5
 40
0.75
 40
0.75
 40
1.0
 40
1.0
 40
1.0
 40
1.0
 10
1167.388372208509
 20
324.4457769062309
 30
0.0
 10
1167.429200859469
 20
324.9139630754279
 30
0.0
 10
1167.311921780287
 20
325.2946865900772
 30
0.0
 10
1166.732892345425
 20
325.8257503683854
 30
0.0
 10
1166.263037250857
 20
325.9699584627668
 30
0.0
 10
1165.008548105135
 20
325.9700970522631
 30
0.0
 10
1164.20586603233
 20
325.8264979512862
 30
0.0
 10
1162.348527099988
 20
325.2950593281651
 30
0.0
 10
1161.30160925268
 20
324.9140158606489
 30
0.0
 10
1160.143817537404
 20
324.4457769062309
 30
0.0
  0
LINE
  5
1CFF
330
1A
100
AcDbEntity
  8
1
  6
CONTINUOUS
100
AcDbLine
 10
1234.029665290636
 20
316.4457769061813
 30
0.0
 11
1226.853177467237
 21
316.4457769061813
 31
0.0
  0
SPLINE
  5
1D00
330
1A
100
AcDbEntity
  8
1
  6
CONTINUOUS
 62
     8
100
AcDbSpline
210
0.0
220
0.0
230
1.0
 70
     8
 71
     3
 72
    14
 73
    10
 74
     0
 42
0.0000000001
 43
0.0000000001
 40
0.0
 40
0.0
 40
0.0
 40
0.0
 40
0.2500000000000001
 40
0.2500000000000001
 40
0.5000000000000001
 40
0.5000000000000001
 40
0.75
 40
0.75
 40
1.0
 40
1.0
 40
1.0
 40
1.0
 10
1232.695297651063
 20
324.4457769062309
 30
0.0
 10
1231.537636455239
 20
324.9139630754279
 30
0.0
 10
1230.491487239874
 20
325.2946865900772
 30
0.0
 10
1228.636264593562
 20
325.8257503683854
 30
0.0
 10
1227.831673059899
 20
325.9699584627668
 30
0.0
 10
1226.576858860781
 20
325.9700970522631
 30
0.0
 10
1226.107462732894
 20
325.8264979512862
 30
0.0
 10
1225.527175920903
 20
325.2950593281651
 30
0.0
 10
1225.409909725809
 20
324.9140158606489
 30
0.0
 10
1225.450742979958
 20
324.4457769062309
 30
0.0
  0
ARC
  5
1D01
330
1A
100
AcDbEntity
  8
1
  6
CONTINUOUS
 62
     8
100
AcDbCircle
 10
1209.945064711837
 20
300.1968925466815
 30
0.0
 40
25.7775592697
100
AcDbArc
 50
70.16901638119825
 51
109.8309836188017
  0
ARC
  5
1D02
330
1A
100
AcDbEntity
  8
1
  6
CONTINUOUS
 62
     8
100
AcDbCircle
 10
-1872.616954639663
 20
133.1572761250817
 30
0.0
 40
3097.219733229899
100
AcDbArc
 50
3.392654614601274
 51
3.540918781501575
  0
LINE
  5
1D03
330
1A
100
AcDbEntity
  8
1
  6
CONTINUOUS
100
AcDbLine
 10
1219.174662107836
 20
316.4457769061813
 30
0.0
 11
1201.849087874337
 21
316.4457769061813
 31
0.0
  0
ARC
  5
1D04
330
1A
100
AcDbEntity
  8
1
  6
CONTINUOUS
 62
     8
100
AcDbCircle
 10
-6498.218081119464
 20
1664.136707523481
 30
0.0
 40
7781.792472617199
100
AcDbArc
 50
350.0269374223026
 51
350.0867380565015
  0
LINE
  5
1D05
330
1A
100
AcDbEntity
  8
1
  6
CONTINUOUS
 62
     8
100
AcDbLine
 10
1158.809449897836
 20
316.4457769061813
 30
0.0
 11
1160.143817537437
 21
324.4457769061814
 31
0.0
  0
ARC
  5
1D06
330
1A
100
AcDbEntity
  8
1
  6
CONTINUOUS
 62
     8
100
AcDbCircle
 10
-6409.894239880964
 20
-954.4185268655176
 30
0.0
 40
7748.8495111633
100
AcDbArc
 50
9.439544516697571
 51
9.499514528300293
  0
LINE
  5
1D07
330
1A
100
AcDbEntity
  8
1
  6
CONTINUOUS
 62
     8
100
AcDbLine
 10
1173.664453080636
 20
316.4457769061813
 30
0.0
 11
1174.149099406436
 21
324.4457769061814
 31
0.0
  0
LINE
  5
1D08
330
1A
100
AcDbEntity
  8
1
  6
CONTINUOUS
 62
     8
100
AcDbLine
 10
1226.853177467237
 20
316.4457769061813
 30
0.0
 11
1225.450742979937
 21
324.4457769061814
 31
0.0
  0
LINE
  5
1D09
330
1A
100
AcDbEntity
  8
1
  6
CONTINUOUS
 62
     8
100
AcDbLine
 10
1225.450742979937
 20
324.4457769061814
 30
0.0
 11
1218.690015782037
 21
324.4457769061814
 31
0.0
  0
LINE
  5
1D0A
330
1A
100
AcDbEntity
  8
1
  6
CONTINUOUS
 62
     8
100
AcDbLine
 10
1201.200113641636
 20
324.4457769061814
 30
0.0
 11
1191.639001546836
 21
324.4457769061814
 31
0.0
  0
LINE
  5
1D0B
330
1A
100
AcDbEntity
  8
1
  6
CONTINUOUS
 62
     8
100
AcDbLine
 10
1174.149099406436
 20
324.4457769061814
 30
0.0
 11
1167.388372208536
 21
324.4457769061814
 31
0.0
  0
ARC
  5
1D0C
330
1A
100
AcDbEntity
  8
1
  6
CONTINUOUS
 62
     8
100
AcDbCircle
 10
-1909.201653219063
 20
571.9651645027815
 30
0.0
 40
3110.7038774987
100
AcDbArc
 50
355.2883022971972
 51
355.4361376759022
  0
LINE
  5
1D0D
330
1A
100
AcDbEntity
  8
1
  6
CONTINUOUS
100
AcDbLine
 10
1190.990027314136
 20
316.4457769061813
 30
0.0
 11
1201.849087874337
 21
316.4457769061813
 31
0.0
  0
LINE
  5
1D0E
330
1A
100
AcDbEntity
  8
1
  6
CONTINUOUS
100
AcDbLine
 10
1190.990027314136
 20
316.4457769061813
 30
0.0
 11
1173.664453080636
 21
316.4457769061813
 31
0.0
  0
LINE
  5
1D0F
330
1A
100
AcDbEntity
  8
1
  6
CONTINUOUS
100
AcDbLine
 10
1165.985937721236
 20
316.4457769061813
 30
0.0
 11
1173.664453080636
 21
316.4457769061813
 31
0.0
  0
LINE
  5
1D10
330
1A
100
AcDbEntity
  8
1
  6
CONTINUOUS
100
AcDbLine
 10
1158.419557594237
 20
316.4457769061813
 30
0.0
 11
1158.809449897836
 21
316.4457769061813
 31
0.0
  0
LINE
  5
1D11
330
1A
100
AcDbEntity
  8
1
  6
CONTINUOUS
100
AcDbLine
 10
1168.408201121936
 20
328.4457769061814
 30
0.0
 11
1224.430914066537
 21
328.4457769061814
 31
0.0
  0
LINE
  5
1D12
330
1A
100
AcDbEntity
  8
1
  6
CONTINUOUS
100
AcDbLine
 10
1184.419557594236
 20
311.4457769061814
 30
0.0
 11
1208.419557594236
 21
311.4457769061814
 31
0.0
  0
LINE
  5
1D13
330
1A
100
AcDbEntity
  8
1
  6
CONTINUOUS
 62
     8
100
AcDbLine
 10
1201.849087874337
 20
316.4457769061813
 30
0.0
 11
1201.200113641636
 21
324.4457769061814
 31
0.0
  0
LINE
  5
1D14
330
1A
100
AcDbEntity
  8
1
  6
CONTINUOUS
100
AcDbLine
 10
747.9117438951469
 20
340.4457769061906
 30
0.0
 11
747.9117438951469
 21
332.4457769061905
 31
0.0
  0
ARC
  5
1D15
330
1A
100
AcDbEntity
  8
1
  6
CONTINUOUS
 62
     8
100
AcDbCircle
 10
760.6617438951469
 20
328.170270267789
 30
0.0
 40
12.27550663840317
100
AcDbArc
 50
69.74384199960424
 51
110.2561580003957
  0
LINE
  5
1D16
330
1A
100
AcDbEntity
  8
1
  6
CONTINUOUS
100
AcDbLine
 10
747.9117438951469
 20
340.4457769061906
 30
0.0
 11
764.911743895147
 21
340.4457769061906
 31
0.0
  0
ARC
  5
1D17
330
1A
100
AcDbEntity
  8
1
  6
CONTINUOUS
 62
     8
100
AcDbCircle
 10
752.1617438951469
 20
328.170270267789
 30
0.0
 40
12.27550663840317
100
AcDbArc
 50
69.74384199960424
 51
110.2561580003957
  0
LINE
  5
1D18
330
1A
100
AcDbEntity
  8
1
  6
CONTINUOUS
100
AcDbLine
 10
747.9117438951469
 20
332.4457769061905
 30
0.0
 11
764.911743895147
 21
332.4457769061905
 31
0.0
  0
ARC
  5
1D19
330
1A
100
AcDbEntity
  8
1
  6
CONTINUOUS
 62
     8
100
AcDbCircle
 10
760.6617438951396
 20
344.7212835445921
 30
0.0
 40
12.27550663840317
100
AcDbArc
 50
249.7438419996042
 51
290.2561580003957
  0
LINE
  5
1D1A
330
1A
100
AcDbEntity
  8
1
  6
CONTINUOUS
100
AcDbLine
 10
747.9117438951397
 20
332.4457769061905
 30
0.0
 11
764.9117438951397
 21
332.4457769061905
 31
0.0
  0
ARC
  5
1D1B
330
1A
100
AcDbEntity
  8
1
  6
CONTINUOUS
 62
     8
100
AcDbCircle
 10
752.1617438951397
 20
344.7212835445921
 30
0.0
 40
12.27550663840317
100
AcDbArc
 50
249.7438419996042
 51
290.2561580003957
  0
LINE
  5
1D1C
330
1A
100
AcDbEntity
  8
1
  6
CONTINUOUS
100
AcDbLine
 10
764.911743895147
 20
340.4457769061906
 30
0.0
 11
764.911743895147
 21
332.4457769061905
 31
0.0
  0
LINE
  5
1D1D
330
1A
100
AcDbEntity
  8
1
  6
CONTINUOUS
 62
     8
100
AcDbLine
 10
756.411743895147
 20
339.6865875276367
 30
0.0
 11
756.4117438951542
 21
333.2049662847372
 31
0.0
  0
LINE
  5
1D1E
330
1A
100
AcDbEntity
  8
1
  6
CONTINUOUS
100
AcDbLine
 10
748.411743895147
 20
332.4457769061905
 30
0.0
 11
764.4117438951469
 21
332.4457769061905
 31
0.0
  0
LINE
  5
1D1F
330
1A
100
AcDbEntity
  8
1
  6
CONTINUOUS
100
AcDbLine
 10
745.4117438951397
 20
332.4457769061905
 30
0.0
 11
767.4117438951396
 21
332.4457769061905
 31
0.0
  0
ARC
  5
1D20
330
1A
100
AcDbEntity
  8
1
  6
CONTINUOUS
100
AcDbCircle
 10
744.4117438951397
 20
313.4457769061905
 30
0.0
 40
2.0
100
AcDbArc
 50
180.0
 51
270.0
  0
LINE
  5
1D21
330
1A
100
AcDbEntity
  8
1
  6
CONTINUOUS
100
AcDbLine
 10
745.4117438951397
 20
332.4457769061905
 30
0.0
 11
742.4117438951396
 21
328.4457769061906
 31
0.0
  0
LINE
  5
1D22
330
1A
100
AcDbEntity
  8
1
  6
CONTINUOUS
100
AcDbLine
 10
728.4003874228396
 20
328.4457769061906
 30
0.0
 11
719.8223597408397
 21
324.4457769061906
 31
0.0
  0
LINE
  5
1D23
330
1A
100
AcDbEntity
  8
1
  6
CONTINUOUS
100
AcDbLine
 10
742.4117438951396
 20
316.4457769061905
 30
0.0
 11
742.4117438951396
 21
313.4457769061905
 31
0.0
  0
LINE
  5
1D24
330
1A
100
AcDbEntity
  8
1
  6
CONTINUOUS
 62
     8
100
AcDbLine
 10
742.4117438951396
 20
313.4457769061905
 30
0.0
 11
770.4117438951397
 21
313.4457769061905
 31
0.0
  0
ARC
  5
1D25
330
1A
100
AcDbEntity
  8
1
  6
CONTINUOUS
100
AcDbCircle
 10
768.4117438951397
 20
313.4457769061905
 30
0.0
 40
2.0
100
AcDbArc
 50
270.0
 51
0.0
  0
LINE
  5
1D26
330
1A
100
AcDbEntity
  8
1
  6
CONTINUOUS
100
AcDbLine
 10
770.4117438951397
 20
328.4457769061906
 30
0.0
 11
767.4117438951396
 21
332.4457769061905
 31
0.0
  0
LINE
  5
1D27
330
1A
100
AcDbEntity
  8
1
  6
CONTINUOUS
100
AcDbLine
 10
793.0011280494396
 20
324.4457769061906
 30
0.0
 11
784.4231003674397
 21
328.4457769061906
 31
0.0
  0
LINE
  5
1D28
330
1A
100
AcDbEntity
  8
1
  6
CONTINUOUS
100
AcDbLine
 10
719.8223597408397
 20
324.4457769061906
 30
0.0
 11
718.4117438951396
 21
316.4457769061905
 31
0.0
  0
LINE
  5
1D29
330
1A
100
AcDbEntity
  8
1
  6
CONTINUOUS
100
AcDbLine
 10
794.4117438951397
 20
316.4457769061905
 30
0.0
 11
793.0011280494396
 21
324.4457769061906
 31
0.0
  0
LINE
  5
1D2A
330
1A
100
AcDbEntity
  8
1
  6
CONTINUOUS
100
AcDbLine
 10
770.4117438951397
 20
313.4457769061905
 30
0.0
 11
770.4117438951397
 21
316.4457769061905
 31
0.0
  0
LINE
  5
1D2B
330
1A
100
AcDbEntity
  8
1
  6
CONTINUOUS
 62
     8
100
AcDbLine
 10
719.8223597408397
 20
324.4457769061906
 30
0.0
 11
720.1360038383397
 21
324.4457769061906
 31
0.0
  0
LINE
  5
1D2C
330
1A
100
AcDbEntity
  8
1
  6
CONTINUOUS
 62
     8
100
AcDbLine
 10
793.0011280494396
 20
324.4457769061906
 30
0.0
 11
792.6874839519397
 21
324.4457769061906
 31
0.0
  0
LINE
  5
1D2D
330
1A
100
AcDbEntity
  8
1
  6
CONTINUOUS
100
AcDbLine
 10
725.9781240221396
 20
316.4457769061905
 30
0.0
 11
718.8016361987396
 21
316.4457769061905
 31
0.0
  0
LINE
  5
1D2E
330
1A
100
AcDbEntity
  8
1
  6
CONTINUOUS
100
AcDbLine
 10
794.0218515915396
 20
316.4457769061905
 30
0.0
 11
794.4117438951397
 21
316.4457769061905
 31
0.0
  0
LINE
  5
1D2F
330
1A
100
AcDbEntity
  8
1
  6
CONTINUOUS
100
AcDbLine
 10
779.1668484087397
 20
316.4457769061905
 30
0.0
 11
786.8453637681397
 21
316.4457769061905
 31
0.0
  0
ARC
  5
1D30
330
1A
100
AcDbEntity
  8
1
  6
CONTINUOUS
 62
     8
100
AcDbCircle
 10
742.8862367775397
 20
300.1963084638906
 30
0.0
 40
25.7781087156
100
AcDbArc
 50
70.16945679560278
 51
109.8305432043972
  0
SPLINE
  5
1D31
330
1A
100
AcDbEntity
  8
1
  6
CONTINUOUS
 62
     8
100
AcDbSpline
210
0.0
220
0.0
230
1.0
 70
     8
 71
     3
 72
    14
 73
    10
 74
     0
 42
0.0000000001
 43
0.0000000001
 40
0.0
 40
0.0
 40
0.0
 40
0.0
 40
0.25
 40
0.25
 40
0.5
 40
0.5
 40
0.75
 40
0.75
 40
1.0
 40
1.0
 40
1.0
 40
1.0
 10
727.3805585094122
 20
324.4457769062401
 30
0.0
 10
727.4213871603724
 20
324.913963075437
 30
0.0
 10
727.3041080811906
 20
325.2946865900864
 30
0.0
 10
726.7250786463283
 20
325.8257503683946
 30
0.0
 10
726.2552235517601
 20
325.9699584627761
 30
0.0
 10
725.0007344060384
 20
325.9700970522723
 30
0.0
 10
724.1980523332338
 20
325.8264979512954
 30
0.0
 10
722.3407134008906
 20
325.2950593281743
 30
0.0
 10
721.2937955535831
 20
324.9140158606581
 30
0.0
 10
720.136003838307
 20
324.4457769062401
 30
0.0
  0
LINE
  5
1D32
330
1A
100
AcDbEntity
  8
1
  6
CONTINUOUS
100
AcDbLine
 10
794.0218515915396
 20
316.4457769061905
 30
0.0
 11
786.8453637681397
 21
316.4457769061905
 31
0.0
  0
SPLINE
  5
1D33
330
1A
100
AcDbEntity
  8
1
  6
CONTINUOUS
 62
     8
100
AcDbSpline
210
0.0
220
0.0
230
1.0
 70
     8
 71
     3
 72
    14
 73
    10
 74
     0
 42
0.0000000001
 43
0.0000000001
 40
0.0
 40
0.0
 40
0.0
 40
0.0
 40
0.2500000000000001
 40
0.2500000000000001
 40
0.5000000000000001
 40
0.5000000000000001
 40
0.75
 40
0.75
 40
1.0
 40
1.0
 40
1.0
 40
1.0
 10
792.6874839519666
 20
324.4457769062401
 30
0.0
 10
791.5298227561422
 20
324.913963075437
 30
0.0
 10
790.4836735407775
 20
325.2946865900864
 30
0.0
 10
788.6284508944651
 20
325.8257503683946
 30
0.0
 10
787.8238593608021
 20
325.9699584627761
 30
0.0
 10
786.5690451616845
 20
325.9700970522723
 30
0.0
 10
786.0996490337968
 20
325.8264979512954
 30
0.0
 10
785.5193622218064
 20
325.2950593281743
 30
0.0
 10
785.4020960267124
 20
324.9140158606581
 30
0.0
 10
785.4429292808614
 20
324.4457769062401
 30
0.0
  0
ARC
  5
1D34
330
1A
100
AcDbEntity
  8
1
  6
CONTINUOUS
 62
     8
100
AcDbCircle
 10
769.9372510127397
 20
300.1968925466907
 30
0.0
 40
25.7775592697
100
AcDbArc
 50
70.16901638119825
 51
109.8309836188017
  0
ARC
  5
1D35
330
1A
100
AcDbEntity
  8
1
  6
CONTINUOUS
 62
     8
100
AcDbCircle
 10
-2312.624768338761
 20
133.1572761250909
 30
0.0
 40
3097.219733229899
100
AcDbArc
 50
3.392654614601274
 51
3.540918781501575
  0
LINE
  5
1D36
330
1A
100
AcDbEntity
  8
1
  6
CONTINUOUS
100
AcDbLine
 10
779.1668484087397
 20
316.4457769061905
 30
0.0
 11
761.8412741752396
 21
316.4457769061905
 31
0.0
  0
ARC
  5
1D37
330
1A
100
AcDbEntity
  8
1
  6
CONTINUOUS
 62
     8
100
AcDbCircle
 10
-6938.225894818561
 20
1664.13670752349
 30
0.0
 40
7781.792472617199
100
AcDbArc
 50
350.0269374223015
 51
350.0867380565026
  0
LINE
  5
1D38
330
1A
100
AcDbEntity
  8
1
  6
CONTINUOUS
 62
     8
100
AcDbLine
 10
718.8016361987396
 20
316.4457769061905
 30
0.0
 11
720.1360038383397
 21
324.4457769061906
 31
0.0
  0
ARC
  5
1D39
330
1A
100
AcDbEntity
  8
1
  6
CONTINUOUS
 62
     8
100
AcDbCircle
 10
-6849.902053580061
 20
-954.4185268655084
 30
0.0
 40
7748.8495111633
100
AcDbArc
 50
9.439544516698639
 51
9.499514528300293
  0
LINE
  5
1D3A
330
1A
100
AcDbEntity
  8
1
  6
CONTINUOUS
 62
     8
100
AcDbLine
 10
733.6566393815396
 20
316.4457769061905
 30
0.0
 11
734.1412857073396
 21
324.4457769061906
 31
0.0
  0
LINE
  5
1D3B
330
1A
100
AcDbEntity
  8
1
  6
CONTINUOUS
 62
     8
100
AcDbLine
 10
786.8453637681397
 20
316.4457769061905
 30
0.0
 11
785.4429292808397
 21
324.4457769061906
 31
0.0
  0
LINE
  5
1D3C
330
1A
100
AcDbEntity
  8
1
  6
CONTINUOUS
 62
     8
100
AcDbLine
 10
785.4429292808397
 20
324.4457769061906
 30
0.0
 11
778.6822020829397
 21
324.4457769061906
 31
0.0
  0
LINE
  5
1D3D
330
1A
100
AcDbEntity
  8
1
  6
CONTINUOUS
 62
     8
100
AcDbLine
 10
761.1922999425396
 20
324.4457769061906
 30
0.0
 11
751.6311878477396
 21
324.4457769061906
 31
0.0
  0
LINE
  5
1D3E
330
1A
100
AcDbEntity
  8
1
  6
CONTINUOUS
 62
     8
100
AcDbLine
 10
734.1412857073396
 20
324.4457769061906
 30
0.0
 11
727.3805585094396
 21
324.4457769061906
 31
0.0
  0
ARC
  5
1D3F
330
1A
100
AcDbEntity
  8
1
  6
CONTINUOUS
 62
     8
100
AcDbCircle
 10
-2349.20946691816
 20
571.9651645027908
 30
0.0
 40
3110.7038774987
100
AcDbArc
 50
355.2883022971967
 51
355.4361376759022
  0
LINE
  5
1D40
330
1A
100
AcDbEntity
  8
1
  6
CONTINUOUS
100
AcDbLine
 10
750.9822136150396
 20
316.4457769061905
 30
0.0
 11
761.8412741752396
 21
316.4457769061905
 31
0.0
  0
LINE
  5
1D41
330
1A
100
AcDbEntity
  8
1
  6
CONTINUOUS
100
AcDbLine
 10
750.9822136150396
 20
316.4457769061905
 30
0.0
 11
733.6566393815396
 21
316.4457769061905
 31
0.0
  0
LINE
  5
1D42
330
1A
100
AcDbEntity
  8
1
  6
CONTINUOUS
100
AcDbLine
 10
725.9781240221396
 20
316.4457769061905
 30
0.0
 11
733.6566393815396
 21
316.4457769061905
 31
0.0
  0
LINE
  5
1D43
330
1A
100
AcDbEntity
  8
1
  6
CONTINUOUS
100
AcDbLine
 10
718.4117438951396
 20
316.4457769061905
 30
0.0
 11
718.8016361987396
 21
316.4457769061905
 31
0.0
  0
LINE
  5
1D44
330
1A
100
AcDbEntity
  8
1
  6
CONTINUOUS
100
AcDbLine
 10
728.4003874228396
 20
328.4457769061906
 30
0.0
 11
784.4231003674397
 21
328.4457769061906
 31
0.0
  0
LINE
  5
1D45
330
1A
100
AcDbEntity
  8
1
  6
CONTINUOUS
100
AcDbLine
 10
744.4117438951397
 20
311.4457769061905
 30
0.0
 11
768.4117438951397
 21
311.4457769061905
 31
0.0
  0
LINE
  5
1D46
330
1A
100
AcDbEntity
  8
1
  6
CONTINUOUS
 62
     8
100
AcDbLine
 10
761.8412741752396
 20
316.4457769061905
 30
0.0
 11
761.1922999425396
 21
324.4457769061906
 31
0.0
  0
VIEWPORT
  5
18FC
330
18F5
100
AcDbEntity
 67
     1
  8
0
100
AcDbViewport
 10
197.1051465019133
 20
127.102966589683
 30
0.0
 40
498.6210445584577
 41
409.1776819263221
 68
     1
 69
     1
1001
ACAD
1000
MVIEW
1002
{
1070
    16
1010
0.0
1020
0.0
1030
0.0
1010
0.0
1020
0.0
1030
1.0
1040
0.0
1040
409.1776819263221
1040
197.1051465019133
1040
127.102966589683
1040
50.0
1040
0.0
1040
0.0
1070
     0
1070
   100
1070
     1
1070
     1
1070
     0
1070
     0
1070
     0
1070
     0
1040
0.0
1040
0.0
1040
0.0
1040
10.0
1040
10.0
1040
10.0
1040
10.0
1070
     0
1002
{
1002
}
1002
}
  0
VIEWPORT
  5
18FE
330
18F5
100
AcDbEntity
 67
     1
  8
DEFPOINTS
100
AcDbViewport
 10
192.1384524064678
 20
142.6488238061842
 30
0.0
 40
378.1296380297585
 41
280.098809057504
 68
     2
 69
     2
1001
ACAD
1000
MVIEW
1002
{
1070
    16
1010
0.0
1020
0.0
1030
0.0
1010
0.0
1020
0.0
1030
1.0
1040
0.0
1040
1120.395231982298
1040
814.8687335501444
1040
561.9042893231688
1040
50.0
1040
0.0
1040
0.0
1070
     0
1070
   100
1070
     1
1070
     0
1070
     0
1070
     0
1070
     0
1070
     1
1040
0.0
1040
0.0
1040
0.0
1040
1.0
1040
1.0
1040
0.0
1040
0.0
1070
     0
1002
{
1002
}
1002
}
  0
MTEXT
  5
18FF
330
18F5
100
AcDbEntity
 67
     1
  8
カバ_
100
AcDbMText
 10
362.2902682629494
 20
17.21215900749814
 30
0.0
 40
3.5
 41
50.7291
 71
     1
 72
     1
  1
{\C7;HV/W-G}
  7
AD-STANDARD
1001
ACAD
1000
MTEXTBEGIN
1070
    73
1070
     1
1070
    44
1040
1.0
1070
    74
1070
     0
1000
MTEXTEND
1000
MTEXTBEGIN
1070
    73
1070
     1
1070
    44
1040
1.0
1070
    74
1070
     0
1000
MTEXTEND
  0
ENDSEC
  0
SECTION
  2
OBJECTS
  0
DICTIONARY
  5
C
330
0
100
AcDbDictionary
  3
ACAD_COLOR
350
16DC
  3
ACAD_GROUP
350
D
  3
ACAD_LAYOUT
350
16DF
  3
ACAD_MATERIAL
350
16DB
  3
ACAD_MLINESTYLE
350
E
  3
ACAD_PLOTSETTINGS
350
16E0
  3
ACAD_TABLESTYLE
350
16DD
  3
CONTENTDICTIONARY
350
234
1001
ACAD
1000
TREAT_AS_HARD
1070
     0
  0
DICTIONARY
  5
16F4
330
2
100
AcDbDictionary
  3
ACAD_LAYERSTATES
350
16F5
1001
ACAD
1000
TREAT_AS_HARD
1070
     1
  0
DICTIONARY
  5
1780
330
1A
100
AcDbDictionary
  3
ACAD_LAYOUTSELFREF
350
1E12
  3
ACAD_SORTENTS
350
1781
1001
ACAD
1000
TREAT_AS_HARD
1070
     1
  0
DICTIONARY
  5
197D
330
18F5
100
AcDbDictionary
  3
ACAD_LAYOUTSELFREF
350
1EDA
1001
ACAD
1000
TREAT_AS_HARD
1070
     1
  0
DICTIONARY
  5
16DC
102
{ACAD_REACTORS
330
C
102
}
330
C
100
AcDbDictionary
1001
ACAD
1000
TREAT_AS_HARD
1070
     0
  0
DICTIONARY
  5
D
102
{ACAD_REACTORS
330
C
102
}
330
C
100
AcDbDictionary
  3
*A1
350
16FA
  3
*A2
350
16FC
1001
ACAD
1000
TREAT_AS_HARD
1070
     0
  0
DICTIONARY
  5
16DF
102
{ACAD_REACTORS
330
C
102
}
330
C
100
AcDbDictionary
1001
ACAD
1000
TREAT_AS_HARD
1070
     0
  0
DICTIONARY
  5
16DB
102
{ACAD_REACTORS
330
C
102
}
330
C
100
AcDbDictionary
1001
ACAD
1000
TREAT_AS_HARD
1070
     0
  0
DICTIONARY
  5
E
102
{ACAD_REACTORS
330
C
102
}
330
C
100
AcDbDictionary
  3
STANDARD
350
13
1001
ACAD
1000
TREAT_AS_HARD
1070
     0
  0
DICTIONARY
  5
16E0
102
{ACAD_REACTORS
330
C
102
}
330
C
100
AcDbDictionary
  3
_A3用紙_RICOH_IPSIO_CX8200_RPCS
350
17A6
1001
ACAD
1000
TREAT_AS_HARD
1070
     0
  0
DICTIONARY
  5
16DD
102
{ACAD_REACTORS
330
C
102
}
330
C
100
AcDbDictionary
  3
STANDARD
350
16DE
1001
ACAD
1000
TREAT_AS_HARD
1070
     0
  0
DICTIONARY
  5
234
102
{ACAD_REACTORS
330
C
102
}
330
C
100
AcDbDictionary
1001
ACAD
1000
TREAT_AS_HARD
1070
     0
  0
DICTIONARY
  5
16F5
102
{ACAD_REACTORS
330
16F4
102
}
330
16F4
100
AcDbDictionary
1001
ACAD
1000
TREAT_AS_HARD
1070
     0
  0
XRECORD
  5
1E12
102
{ACAD_REACTORS
330
1780
102
}
330
1780
100
AcDbXrecord
340
1A
  0
SORTENTSTABLE
  5
1781
102
{ACAD_REACTORS
330
1780
102
}
330
1780
100
AcDbSortentsTable
330
1A
331
F68
  5
F68
331
F13
  5
F13
331
F2A
  5
F2A
331
EC5
  5
EC5
331
EF4
  5
EF4
331
E70
  5
E70
331
E8F
  5
E8F
331
E32
  5
E32
331
E51
  5
E51
331
DDD
  5
DDD
331
DFC
  5
DFC
331
DBE
  5
DBE
331
E1B
  5
E1B
331
EA6
  5
EA6
331
F49
  5
F49
331
1086
  5
1086
331
1335
  5
1335
331
F88
  5
F88
331
F2B
  5
F2B
331
F4A
  5
F4A
331
EF5
  5
EF5
331
F14
  5
F14
331
EA7
  5
EA7
331
E52
  5
E52
331
E71
  5
E71
331
E1C
  5
E1C
331
E33
  5
E33
331
EC6
  5
EC6
331
F69
  5
F69
331
DBF
  5
DBF
331
DDE
  5
DDE
331
DFD
  5
DFD
331
1087
  5
1087
331
F4B
  5
F4B
331
F6A
  5
F6A
331
F15
  5
F15
331
F2C
  5
F2C
331
EC7
  5
EC7
331
EF6
  5
EF6
331
F89
  5
F89
331
E72
  5
E72
331
E91
  5
E91
331
E34
  5
E34
331
E53
  5
E53
331
DDF
  5
DDF
331
DFE
  5
DFE
331
DC0
  5
DC0
331
E1D
  5
E1D
331
EA8
  5
EA8
331
FA0
  5
FA0
331
F8A
  5
F8A
331
F2D
  5
F2D
331
F4C
  5
F4C
331
EF7
  5
EF7
331
F16
  5
F16
331
E92
  5
E92
331
EA9
  5
EA9
331
E54
  5
E54
331
E73
  5
E73
331
DFF
  5
DFF
331
E1E
  5
E1E
331
DC1
  5
DC1
331
DE0
  5
DE0
331
E35
  5
E35
331
EC8
  5
EC8
331
F6B
  5
F6B
331
FA1
  5
FA1
331
13DF
  5
13DF
331
FC0
  5
FC0
331
F4D
  5
F4D
331
F6C
  5
F6C
331
F17
  5
F17
331
EAA
  5
EAA
331
EC9
  5
EC9
331
E74
  5
E74
331
E93
  5
E93
331
F2E
  5
F2E
331
E36
  5
E36
331
E55
  5
E55
331
F8B
  5
F8B
331
DE1
  5
DE1
331
E00
  5
E00
331
DC2
  5
DC2
331
E1F
  5
E1F
331
FC1
  5
FC1
331
12B2
  5
12B2
331
FA2
  5
FA2
331
F6D
  5
F6D
331
F8C
  5
F8C
331
F2F
  5
F2F
331
F4E
  5
F4E
331
EF9
  5
EF9
331
E94
  5
E94
331
EAB
  5
EAB
331
E56
  5
E56
331
E75
  5
E75
331
F18
  5
F18
331
E01
  5
E01
331
E20
  5
E20
331
DC3
  5
DC3
331
DE2
  5
DE2
331
E37
  5
E37
331
1020
  5
1020
331
1342
  5
1342
331
FA3
  5
FA3
331
FC2
  5
FC2
331
F4F
  5
F4F
331
F6E
  5
F6E
331
F19
  5
F19
331
F30
  5
F30
331
EAC
  5
EAC
331
E76
  5
E76
331
E95
  5
E95
331
E21
  5
E21
331
E38
  5
E38
331
DE3
  5
DE3
331
E02
  5
E02
331
DC4
  5
DC4
331
E57
  5
E57
331
EFA
  5
EFA
331
F8D
  5
F8D
331
1021
  5
1021
331
FC3
  5
FC3
331
1038
  5
1038
331
FA4
  5
FA4
331
F6F
  5
F6F
331
F8E
  5
F8E
331
F31
  5
F31
331
F50
  5
F50
331
EFB
  5
EFB
331
E96
  5
E96
331
EAD
  5
EAD
331
E58
  5
E58
331
E77
  5
E77
331
F1A
  5
F1A
331
E03
  5
E03
331
E22
  5
E22
331
DC5
  5
DC5
331
DE4
  5
DE4
331
E39
  5
E39
331
1039
  5
1039
331
1058
  5
1058
331
1022
  5
1022
331
FA5
  5
FA5
331
FC4
  5
FC4
331
F8F
  5
F8F
331
F51
  5
F51
331
F70
  5
F70
331
F1B
  5
F1B
331
F32
  5
F32
331
EAE
  5
EAE
331
E78
  5
E78
331
E97
  5
E97
331
E23
  5
E23
331
E3A
  5
E3A
331
DE5
  5
DE5
331
E04
  5
E04
331
DC6
  5
DC6
331
E59
  5
E59
331
EFC
  5
EFC
331
1023
  5
1023
331
FC5
  5
FC5
331
103A
  5
103A
331
FA6
  5
FA6
331
1059
  5
1059
331
F71
  5
F71
331
F90
  5
F90
331
F33
  5
F33
331
F52
  5
F52
331
EFD
  5
EFD
331
E98
  5
E98
331
EAF
  5
EAF
331
E3B
  5
E3B
331
E5A
  5
E5A
331
E05
  5
E05
331
E24
  5
E24
331
DC7
  5
DC7
331
DE6
  5
DE6
331
E79
  5
E79
331
F1C
  5
F1C
331
103B
  5
103B
331
1108
  5
1108
331
FFD
  5
FFD
331
1024
  5
1024
331
FA7
  5
FA7
331
FC6
  5
FC6
331
F91
  5
F91
331
F53
  5
F53
331
F72
  5
F72
331
EFE
  5
EFE
331
EB0
  5
EB0
331
F1D
  5
F1D
331
E7A
  5
E7A
331
E99
  5
E99
331
F34
  5
F34
331
E25
  5
E25
331
E3C
  5
E3C
331
DE7
  5
DE7
331
E06
  5
E06
331
DC8
  5
DC8
331
E5B
  5
E5B
331
1120
  5
1120
331
1025
  5
1025
331
FC7
  5
FC7
331
103C
  5
103C
331
1109
  5
1109
331
FA8
  5
FA8
331
F73
  5
F73
331
F92
  5
F92
331
F35
  5
F35
331
F54
  5
F54
331
EFF
  5
EFF
331
E9A
  5
E9A
331
EB1
  5
EB1
331
E3D
  5
E3D
331
E5C
  5
E5C
331
E07
  5
E07
331
E26
  5
E26
331
DC9
  5
DC9
331
DE8
  5
DE8
331
E7B
  5
E7B
331
F1E
  5
F1E
331
103D
  5
103D
331
FFF
  5
FFF
331
110A
  5
110A
331
1121
  5
1121
331
FA9
  5
FA9
331
FC8
  5
FC8
331
F93
  5
F93
331
F55
  5
F55
331
F74
  5
F74
331
F00
  5
F00
331
F1F
  5
F1F
331
EB2
  5
EB2
331
ED1
  5
ED1
331
E5D
  5
E5D
331
E7C
  5
E7C
331
E27
  5
E27
331
E3E
  5
E3E
331
DE9
  5
DE9
331
E08
  5
E08
331
E9B
  5
E9B
331
F36
  5
F36
331
DCA
  5
DCA
331
1688
  5
1688
331
1122
  5
1122
331
1669
  5
1669
331
103E
  5
103E
331
FAA
  5
FAA
331
FC9
  5
FC9
331
1000
  5
1000
331
110B
  5
110B
331
F75
  5
F75
331
F94
  5
F94
331
F20
  5
F20
331
F37
  5
F37
331
ED2
  5
ED2
331
F01
  5
F01
331
E9C
  5
E9C
331
EB3
  5
EB3
331
F56
  5
F56
331
E3F
  5
E3F
331
E09
  5
E09
331
E5E
  5
E5E
331
DCB
  5
DCB
331
DEA
  5
DEA
331
E7D
  5
E7D
331
166A
  5
166A
331
1689
  5
1689
331
10ED
  5
10ED
331
103F
  5
103F
331
110C
  5
110C
331
1001
  5
1001
331
1028
  5
1028
331
1123
  5
1123
331
FAB
  5
FAB
331
FCA
  5
FCA
331
F95
  5
F95
331
F57
  5
F57
331
F76
  5
F76
331
F02
  5
F02
331
F21
  5
F21
331
EB4
  5
EB4
331
ED3
  5
ED3
331
E5F
  5
E5F
331
E7E
  5
E7E
331
E40
  5
E40
331
DCC
  5
DCC
331
DEB
  5
DEB
331
E0A
  5
E0A
331
E9D
  5
E9D
331
F38
  5
F38
331
168A
  5
168A
331
1124
  5
1124
331
166B
  5
166B
331
10EE
  5
10EE
331
1029
  5
1029
331
1040
  5
1040
331
FAC
  5
FAC
331
FCB
  5
FCB
331
1002
  5
1002
331
110D
  5
110D
331
F77
  5
F77
331
F96
  5
F96
331
F22
  5
F22
331
F39
  5
F39
331
ED4
  5
ED4
331
F03
  5
F03
331
E7F
  5
E7F
331
E9E
  5
E9E
331
E41
  5
E41
331
E0B
  5
E0B
331
E60
  5
E60
331
EB5
  5
EB5
331
F58
  5
F58
331
DCD
  5
DCD
331
DEC
  5
DEC
331
166C
  5
166C
331
168B
  5
168B
331
10EF
  5
10EF
331
110E
  5
110E
331
1041
  5
1041
331
1078
  5
1078
331
FCC
  5
FCC
331
1003
  5
1003
331
FAD
  5
FAD
331
102A
  5
102A
331
1125
  5
1125
331
F3A
  5
F3A
331
F59
  5
F59
331
F04
  5
F04
331
EB6
  5
EB6
331
F23
  5
F23
331
F78
  5
F78
331
E61
  5
E61
331
E80
  5
E80
331
E42
  5
E42
331
DCE
  5
DCE
331
DED
  5
DED
331
E0C
  5
E0C
331
E9F
  5
E9F
331
168C
  5
168C
331
110F
  5
110F
331
1126
  5
1126
331
1079
  5
1079
331
10F0
  5
10F0
331
102B
  5
102B
331
1042
  5
1042
331
166D
  5
166D
331
FAE
  5
FAE
331
FCD
  5
FCD
331
1004
  5
1004
331
F79
  5
F79
331
F24
  5
F24
331
F3B
  5
F3B
331
F05
  5
F05
331
E81
  5
E81
331
E43
  5
E43
331
DEE
  5
DEE
331
E0D
  5
E0D
331
DCF
  5
DCF
331
E62
  5
E62
331
EB7
  5
EB7
331
F5A
  5
F5A
331
166E
  5
166E
331
168D
  5
168D
331
10F1
  5
10F1
331
1043
  5
1043
331
1110
  5
1110
331
FCE
  5
FCE
331
1005
  5
1005
331
FAF
  5
FAF
331
102C
  5
102C
331
1127
  5
1127
331
BB0
  5
BB0
331
F99
  5
F99
331
F3C
  5
F3C
331
F5B
  5
F5B
331
F06
  5
F06
331
EB8
  5
EB8
331
E63
  5
E63
331
E82
  5
E82
331
F25
  5
F25
331
E44
  5
E44
331
F7A
  5
F7A
331
DEF
  5
DEF
331
E0E
  5
E0E
331
168E
  5
168E
331
1111
  5
1111
331
1128
  5
1128
331
10F2
  5
10F2
331
1006
  5
1006
331
102D
  5
102D
331
FB0
  5
FB0
331
FCF
  5
FCF
331
1044
  5
1044
331
166F
  5
166F
331
BB1
  5
BB1
331
BD0
  5
BD0
331
F5C
  5
F5C
331
F7B
  5
F7B
331
F26
  5
F26
331
F3D
  5
F3D
331
F07
  5
F07
331
F9A
  5
F9A
331
E83
  5
E83
331
E45
  5
E45
331
E0F
  5
E0F
331
E64
  5
E64
331
EB9
  5
EB9
331
1129
  5
1129
331
1670
  5
1670
331
10F3
  5
10F3
331
1112
  5
1112
331
168F
  5
168F
331
FD0
  5
FD0
331
1007
  5
1007
331
FB1
  5
FB1
331
102E
  5
102E
331
BD1
  5
BD1
331
BF0
  5
BF0
331
BB2
  5
BB2
331
F9B
  5
F9B
331
F3E
  5
F3E
331
F5D
  5
F5D
331
F08
  5
F08
331
EBA
  5
EBA
331
E65
  5
E65
331
E84
  5
E84
331
F27
  5
F27
331
E46
  5
E46
331
F7C
  5
F7C
331
1690
  5
1690
331
1113
  5
1113
331
112A
  5
112A
331
10F4
  5
10F4
331
1010
  5
1010
331
102F
  5
102F
331
FB2
  5
FB2
331
FD1
  5
FD1
331
1046
  5
1046
331
1671
  5
1671
331
BF1
  5
BF1
331
C10
  5
C10
331
BB3
  5
BB3
331
BD2
  5
BD2
331
F5E
  5
F5E
331
F7D
  5
F7D
331
F3F
  5
F3F
331
EBB
  5
EBB
331
E85
  5
E85
331
E47
  5
E47
331
E66
  5
E66
331
F09
  5
F09
331
F9C
  5
F9C
331
112B
  5
112B
331
1672
  5
1672
331
10F5
  5
10F5
331
1030
  5
1030
331
1047
  5
1047
331
FD2
  5
FD2
331
1011
  5
1011
331
1114
  5
1114
331
FB3
  5
FB3
331
1691
  5
1691
331
C11
  5
C11
331
C28
  5
C28
331
BB4
  5
BB4
331
BD3
  5
BD3
331
BF2
  5
BF2
331
F7E
  5
F7E
331
F9D
  5
F9D
331
F40
  5
F40
331
F0A
  5
F0A
331
F5F
  5
F5F
331
EBC
  5
EBC
331
E67
  5
E67
331
E86
  5
E86
331
EEB
  5
EEB
331
1673
  5
1673
331
1692
  5
1692
331
1115
  5
1115
331
112C
  5
112C
331
10F6
  5
10F6
331
1031
  5
1031
331
FB4
  5
FB4
331
FD3
  5
FD3
331
1048
  5
1048
331
C29
  5
C29
331
C48
  5
C48
331
BF3
  5
BF3
331
C12
  5
C12
331
BB5
  5
BB5
331
BD4
  5
BD4
331
F60
  5
F60
331
F7F
  5
F7F
331
F41
  5
F41
331
EBD
  5
EBD
331
E87
  5
E87
331
EEC
  5
EEC
331
F0B
  5
F0B
331
F9E
  5
F9E
331
112D
  5
112D
331
1674
  5
1674
331
10F7
  5
10F7
331
1032
  5
1032
331
FD4
  5
FD4
331
1049
  5
1049
331
1116
  5
1116
331
FB5
  5
FB5
331
1693
  5
1693
331
C49
  5
C49
331
C68
  5
C68
331
C13
  5
C13
331
C2A
  5
C2A
331
BB6
  5
BB6
331
BD5
  5
BD5
331
BF4
  5
BF4
331
F80
  5
F80
331
F9F
  5
F9F
331
F42
  5
F42
331
EED
  5
EED
331
F0C
  5
F0C
331
EBE
  5
EBE
331
F61
  5
F61
331
1675
  5
1675
331
1117
  5
1117
331
112E
  5
112E
331
104A
  5
104A
331
1014
  5
1014
331
1033
  5
1033
331
FB6
  5
FB6
331
FD5
  5
FD5
331
10F8
  5
10F8
331
C69
  5
C69
331
C88
  5
C88
331
C2B
  5
C2B
331
C4A
  5
C4A
331
BD6
  5
BD6
331
BF5
  5
BF5
331
BB7
  5
BB7
331
C14
  5
C14
331
F62
  5
F62
331
F81
  5
F81
331
F43
  5
F43
331
EBF
  5
EBF
331
EEE
  5
EEE
331
F0D
  5
F0D
331
112F
  5
112F
331
1676
  5
1676
331
10F9
  5
10F9
331
1118
  5
1118
331
1034
  5
1034
331
104B
  5
104B
331
FD6
  5
FD6
331
1015
  5
1015
331
FB7
  5
FB7
331
108A
  5
108A
331
C89
  5
C89
331
CA0
  5
CA0
331
C4B
  5
C4B
331
C6A
  5
C6A
331
C15
  5
C15
331
C2C
  5
C2C
331
BB8
  5
BB8
331
BD7
  5
BD7
331
BF6
  5
BF6
331
F82
  5
F82
331
F44
  5
F44
331
EEF
  5
EEF
331
F0E
  5
F0E
331
F63
  5
F63
331
1677
  5
1677
331
1119
  5
1119
331
1130
  5
1130
331
104C
  5
104C
331
108B
  5
108B
331
1016
  5
1016
331
FB8
  5
FB8
331
1035
  5
1035
331
10FA
  5
10FA
331
AE0
  5
AE0
331
CC8
  5
CC8
331
C6B
  5
C6B
331
C8A
  5
C8A
331
C2D
  5
C2D
331
C4C
  5
C4C
331
BD8
  5
BD8
331
BF7
  5
BF7
331
BB9
  5
BB9
331
C16
  5
C16
331
CA1
  5
CA1
331
F64
  5
F64
331
F83
  5
F83
331
F0F
  5
F0F
331
F45
  5
F45
331
1131
  5
1131
331
1678
  5
1678
331
108C
  5
108C
331
10FB
  5
10FB
331
1036
  5
1036
331
104D
  5
104D
331
1017
  5
1017
331
111A
  5
111A
331
FB9
  5
FB9
331
B00
  5
B00
331
AE1
  5
AE1
331
AC2
  5
AC2
331
C8B
  5
C8B
331
CA2
  5
CA2
331
C4D
  5
C4D
331
C6C
  5
C6C
331
BF8
  5
BF8
331
C17
  5
C17
331
BBA
  5
BBA
331
BD9
  5
BD9
331
C2E
  5
C2E
331
CC9
  5
CC9
331
F84
  5
F84
331
F46
  5
F46
331
F65
  5
F65
331
1679
  5
1679
331
111B
  5
111B
331
1132
  5
1132
331
104E
  5
104E
331
108D
  5
108D
331
1018
  5
1018
331
1037
  5
1037
331
FBA
  5
FBA
331
FE1
  5
FE1
331
10FC
  5
10FC
331
B20
  5
B20
331
D18
  5
D18
331
AE2
  5
AE2
331
CCA
  5
CCA
331
B01
  5
B01
331
CA3
  5
CA3
331
C6D
  5
C6D
331
C8C
  5
C8C
331
C2F
  5
C2F
331
C4E
  5
C4E
331
AC3
  5
AC3
331
BDA
  5
BDA
331
BF9
  5
BF9
331
BBB
  5
BBB
331
C18
  5
C18
331
F66
  5
F66
331
F85
  5
F85
331
F47
  5
F47
331
1133
  5
1133
331
167A
  5
167A
331
108E
  5
108E
331
10FD
  5
10FD
331
104F
  5
104F
331
FBB
  5
FBB
331
FE2
  5
FE2
331
1019
  5
1019
331
111C
  5
111C
331
B38
  5
B38
331
B02
  5
B02
331
B21
  5
B21
331
AE3
  5
AE3
331
C8D
  5
C8D
331
CA4
  5
CA4
331
C4F
  5
C4F
331
C6E
  5
C6E
331
BFA
  5
BFA
331
C19
  5
C19
331
BBC
  5
BBC
331
BDB
  5
BDB
331
C30
  5
C30
331
CCB
  5
CCB
331
F86
  5
F86
331
F67
  5
F67
331
167B
  5
167B
331
10FE
  5
10FE
331
111D
  5
111D
331
1050
  5
1050
331
101A
  5
101A
331
108F
  5
108F
331
1134
  5
1134
331
FBC
  5
FBC
331
FE3
  5
FE3
331
D58
  5
D58
331
B22
  5
B22
331
B39
  5
B39
331
AE4
  5
AE4
331
CA5
  5
CA5
331
CCC
  5
CCC
331
C6F
  5
C6F
331
C8E
  5
C8E
331
B03
  5
B03
331
C1A
  5
C1A
331
C31
  5
C31
331
BDC
  5
BDC
331
BFB
  5
BFB
331
BBD
  5
BBD
331
C50
  5
C50
331
B58
  5
B58
331
F87
  5
F87
331
1743
  5
1743
331
1135
  5
1135
331
167C
  5
167C
331
10FF
  5
10FF
331
1051
  5
1051
331
FBD
  5
FBD
331
FE4
  5
FE4
331
101B
  5
101B
331
111E
  5
111E
331
D78
  5
D78
331
B59
  5
B59
331
B3A
  5
B3A
331
B23
  5
B23
331
D59
  5
D59
331
B04
  5
B04
331
CF4
  5
CF4
331
CCD
  5
CCD
331
C8F
  5
C8F
331
CA6
  5
CA6
331
C51
  5
C51
331
C70
  5
C70
331
AE5
  5
AE5
331
D1B
  5
D1B
331
B78
  5
B78
331
BFC
  5
BFC
331
C1B
  5
C1B
331
BBE
  5
BBE
331
BDD
  5
BDD
331
C32
  5
C32
331
167D
  5
167D
331
1744
  5
1744
331
1100
  5
1100
331
1052
  5
1052
331
FE5
  5
FE5
331
101C
  5
101C
331
111F
  5
111F
331
FBE
  5
FBE
331
1136
  5
1136
331
D98
  5
D98
331
B79
  5
B79
331
B5A
  5
B5A
331
D5A
  5
D5A
331
D79
  5
D79
331
B24
  5
B24
331
D1C
  5
D1C
331
B3B
  5
B3B
331
CA7
  5
CA7
331
AE6
  5
AE6
331
C71
  5
C71
331
C90
  5
C90
331
B05
  5
B05
331
B98
  5
B98
331
C1C
  5
C1C
331
C33
  5
C33
331
BDE
  5
BDE
331
BFD
  5
BFD
331
BBF
  5
BBF
331
C52
  5
C52
331
1745
  5
1745
331
1137
  5
1137
331
109A
  5
109A
331
1101
  5
1101
331
1053
  5
1053
331
167E
  5
167E
331
FBF
  5
FBF
331
FE6
  5
FE6
331
101D
  5
101D
331
B99
  5
B99
331
D99
  5
D99
331
D7A
  5
D7A
331
B5B
  5
B5B
331
B3C
  5
B3C
331
D5B
  5
D5B
331
B25
  5
B25
331
B06
  5
B06
331
C91
  5
C91
331
CA8
  5
CA8
331
C34
  5
C34
331
C53
  5
C53
331
BFE
  5
BFE
331
C1D
  5
C1D
331
BC0
  5
BC0
331
BDF
  5
BDF
331
C72
  5
C72
331
AE7
  5
AE7
331
D1D
  5
D1D
331
B7A
  5
B7A
331
167F
  5
167F
331
1746
  5
1746
331
1102
  5
1102
331
1054
  5
1054
331
101E
  5
101E
331
109B
  5
109B
331
1138
  5
1138
331
D9A
  5
D9A
331
B7B
  5
B7B
331
B5C
  5
B5C
331
D5C
  5
D5C
331
D7B
  5
D7B
331
B26
  5
B26
331
D1E
  5
D1E
331
B3D
  5
B3D
331
CA9
  5
CA9
331
AE8
  5
AE8
331
C73
  5
C73
331
C92
  5
C92
331
B07
  5
B07
331
B9A
  5
B9A
331
C1E
  5
C1E
331
C35
  5
C35
331
BE0
  5
BE0
331
BFF
  5
BFF
331
BC1
  5
BC1
331
C54
  5
C54
331
1139
  5
1139
331
109C
  5
109C
331
1103
  5
1103
331
101F
  5
101F
331
1055
  5
1055
331
1680
  5
1680
331
B9B
  5
B9B
331
B7C
  5
B7C
331
D7C
  5
D7C
331
B5D
  5
B5D
331
D9B
  5
D9B
331
B3E
  5
B3E
331
D5D
  5
D5D
331
B27
  5
B27
331
B08
  5
B08
331
ACA
  5
ACA
331
C93
  5
C93
331
CAA
  5
CAA
331
C36
  5
C36
331
C55
  5
C55
331
C00
  5
C00
331
C1F
  5
C1F
331
BC2
  5
BC2
331
BE1
  5
BE1
331
C74
  5
C74
331
AE9
  5
AE9
331
D1F
  5
D1F
331
113A
  5
113A
331
1104
  5
1104
331
1056
  5
1056
331
1681
  5
1681
331
D9C
  5
D9C
331
B7D
  5
B7D
331
B5E
  5
B5E
331
D5E
  5
D5E
331
D7D
  5
D7D
331
B3F
  5
B3F
331
B28
  5
B28
331
D20
  5
D20
331
ACB
  5
ACB
331
CAB
  5
CAB
331
AEA
  5
AEA
331
C56
  5
C56
331
C75
  5
C75
331
C20
  5
C20
331
C37
  5
C37
331
BE2
  5
BE2
331
C01
  5
C01
331
C94
  5
C94
331
B09
  5
B09
331
D3F
  5
D3F
331
BC3
  5
BC3
331
B9C
  5
B9C
331
113B
  5
113B
331
1105
  5
1105
331
1057
  5
1057
331
1682
  5
1682
331
B9D
  5
B9D
331
B7E
  5
B7E
331
D7E
  5
D7E
331
B5F
  5
B5F
331
D9D
  5
D9D
331
B40
  5
B40
331
D40
  5
D40
331
D21
  5
D21
331
AEB
  5
AEB
331
B0A
  5
B0A
331
ACC
  5
ACC
331
C95
  5
C95
331
CAC
  5
CAC
331
B29
  5
B29
331
D5F
  5
D5F
331
C38
  5
C38
331
C57
  5
C57
331
C02
  5
C02
331
C21
  5
C21
331
BC4
  5
BC4
331
BE3
  5
BE3
331
C76
  5
C76
331
113C
  5
113C
331
1106
  5
1106
331
1683
  5
1683
331
B9E
  5
B9E
331
D9E
  5
D9E
331
B7F
  5
B7F
331
B60
  5
B60
331
D60
  5
D60
331
B41
  5
B41
331
D7F
  5
D7F
331
B2A
  5
B2A
331
D22
  5
D22
331
D41
  5
D41
331
ACD
  5
ACD
331
CAD
  5
CAD
331
AEC
  5
AEC
331
C58
  5
C58
331
C77
  5
C77
331
C22
  5
C22
331
C39
  5
C39
331
BC5
  5
BC5
331
BE4
  5
BE4
331
C03
  5
C03
331
C96
  5
C96
331
B0B
  5
B0B
331
1684
  5
1684
331
1107
  5
1107
331
B9F
  5
B9F
331
B80
  5
B80
331
D80
  5
D80
331
B61
  5
B61
331
D9F
  5
D9F
331
B42
  5
B42
331
D42
  5
D42
331
D23
  5
D23
331
B0C
  5
B0C
331
AED
  5
AED
331
D04
  5
D04
331
ACE
  5
ACE
331
C78
  5
C78
331
C97
  5
C97
331
C3A
  5
C3A
331
C59
  5
C59
331
C04
  5
C04
331
C23
  5
C23
331
CAE
  5
CAE
331
B2B
  5
B2B
331
D61
  5
D61
331
BC6
  5
BC6
331
BE5
  5
BE5
331
1685
  5
1685
331
BA0
  5
BA0
331
DA0
  5
DA0
331
B81
  5
B81
331
B62
  5
B62
331
D62
  5
D62
331
D43
  5
D43
331
B2C
  5
B2C
331
B0D
  5
B0D
331
D05
  5
D05
331
ACF
  5
ACF
331
CAF
  5
CAF
331
AEE
  5
AEE
331
D24
  5
D24
331
B43
  5
B43
331
D81
  5
D81
331
C5A
  5
C5A
331
C79
  5
C79
331
C24
  5
C24
331
C3B
  5
C3B
331
BC7
  5
BC7
331
BE6
  5
BE6
331
C05
  5
C05
331
C98
  5
C98
331
1686
  5
1686
331
BA1
  5
BA1
331
B82
  5
B82
331
D82
  5
D82
331
B63
  5
B63
331
DA1
  5
DA1
331
B44
  5
B44
331
D44
  5
D44
331
D25
  5
D25
331
B0E
  5
B0E
331
AEF
  5
AEF
331
CDF
  5
CDF
331
D06
  5
D06
331
AD0
  5
AD0
331
C7A
  5
C7A
331
C99
  5
C99
331
C3C
  5
C3C
331
C5B
  5
C5B
331
BE7
  5
BE7
331
C06
  5
C06
331
BC8
  5
BC8
331
C25
  5
C25
331
CB0
  5
CB0
331
B2D
  5
B2D
331
D63
  5
D63
331
1687
  5
1687
331
BA2
  5
BA2
331
DA2
  5
DA2
331
B83
  5
B83
331
B64
  5
B64
331
D64
  5
D64
331
D45
  5
D45
331
B2E
  5
B2E
331
B0F
  5
B0F
331
D07
  5
D07
331
AF0
  5
AF0
331
D26
  5
D26
331
AD1
  5
AD1
331
C9A
  5
C9A
331
CB1
  5
CB1
331
C5C
  5
C5C
331
C7B
  5
C7B
331
C26
  5
C26
331
C3D
  5
C3D
331
CE0
  5
CE0
331
B45
  5
B45
331
D83
  5
D83
331
BC9
  5
BC9
331
BE8
  5
BE8
331
C07
  5
C07
331
BA3
  5
BA3
331
B84
  5
B84
331
D84
  5
D84
331
D65
  5
D65
331
B46
  5
B46
331
B2F
  5
B2F
331
D27
  5
D27
331
B10
  5
B10
331
D46
  5
D46
331
AF1
  5
AF1
331
CE1
  5
CE1
331
D08
  5
D08
331
AD2
  5
AD2
331
B65
  5
B65
331
DA3
  5
DA3
331
C7C
  5
C7C
331
C9B
  5
C9B
331
C3E
  5
C3E
331
C5D
  5
C5D
331
BE9
  5
BE9
331
C08
  5
C08
331
BCA
  5
BCA
331
C27
  5
C27
331
CB2
  5
CB2
331
BA4
  5
BA4
331
DA4
  5
DA4
331
B85
  5
B85
331
B66
  5
B66
331
D66
  5
D66
331
D47
  5
D47
331
B30
  5
B30
331
B11
  5
B11
331
D09
  5
D09
331
AF2
  5
AF2
331
D28
  5
D28
331
AD3
  5
AD3
331
C9C
  5
C9C
331
CB3
  5
CB3
331
C5E
  5
C5E
331
C7D
  5
C7D
331
C09
  5
C09
331
BCB
  5
BCB
331
BEA
  5
BEA
331
C3F
  5
C3F
331
CE2
  5
CE2
331
B47
  5
B47
331
D85
  5
D85
331
1381
  5
1381
331
BA5
  5
BA5
331
B86
  5
B86
331
D86
  5
D86
331
D67
  5
D67
331
B48
  5
B48
331
B31
  5
B31
331
D29
  5
D29
331
B12
  5
B12
331
D48
  5
D48
331
AF3
  5
AF3
331
CE3
  5
CE3
331
CB4
  5
CB4
331
C7E
  5
C7E
331
C9D
  5
C9D
331
C40
  5
C40
331
BEB
  5
BEB
331
C0A
  5
C0A
331
BCC
  5
BCC
331
C5F
  5
C5F
331
AD4
  5
AD4
331
D0A
  5
D0A
331
B67
  5
B67
331
DA5
  5
DA5
331
131B
  5
131B
331
BA6
  5
BA6
331
DA6
  5
DA6
331
D87
  5
D87
331
B68
  5
B68
331
B49
  5
B49
331
D49
  5
D49
331
B32
  5
B32
331
D68
  5
D68
331
B13
  5
B13
331
D0B
  5
D0B
331
AD5
  5
AD5
331
C9E
  5
C9E
331
CB5
  5
CB5
331
C60
  5
C60
331
C7F
  5
C7F
331
AF4
  5
AF4
331
D2A
  5
D2A
331
B87
  5
B87
331
C0B
  5
C0B
331
BCD
  5
BCD
331
BEC
  5
BEC
331
C41
  5
C41
331
BA7
  5
BA7
331
B88
  5
B88
331
D88
  5
D88
331
D69
  5
D69
331
B4A
  5
B4A
331
B33
  5
B33
331
B14
  5
B14
331
D4A
  5
D4A
331
AF5
  5
AF5
331
CB6
  5
CB6
331
C80
  5
C80
331
C9F
  5
C9F
331
C42
  5
C42
331
BED
  5
BED
331
C0C
  5
C0C
331
BCE
  5
BCE
331
C61
  5
C61
331
AD6
  5
AD6
331
D0C
  5
D0C
331
B69
  5
B69
331
DA7
  5
DA7
331
BA8
  5
BA8
331
DA8
  5
DA8
331
D89
  5
D89
331
B6A
  5
B6A
331
B4B
  5
B4B
331
D4B
  5
D4B
331
B15
  5
B15
331
D0D
  5
D0D
331
B34
  5
B34
331
D6A
  5
D6A
331
CE6
  5
CE6
331
AD7
  5
AD7
331
CB7
  5
CB7
331
C62
  5
C62
331
C81
  5
C81
331
AF6
  5
AF6
331
B89
  5
B89
331
C0D
  5
C0D
331
BCF
  5
BCF
331
BEE
  5
BEE
331
C43
  5
C43
331
DB0
  5
DB0
331
DA9
  5
DA9
331
B8A
  5
B8A
331
B6B
  5
B6B
331
D6B
  5
D6B
331
D8A
  5
D8A
331
B4C
  5
B4C
331
B35
  5
B35
331
B16
  5
B16
331
D4C
  5
D4C
331
BA9
  5
BA9
331
AF7
  5
AF7
331
CE7
  5
CE7
331
CB8
  5
CB8
331
C82
  5
C82
331
C44
  5
C44
331
BEF
  5
BEF
331
C0E
  5
C0E
331
C63
  5
C63
331
AD8
  5
AD8
331
D0E
  5
D0E
331
CC0
  5
CC0
331
DD0
  5
DD0
331
BAA
  5
BAA
331
DAA
  5
DAA
331
DB1
  5
DB1
331
D8B
  5
D8B
331
B6C
  5
B6C
331
B4D
  5
B4D
331
D4D
  5
D4D
331
B17
  5
B17
331
D0F
  5
D0F
331
B36
  5
B36
331
D6C
  5
D6C
331
AD9
  5
AD9
331
CB9
  5
CB9
331
C45
  5
C45
331
C0F
  5
C0F
331
C64
  5
C64
331
C83
  5
C83
331
AF8
  5
AF8
331
B8B
  5
B8B
331
1328
  5
1328
331
DF0
  5
DF0
331
DB2
  5
DB2
331
DD1
  5
DD1
331
DAB
  5
DAB
331
B8C
  5
B8C
331
B6D
  5
B6D
331
D6D
  5
D6D
331
D8C
  5
D8C
331
B4E
  5
B4E
331
B37
  5
B37
331
D10
  5
D10
331
AF9
  5
AF9
331
ADA
  5
ADA
331
CBA
  5
CBA
331
C84
  5
C84
331
CE9
  5
CE9
331
177D
  5
177D
331
B18
  5
B18
331
D4E
  5
D4E
331
BAB
  5
BAB
331
C46
  5
C46
331
C65
  5
C65
331
CC2
  5
CC2
331
E10
  5
E10
331
DD2
  5
DD2
331
DF1
  5
DF1
331
BAC
  5
BAC
331
B8D
  5
B8D
331
D8D
  5
D8D
331
B6E
  5
B6E
331
DAC
  5
DAC
331
B4F
  5
B4F
331
B19
  5
B19
331
D4F
  5
D4F
331
D11
  5
D11
331
D6E
  5
D6E
331
DB3
  5
DB3
331
ADB
  5
ADB
331
CBB
  5
CBB
331
C47
  5
C47
331
C66
  5
C66
331
C85
  5
C85
331
AFA
  5
AFA
331
CC3
  5
CC3
331
DF2
  5
DF2
331
E11
  5
E11
331
DB4
  5
DB4
331
DD3
  5
DD3
331
DAD
  5
DAD
331
B8E
  5
B8E
331
B6F
  5
B6F
331
D6F
  5
D6F
331
D8E
  5
D8E
331
B50
  5
B50
331
ADC
  5
ADC
331
CBC
  5
CBC
331
C67
  5
C67
331
C86
  5
C86
331
AFB
  5
AFB
331
B1A
  5
B1A
331
D50
  5
D50
331
BAD
  5
BAD
331
E28
  5
E28
331
CC4
  5
CC4
331
E12
  5
E12
331
E29
  5
E29
331
DD4
  5
DD4
331
DF3
  5
DF3
331
BAE
  5
BAE
331
B8F
  5
B8F
331
D8F
  5
D8F
331
B70
  5
B70
331
DAE
  5
DAE
331
B51
  5
B51
331
AFC
  5
AFC
331
B1B
  5
B1B
331
D51
  5
D51
331
ADD
  5
ADD
331
CBD
  5
CBD
331
D70
  5
D70
331
DB5
  5
DB5
331
E48
  5
E48
331
C87
  5
C87
331
CC5
  5
CC5
331
E2A
  5
E2A
331
E49
  5
E49
331
DF4
  5
DF4
331
E13
  5
E13
331
BAF
  5
BAF
331
DAF
  5
DAF
331
DB6
  5
DB6
331
B90
  5
B90
331
B71
  5
B71
331
D71
  5
D71
331
B52
  5
B52
331
D90
  5
D90
331
DD5
  5
DD5
331
E68
  5
E68
331
ADE
  5
ADE
331
AFD
  5
AFD
331
B1C
  5
B1C
331
D52
  5
D52
331
CC6
  5
CC6
331
E69
  5
E69
331
E88
  5
E88
331
E14
  5
E14
331
E2B
  5
E2B
331
DD6
  5
DD6
331
DF5
  5
DF5
331
B91
  5
B91
331
D91
  5
D91
331
B72
  5
B72
331
B53
  5
B53
331
AFE
  5
AFE
331
B1D
  5
B1D
331
D53
  5
D53
331
ADF
  5
ADF
331
D72
  5
D72
331
DB7
  5
DB7
331
E4A
  5
E4A
331
CC7
  5
CC7
331
E89
  5
E89
331
EA0
  5
EA0
331
E2C
  5
E2C
331
E4B
  5
E4B
331
DF6
  5
DF6
331
E15
  5
E15
331
DB8
  5
DB8
331
B92
  5
B92
331
B73
  5
B73
331
D73
  5
D73
331
B1E
  5
B1E
331
D54
  5
D54
331
D16
  5
D16
331
AFF
  5
AFF
331
B54
  5
B54
331
D92
  5
D92
331
DD7
  5
DD7
331
E6A
  5
E6A
331
138E
  5
138E
331
EA1
  5
EA1
331
EC0
  5
EC0
331
E4C
  5
E4C
331
E6B
  5
E6B
331
E16
  5
E16
331
E2D
  5
E2D
331
DD8
  5
DD8
331
DF7
  5
DF7
331
E8A
  5
E8A
331
B93
  5
B93
331
D93
  5
D93
331
B74
  5
B74
331
B55
  5
B55
331
B1F
  5
B1F
331
D55
  5
D55
331
D17
  5
D17
331
D74
  5
D74
331
DB9
  5
DB9
331
EC1
  5
EC1
331
EF0
  5
EF0
331
E8B
  5
E8B
331
EA2
  5
EA2
331
E2E
  5
E2E
331
E4D
  5
E4D
331
DF8
  5
DF8
331
E17
  5
E17
331
DBA
  5
DBA
331
B94
  5
B94
331
B75
  5
B75
331
D75
  5
D75
331
D56
  5
D56
331
B56
  5
B56
331
D94
  5
D94
331
DD9
  5
DD9
331
E6C
  5
E6C
331
EF1
  5
EF1
331
F10
  5
F10
331
EA3
  5
EA3
331
E4E
  5
E4E
331
E6D
  5
E6D
331
E18
  5
E18
331
E2F
  5
E2F
331
EC2
  5
EC2
331
DBB
  5
DBB
331
B95
  5
B95
331
D95
  5
D95
331
DDA
  5
DDA
331
D76
  5
D76
331
B57
  5
B57
331
D57
  5
D57
331
B76
  5
B76
331
DF9
  5
DF9
331
F11
  5
F11
331
F28
  5
F28
331
EC3
  5
EC3
331
EF2
  5
EF2
331
E6E
  5
E6E
331
E30
  5
E30
331
E4F
  5
E4F
331
DFA
  5
DFA
331
E19
  5
E19
331
EA4
  5
EA4
331
DBC
  5
DBC
331
B96
  5
B96
331
B77
  5
B77
331
D77
  5
D77
331
D96
  5
D96
331
DDB
  5
DDB
331
F29
  5
F29
331
F48
  5
F48
331
EF3
  5
EF3
331
F12
  5
F12
331
EA5
  5
EA5
331
E50
  5
E50
331
E6F
  5
E6F
331
E1A
  5
E1A
331
E31
  5
E31
331
EC4
  5
EC4
331
DBD
  5
DBD
331
B97
  5
B97
331
D97
  5
D97
331
DDC
  5
DDC
331
DFB
  5
DFB
331
1085
  5
1085
  0
XRECORD
  5
1EDA
102
{ACAD_REACTORS
330
197D
102
}
330
197D
100
AcDbXrecord
340
18F5
  0
GROUP
  5
16FA
102
{ACAD_REACTORS
330
D
102
}
330
D
100
AcDbGroup
300

 70
     1
 71
     1
  0
GROUP
  5
16FC
102
{ACAD_REACTORS
330
D
102
}
330
D
100
AcDbGroup
300

 70
     1
 71
     1
  0
MLINESTYLE
  5
13
102
{ACAD_REACTORS
330
E
102
}
330
E
100
AcDbMlineStyle
  2
STANDARD
 70
     0
  3

 62
     0
 51
90.0
 52
90.0
 71
     2
 49
0.5
 62
   256
  6
BYLAYER
 49
-0.5
 62
   256
  6
BYLAYER
  0
PLOTSETTINGS
  5
17A6
102
{ACAD_XDICTIONARY
360
1810
102
}
102
{ACAD_REACTORS
330
16E0
102
}
330
16E0
100
AcDbPlotSettings
  1
【A3用紙】RICOH IPSiO CX8200 RPCS
  2
RICOH IPSiO CX8200 RPCS
  4
A3
  6

 40
5.873749732971191
 41
5.873747825622557
 42
5.873748779296875
 43
5.873748779296875
 44
296.9259948730469
 45
419.9466552734373
 46
0.0
 47
0.0
 48
0.0
 49
0.0
140
0.0
141
0.0
142
1.0
143
1.0
 70
   688
 72
     1
 73
     1
 74
     5
  7
monochrome.ctb
 75
    16
147
1.0
148
0.0
149
0.0
  0
ACAD_ZOMBIE_OBJECT
  5
16DE
102
{ACAD_REACTORS
330
16DD
102
}
330
16DD
100
AcDbZombieObject
 90
      499
 91
      508
 93
     1841
310
4214DD185B99185C9928000000000000F83F0000000000003E0FC00000000000004901028000000C1008070000C3001FDFF8000000C1003FBFF000000182007F7FE00000030400FEFFC00000060801FDFF8000000C1003FBFF000000182000000000000000C2020B0000001820100E000186003FBFF000000182007F7FE000
310
00030400FEFFC00000060801FDFF8000000C1003FBFF000000182007F7FE0000003040000000000000012404160000003040201C00030C007F7FE00000030400FEFFC00000060801FDFF8000000C1003FBFF000000182007F7FE00000030400FEFFC000000608000
340
10
340
10
340
10
 94
        0
1001
ACAD
1000
AcadProxyRoundTripData
1071
      502
1071
   851991
1070
     0
  0
DICTIONARY
  5
1810
330
17A6
100
AcDbDictionary
  3
ACAD_XREC_ROUNDTRIP
350
1811
1001
ACAD
1000
TREAT_AS_HARD
1070
     1
  0
XRECORD
  5
1811
102
{ACAD_REACTORS
330
1810
102
}
330
1810
100
AcDbXrecord
102
SHADEPLOT
 70
     0
102
SHADEPLOTRESLEVEL
 70
     2
102
SHADEPLOTCUSTOMDPI
 70
   300
  0
ENDSEC
  0
EOF
