  0
SECTION
  2
HEADER
  9
$ACADVER
  1
AC1012
  9
$DWGCODEPAGE
  3
dos932
  9
$INSBASE
 10
0.0
 20
0.0
 30
0.0
  9
$EXTMIN
 10
0.0
 20
0.0
 30
-182.0703219028376
  9
$EXTMAX
 10
1260.0
 20
891.0
 30
5.171844872502646
  9
$LIMMIN
 10
0.0
 20
0.0
  9
$LIMMAX
 10
10000.0
 20
10000.0
  9
$ORTHOMODE
 70
     1
  9
$REGENMODE
 70
     1
  9
$FILLMODE
 70
     1
  9
$QTEXTMODE
 70
     0
  9
$MIRRTEXT
 70
     1
  9
$DRAGMODE
 70
     2
  9
$LTSCALE
 40
1.0
  9
$OSMODE
 70
   311
  9
$ATTMODE
 70
     1
  9
$TEXTSIZE
 40
2.5
  9
$TRACEWID
 40
1.0
  9
$TEXTSTYLE
  7
AD-STANDARD
  9
$CLAYER
  8
NOTE
  9
$CELTYPE
  6
BYLAYER
  9
$CECOLOR
 62
   256
  9
$CELTSCALE
 40
1.0
  9
$DELOBJ
 70
     1
  9
$DISPSILH
 70
     0
  9
$DIMSCALE
 40
5.0
  9
$DIMASZ
 40
2.5
  9
$DIMEXO
 40
1.0
  9
$DIMDLI
 40
0.38
  9
$DIMRND
 40
0.0
  9
$DIMDLE
 40
0.0
  9
$DIMEXE
 40
2.0
  9
$DIMTP
 40
0.0
  9
$DIMTM
 40
0.0
  9
$DIMTXT
 40
2.799999999999998
  9
$DIMCEN
 40
-2.0
  9
$DIMTSZ
 40
0.0
  9
$DIMTOL
 70
     0
  9
$DIMLIM
 70
     0
  9
$DIMTIH
 70
     0
  9
$DIMTOH
 70
     0
  9
$DIMSE1
 70
     0
  9
$DIMSE2
 70
     0
  9
$DIMTAD
 70
     1
  9
$DIMZIN
 70
     8
  9
$DIMBLK
  1

  9
$DIMASO
 70
     1
  9
$DIMSHO
 70
     1
  9
$DIMPOST
  1

  9
$DIMAPOST
  1

  9
$DIMALT
 70
     0
  9
$DIMALTD
 70
     2
  9
$DIMALTF
 40
25.4
  9
$DIMLFAC
 40
1.0
  9
$DIMTOFL
 70
     1
  9
$DIMTVP
 40
0.0
  9
$DIMTIX
 70
     0
  9
$DIMSOXD
 70
     0
  9
$DIMSAH
 70
     0
  9
$DIMBLK1
  1

  9
$DIMBLK2
  1

  9
$DIMSTYLE
  2
AD-STANDARD
  9
$DIMCLRD
 70
     9
  9
$DIMCLRE
 70
     9
  9
$DIMCLRT
 70
     2
  9
$DIMTFAC
 40
1.0
  9
$DIMGAP
 40
0.5
  9
$DIMJUST
 70
     0
  9
$DIMSD1
 70
     0
  9
$DIMSD2
 70
     0
  9
$DIMTOLJ
 70
     1
  9
$DIMTZIN
 70
     8
  9
$DIMALTZ
 70
     0
  9
$DIMALTTZ
 70
     0
  9
$DIMFIT
 70
     3
  9
$DIMUPT
 70
     0
  9
$DIMUNIT
 70
     2
  9
$DIMDEC
 70
     3
  9
$DIMTDEC
 70
     8
  9
$DIMALTU
 70
     2
  9
$DIMALTTD
 70
     2
  9
$DIMTXSTY
  7
AD-STANDARD
  9
$DIMAUNIT
 70
     0
  9
$LUNITS
 70
     2
  9
$LUPREC
 70
     4
  9
$SKETCHINC
 40
1.0
  9
$FILLETRAD
 40
0.0
  9
$AUNITS
 70
     0
  9
$AUPREC
 70
     0
  9
$MENU
  1
.
  9
$ELEVATION
 40
0.0
  9
$PELEVATION
 40
0.0
  9
$THICKNESS
 40
0.0
  9
$LIMCHECK
 70
     0
  9
$BLIPMODE
 70
     0
  9
$CHAMFERA
 40
0.0
  9
$CHAMFERB
 40
0.0
  9
$CHAMFERC
 40
673.4006734006732
  9
$CHAMFERD
 40
0.0
  9
$SKPOLY
 70
     0
  9
$TDCREATE
 40
2451414.480340509
  9
$TDUPDATE
 40
2454337.740316123
  9
$TDINDWG
 40
0.0407976852
  9
$TDUSRTIMER
 40
0.0407976852
  9
$USRTIMER
 70
     1
  9
$ANGBASE
 50
0.0
  9
$ANGDIR
 70
     0
  9
$PDMODE
 70
     0
  9
$PDSIZE
 40
0.0
  9
$PLINEWID
 40
0.0
  9
$COORDS
 70
     1
  9
$SPLFRAME
 70
     0
  9
$SPLINETYPE
 70
     6
  9
$SPLINESEGS
 70
     8
  9
$ATTDIA
 70
     0
  9
$ATTREQ
 70
     1
  9
$HANDLING
 70
 22529
  9
$HANDSEED
  5
15AC
  9
$SURFTAB1
 70
     6
  9
$SURFTAB2
 70
     6
  9
$SURFTYPE
 70
     6
  9
$SURFU
 70
     6
  9
$SURFV
 70
     6
  9
$UCSNAME
  2

  9
$UCSORG
 10
0.0
 20
0.0
 30
0.0
  9
$UCSXDIR
 10
1.0
 20
0.0
 30
0.0
  9
$UCSYDIR
 10
0.0
 20
1.0
 30
0.0
  9
$PUCSNAME
  2

  9
$PUCSORG
 10
0.0
 20
0.0
 30
0.0
  9
$PUCSXDIR
 10
1.0
 20
0.0
 30
0.0
  9
$PUCSYDIR
 10
0.0
 20
1.0
 30
0.0
  9
$USERI1
 70
     0
  9
$USERI2
 70
     0
  9
$USERI3
 70
     0
  9
$USERI4
 70
     0
  9
$USERI5
 70
     0
  9
$USERR1
 40
0.0
  9
$USERR2
 40
0.0
  9
$USERR3
 40
0.0
  9
$USERR4
 40
0.0
  9
$USERR5
 40
0.0
  9
$WORLDVIEW
 70
     1
  9
$SHADEDGE
 70
     3
  9
$SHADEDIF
 70
    70
  9
$TILEMODE
 70
     0
  9
$MAXACTVP
 70
    16
  9
$PINSBASE
 10
0.0
 20
0.0
 30
0.0
  9
$PLIMCHECK
 70
     0
  9
$PEXTMIN
 10
2.616614088072822
 20
2.142646393503383
 30
0.0
  9
$PEXTMAX
 10
380.7304325891639
 20
282.6944736045713
 30
0.0
  9
$PLIMMIN
 10
-17.38575695489316
 20
-5.358557353983542
  9
$PLIMMAX
 10
402.6142430451068
 20
291.6414426460164
  9
$UNITMODE
 70
     0
  9
$VISRETAIN
 70
     0
  9
$PLINEGEN
 70
     0
  9
$PSLTSCALE
 70
     1
  9
$TREEDEPTH
 70
  3020
  9
$PICKSTYLE
 70
     1
  9
$CMLSTYLE
  2
STANDARD
  9
$CMLJUST
 70
     0
  9
$CMLSCALE
 40
1.0
  9
$SAVEIMAGES
 70
     1
  0
ENDSEC
  0
SECTION
  2
CLASSES
  0
CLASS
  1
LWPOLYLINE
  2
AcDbPolyline
  3
AutoCAD 2000
 90
    32768
280
     0
281
     1
  0
CLASS
  1
ACDBDICTIONARYWDFLT
  2
AcDbDictionaryWithDefault
  3
AutoCAD 2000
 90
    32768
280
     0
281
     0
  0
CLASS
  1
ACDBPLACEHOLDER
  2
AcDbPlaceHolder
  3
AutoCAD 2000
 90
    32768
280
     0
281
     0
  0
CLASS
  1
LAYOUT
  2
AcDbLayout
  3
AutoCAD 2000
 90
    32768
280
     0
281
     0
  0
CLASS
  1
LONG_TRANSACTION
  2
AcDbLongTransaction
  3
AutoCAD 2000
 90
    32768
280
     0
281
     0
  0
CLASS
  1
LWPOLYLINE
  2
AcDbPolyline
  3
AutoCAD 2000
 90
    32768
280
     0
281
     1
  0
CLASS
  1
HATCH
  2
AcDbHatch
  3
AutoCAD 2000
 90
    32768
280
     0
281
     1
  0
CLASS
  1
XRECORD
  2
AcDbXrecord
  3
AutoCAD 2000
 90
    32768
280
     0
281
     0
  0
CLASS
  1
DICTIONARYVAR
  2
AcDbDictionaryVar
  3
AutoCAD 2000
 90
    32768
280
     0
281
     0
  0
CLASS
  1
LONG_TRANSACTION
  2
AcDbLongTransaction
  3
AutoCAD 2000
 90
    32768
280
     0
281
     0
  0
CLASS
  1
LWPOLYLINE
  2
AcDbPolyline
  3
AutoCAD 2000
 90
    32768
280
     0
281
     1
  0
CLASS
  1
HATCH
  2
AcDbHatch
  3
AutoCAD 2000
 90
    32768
280
     0
281
     1
  0
CLASS
  1
XRECORD
  2
AcDbXrecord
  3
AutoCAD 2000
 90
    32768
280
     0
281
     0
  0
ENDSEC
  0
SECTION
  2
TABLES
  0
TABLE
  2
VPORT
  5
8
330
0
100
AcDbSymbolTable
 70
     6
  0
VPORT
  5
14E6
330
8
100
AcDbSymbolTableRecord
100
AcDbViewportTableRecord
  2
*ACTIVE
 70
     0
 10
0.0
 20
0.0
 11
1.0
 21
1.0
 12
730.3910019531761
 22
548.2739709635779
 13
0.0
 23
0.0
 14
1.0
 24
1.0
 15
0.0
 25
0.0
 16
0.0
 26
0.0
 36
1.0
 17
0.0
 27
0.0
 37
0.0
 40
1399.400034564152
 41
1.21859296482412
 42
50.0
 43
0.0
 44
0.0
 50
0.0
 51
0.0
 71
     0
 72
   100
 73
     1
 74
     0
 75
     0
 76
     0
 77
     0
 78
     1
  0
ENDTAB
  0
TABLE
  2
LTYPE
  5
5
330
0
100
AcDbSymbolTable
 70
     4
  0
LTYPE
  5
14
330
5
100
AcDbSymbolTableRecord
100
AcDbLinetypeTableRecord
  2
BYBLOCK
 70
     0
  3

 72
    65
 73
     0
 40
0.0
  0
LTYPE
  5
15
330
5
100
AcDbSymbolTableRecord
100
AcDbLinetypeTableRecord
  2
BYLAYER
 70
     0
  3

 72
    65
 73
     0
 40
0.0
  0
LTYPE
  5
16
330
5
100
AcDbSymbolTableRecord
100
AcDbLinetypeTableRecord
  2
CONTINUOUS
 70
     0
  3
Solid line
 72
    65
 73
     0
 40
0.0
  0
LTYPE
  5
6E
330
5
100
AcDbSymbolTableRecord
100
AcDbLinetypeTableRecord
  2
CENTER
 70
     0
  3
____ _ ____ _ ____ _ ____ _ ____ _ ____ _ ____ 
 72
    65
 73
     4
 40
2.0
 49
1.25
 74
     0
 49
-0.25
 74
     0
 49
0.25
 74
     0
 49
-0.25
 74
     0
  0
LTYPE
  5
6F
330
5
100
AcDbSymbolTableRecord
100
AcDbLinetypeTableRecord
  2
HIDDEN
 70
     0
  3
__ __ __ __ __ __ __ __ __ __ __ __ __ __ __ __
 72
    65
 73
     2
 40
0.375
 49
0.25
 74
     0
 49
-0.125
 74
     0
  0
LTYPE
  5
243
330
5
100
AcDbSymbolTableRecord
100
AcDbLinetypeTableRecord
  2
PHANTOM
 70
     0
  3
Phantom ______  __  __  ______  __  __  ______
 72
    65
 73
     6
 40
63.5
 49
31.75
 74
     0
 49
-6.349999999999998
 74
     0
 49
6.349999999999998
 74
     0
 49
-6.349999999999998
 74
     0
 49
6.349999999999998
 74
     0
 49
-6.349999999999998
 74
     0
  0
ENDTAB
  0
TABLE
  2
LAYER
  5
2
330
0
100
AcDbSymbolTable
 70
    25
  0
LAYER
  5
F
330
2
100
AcDbSymbolTableRecord
100
AcDbLayerTableRecord
  2
0
 70
     0
 62
     7
  6
CONTINUOUS
  0
LAYER
  5
71
330
2
100
AcDbSymbolTableRecord
100
AcDbLayerTableRecord
  2
MEASURE
 70
     0
 62
     9
  6
CONTINUOUS
  0
LAYER
  5
72
330
2
100
AcDbSymbolTableRecord
100
AcDbLayerTableRecord
  2
DEFPOINTS
 70
     0
 62
     7
  6
CONTINUOUS
  0
LAYER
  5
244
330
2
100
AcDbSymbolTableRecord
100
AcDbLayerTableRecord
  2
NOTE
 70
     0
 62
     2
  6
CONTINUOUS
  0
LAYER
  5
255
330
2
100
AcDbSymbolTableRecord
100
AcDbLayerTableRecord
  2
1
 70
     0
 62
     7
  6
CONTINUOUS
  0
ENDTAB
  0
TABLE
  2
STYLE
  5
3
330
0
100
AcDbSymbolTable
 70
     7
  0
STYLE
  5
10
330
3
100
AcDbSymbolTableRecord
100
AcDbTextStyleTableRecord
  2
STANDARD
 70
     0
 40
0.0
 41
0.8
 50
0.0
 71
     0
 42
84.17508417508415
  3
TXT
  4
bigfont.shx
  0
STYLE
  5
63
330
3
100
AcDbSymbolTableRecord
100
AcDbTextStyleTableRecord
  2
AD-STANDARD
 70
     0
 40
0.0
 41
0.8
 50
0.0
 71
     0
 42
2.5
  3
C:\Program Files\AutoCAD LT\romans.shx
  4
bigfont.shx
  0
STYLE
  5
264
330
3
100
AcDbSymbolTableRecord
100
AcDbTextStyleTableRecord
  2
BIGFONT
 70
     0
 40
3.5
 41
0.8
 50
15.0
 71
     0
 42
3.5
  3
ROMANS.SHX
  4
BIGFONT.SHX
  0
STYLE
  5
265
330
3
100
AcDbSymbolTableRecord
100
AcDbTextStyleTableRecord
  2
ROMAND
 70
     0
 40
5.0
 41
1.0
 50
0.0
 71
     0
 42
4.5
  3
romand
  4

  0
STYLE
  5
2C0
330
3
100
AcDbSymbolTableRecord
100
AcDbTextStyleTableRecord
  2
KANJI
 70
     0
 40
0.0
 41
1.0
 50
0.0
 71
     0
 42
2.0
  3
TXT
  4
BIGFONT
  0
ENDTAB
  0
TABLE
  2
VIEW
  5
6
330
0
100
AcDbSymbolTable
 70
     0
  0
ENDTAB
  0
TABLE
  2
UCS
  5
7
330
0
100
AcDbSymbolTable
 70
     0
  0
ENDTAB
  0
TABLE
  2
APPID
  5
9
330
0
100
AcDbSymbolTable
 70
     5
  0
APPID
  5
11
330
9
100
AcDbSymbolTableRecord
100
AcDbRegAppTableRecord
  2
ACAD
 70
     0
  0
APPID
  5
22A
330
9
100
AcDbSymbolTableRecord
100
AcDbRegAppTableRecord
  2
CONTENTTABDATA
 70
     0
  0
APPID
  5
22B
330
9
100
AcDbSymbolTableRecord
100
AcDbRegAppTableRecord
  2
CONTENTCURRENTTAB
 70
     0
  0
APPID
  5
232
330
9
100
AcDbSymbolTableRecord
100
AcDbRegAppTableRecord
  2
CONTENTBLOCKDESCRIPTION
 70
     0
  0
APPID
  5
233
330
9
100
AcDbSymbolTableRecord
100
AcDbRegAppTableRecord
  2
CONTENTBLOCKICON
 70
     0
  0
ENDTAB
  0
TABLE
  2
DIMSTYLE
  5
A
330
0
100
AcDbSymbolTable
 70
     2
  0
DIMSTYLE
105
1D
330
A
100
AcDbSymbolTableRecord
100
AcDbDimStyleTableRecord
  2
STANDARD
 70
     0
  3

  4

  5

  6

  7

 40
1.0
 41
0.18
 42
0.0625
 43
0.38
 44
0.18
 45
0.0
 46
0.0
 47
0.0
 48
0.0
140
0.18
141
0.09
142
0.0
143
25.4
144
1.0
145
0.0
146
1.0
147
0.09
 71
     0
 72
     0
 73
     1
 74
     1
 75
     0
 76
     0
 77
     0
 78
     0
170
     0
171
     2
172
     0
173
     0
174
     0
175
     0
176
     0
177
     0
178
     0
270
     2
271
     4
272
     4
273
     2
274
     2
340
10
275
     0
280
     0
281
     0
282
     0
283
     1
284
     0
285
     0
286
     0
287
     3
288
     0
  0
DIMSTYLE
105
68
102
{ACAD_REACTORS
330
8EF
330
8F0
330
8F9
330
901
330
EB5
330
EF9
330
F20
330
F2D
330
F47
330
FEE
102
}
330
A
100
AcDbSymbolTableRecord
100
AcDbDimStyleTableRecord
  2
AD-STANDARD
 70
     0
  3

  4

  5

  6

  7

 40
1.0
 41
2.5
 42
1.0
 43
0.38
 44
2.0
 45
0.0
 46
0.0
 47
0.0
 48
0.0
140
3.5
141
-2.0
142
0.0
143
25.4
144
1.0
145
0.0
146
1.0
147
0.5
 71
     0
 72
     0
 73
     0
 74
     0
 75
     0
 76
     0
 77
     1
 78
     8
170
     0
171
     2
172
     1
173
     0
174
     0
175
     0
176
     9
177
     9
178
     2
270
     2
271
     4
272
     4
273
     2
274
     2
340
63
275
     0
280
     0
281
     0
282
     0
283
     1
284
     8
285
     0
286
     0
287
     3
288
     0
  0
ENDTAB
  0
TABLE
  2
BLOCK_RECORD
  5
1
330
0
100
AcDbSymbolTable
 70
    11
  0
BLOCK_RECORD
  5
1A
102
{ACAD_XDICTIONARY
360
121D
102
}
330
1
100
AcDbSymbolTableRecord
100
AcDbBlockTableRecord
  2
*MODEL_SPACE
  0
BLOCK_RECORD
  5
1196
102
{ACAD_XDICTIONARY
360
1279
102
}
330
1
100
AcDbSymbolTableRecord
100
AcDbBlockTableRecord
  2
*PAPER_SPACE
  0
BLOCK_RECORD
  5
DD7
330
1
100
AcDbSymbolTableRecord
100
AcDbBlockTableRecord
  2
*D1
  0
BLOCK_RECORD
  5
DE3
330
1
100
AcDbSymbolTableRecord
100
AcDbBlockTableRecord
  2
*D2
  0
BLOCK_RECORD
  5
DEF
330
1
100
AcDbSymbolTableRecord
100
AcDbBlockTableRecord
  2
*D3
  0
BLOCK_RECORD
  5
DFB
330
1
100
AcDbSymbolTableRecord
100
AcDbBlockTableRecord
  2
*D4
  0
BLOCK_RECORD
  5
EA9
330
1
100
AcDbSymbolTableRecord
100
AcDbBlockTableRecord
  2
*D5
  0
BLOCK_RECORD
  5
EED
330
1
100
AcDbSymbolTableRecord
100
AcDbBlockTableRecord
  2
*D6
  0
BLOCK_RECORD
  5
F14
330
1
100
AcDbSymbolTableRecord
100
AcDbBlockTableRecord
  2
*D7
  0
BLOCK_RECORD
  5
F21
330
1
100
AcDbSymbolTableRecord
100
AcDbBlockTableRecord
  2
*D8
  0
BLOCK_RECORD
  5
F3B
330
1
100
AcDbSymbolTableRecord
100
AcDbBlockTableRecord
  2
*D9
  0
BLOCK_RECORD
  5
FE2
330
1
100
AcDbSymbolTableRecord
100
AcDbBlockTableRecord
  2
*D10
  0
ENDTAB
  0
ENDSEC
  0
SECTION
  2
BLOCKS
  0
BLOCK
  5
1B
330
1A
100
AcDbEntity
  8
0
100
AcDbBlockBegin
  2
*MODEL_SPACE
 70
     0
 10
0.0
 20
0.0
 30
0.0
  3
*MODEL_SPACE
  1

  0
ENDBLK
  5
1C
330
1A
100
AcDbEntity
  8
0
100
AcDbBlockEnd
  0
BLOCK
  5
1198
330
1196
100
AcDbEntity
 67
     1
  8
0
100
AcDbBlockBegin
  2
*PAPER_SPACE
 70
     0
 10
0.0
 20
0.0
 30
0.0
  3
*PAPER_SPACE
  1

  0
ENDBLK
  5
1199
330
1196
100
AcDbEntity
 67
     1
  8
0
100
AcDbBlockEnd
  0
BLOCK
  5
1098
330
DD7
100
AcDbEntity
  8
0
100
AcDbBlockBegin
  2
*D1
 70
     1
 10
0.0
 20
0.0
 30
0.0
  3
*D1
  1

  0
LINE
  5
1504
330
DD7
100
AcDbEntity
  8
MEASURE
 62
     9
100
AcDbLine
 10
1074.309187444246
 20
655.3303267177157
 30
0.0
 11
1074.309187444246
 21
196.0053965633568
 31
0.0
  0
LINE
  5
1505
330
DD7
100
AcDbEntity
  8
MEASURE
 62
     9
100
AcDbLine
 10
596.7486146213341
 20
348.9112065768648
 30
0.0
 11
596.7486146213341
 21
196.0053965633568
 31
0.0
  0
LINE
  5
1506
330
DD7
100
AcDbEntity
  8
MEASURE
 62
     9
100
AcDbLine
 10
1061.809187444246
 20
206.0053965633569
 30
0.0
 11
609.2486146213341
 21
206.0053965633569
 31
0.0
  0
SOLID
  5
1507
330
DD7
100
AcDbEntity
  8
MEASURE
 62
     9
100
AcDbTrace
 10
1061.809187444246
 20
208.0887298966902
 30
0.0
 11
1061.809187444246
 21
203.9220632300235
 31
0.0
 12
1074.309187444246
 22
206.0053965633569
 32
0.0
 13
1074.309187444246
 23
206.0053965633569
 33
0.0
  0
SOLID
  5
1508
330
DD7
100
AcDbEntity
  8
MEASURE
 62
     9
100
AcDbTrace
 10
609.2486146213341
 20
208.0887298966902
 30
0.0
 11
609.2486146213341
 21
203.9220632300235
 31
0.0
 12
596.7486146213341
 22
206.0053965633569
 32
0.0
 13
596.7486146213341
 23
206.0053965633569
 33
0.0
  0
MTEXT
  5
1509
330
DD7
100
AcDbEntity
  8
MEASURE
 62
     2
100
AcDbMText
 10
835.5289010327901
 20
215.5053965633569
 30
0.0
 40
13.99999999999999
 41
0.0
 71
     5
 72
     1
  1
\A1;（480）
  7
AD-STANDARD
  0
POINT
  5
150A
330
DD7
100
AcDbEntity
  8
DEFPOINTS
 62
     0
100
AcDbPoint
 10
1074.309187444246
 20
660.3303267177157
 30
0.0
  0
POINT
  5
150B
330
DD7
100
AcDbEntity
  8
DEFPOINTS
 62
     0
100
AcDbPoint
 10
596.7486146213341
 20
353.9112065768648
 30
0.0
  0
POINT
  5
150C
330
DD7
100
AcDbEntity
  8
DEFPOINTS
 62
     0
100
AcDbPoint
 10
596.7486146213341
 20
206.0053965633569
 30
0.0
  0
ENDBLK
  5
10A2
330
DD7
100
AcDbEntity
  8
0
100
AcDbBlockEnd
  0
BLOCK
  5
10FA
330
DE3
100
AcDbEntity
  8
0
100
AcDbBlockBegin
  2
*D2
 70
     1
 10
0.0
 20
0.0
 30
0.0
  3
*D2
  1

  0
LINE
  5
150D
330
DE3
100
AcDbEntity
  8
MEASURE
 62
     9
100
AcDbLine
 10
816.7485708346712
 20
313.4112994159431
 30
0.0
 11
1173.499451644673
 21
313.411299415943
 31
0.0
  0
LINE
  5
150E
330
DE3
100
AcDbEntity
  8
MEASURE
 62
     9
100
AcDbLine
 10
1067.681760948232
 20
678.1896868520408
 30
0.0
 11
1173.499451644674
 21
678.1896868520408
 31
0.0
  0
LINE
  5
150F
330
DE3
100
AcDbEntity
  8
MEASURE
 62
     9
100
AcDbLine
 10
1163.499451644673
 20
325.911299415943
 30
0.0
 11
1163.499451644674
 21
665.6896868520408
 31
0.0
  0
SOLID
  5
1510
330
DE3
100
AcDbEntity
  8
MEASURE
 62
     9
100
AcDbTrace
 10
1161.41611831134
 20
325.911299415943
 30
0.0
 11
1165.582784978007
 21
325.911299415943
 31
0.0
 12
1163.499451644673
 22
313.411299415943
 32
0.0
 13
1163.499451644673
 23
313.411299415943
 33
0.0
  0
SOLID
  5
1511
330
DE3
100
AcDbEntity
  8
MEASURE
 62
     9
100
AcDbTrace
 10
1161.41611831134
 20
665.6896868520408
 30
0.0
 11
1165.582784978007
 21
665.6896868520408
 31
0.0
 12
1163.499451644674
 22
678.1896868520408
 32
0.0
 13
1163.499451644674
 23
678.1896868520408
 33
0.0
  0
MTEXT
  5
1512
330
DE3
100
AcDbEntity
  8
MEASURE
 62
     2
100
AcDbMText
 10
1153.999451644673
 20
495.8004931339921
 30
0.0
 40
13.99999999999999
 41
0.0
 71
     5
 72
     1
  1
\A1;（365）
  7
AD-STANDARD
 11
0.0000000000000001
 21
1.0
 31
0.0
  0
POINT
  5
1513
330
DE3
100
AcDbEntity
  8
DEFPOINTS
 62
     0
100
AcDbPoint
 10
811.7485708346713
 20
313.4112994159431
 30
0.0
  0
POINT
  5
1514
330
DE3
100
AcDbEntity
  8
DEFPOINTS
 62
     0
100
AcDbPoint
 10
1062.681760948233
 20
678.1896868520408
 30
0.0
  0
POINT
  5
1515
330
DE3
100
AcDbEntity
  8
DEFPOINTS
 62
     0
100
AcDbPoint
 10
1163.499451644674
 20
678.1896868520408
 30
0.0
  0
ENDBLK
  5
1104
330
DE3
100
AcDbEntity
  8
0
100
AcDbBlockEnd
  0
BLOCK
  5
10D6
330
DEF
100
AcDbEntity
  8
0
100
AcDbBlockBegin
  2
*D3
 70
     1
 10
0.0
 20
0.0
 30
0.0
  3
*D3
  1

  0
LINE
  5
1516
330
DEF
100
AcDbEntity
  8
MEASURE
 62
     9
100
AcDbLine
 10
626.7486580074317
 20
313.4112994159431
 30
0.0
 11
482.3100309477497
 21
313.4112994159431
 31
0.0
  0
LINE
  5
1517
330
DEF
100
AcDbEntity
  8
MEASURE
 62
     9
100
AcDbLine
 10
603.2486146213318
 20
413.9112065768593
 30
0.0
 11
482.3100309477498
 21
413.9112065768593
 31
0.0
  0
LINE
  5
1518
330
DEF
100
AcDbEntity
  8
MEASURE
 62
     9
100
AcDbLine
 10
492.3100309477497
 20
325.9112994159431
 30
0.0
 11
492.3100309477497
 21
401.4112065768593
 31
0.0
  0
SOLID
  5
1519
330
DEF
100
AcDbEntity
  8
MEASURE
 62
     9
100
AcDbTrace
 10
490.2266976144164
 20
325.9112994159431
 30
0.0
 11
494.393364281083
 21
325.9112994159431
 31
0.0
 12
492.3100309477497
 22
313.4112994159431
 32
0.0
 13
492.3100309477497
 23
313.4112994159431
 33
0.0
  0
SOLID
  5
151A
330
DEF
100
AcDbEntity
  8
MEASURE
 62
     9
100
AcDbTrace
 10
490.2266976144164
 20
401.4112065768593
 30
0.0
 11
494.3933642810831
 21
401.4112065768593
 31
0.0
 12
492.3100309477497
 22
413.9112065768593
 32
0.0
 13
492.3100309477497
 23
413.9112065768593
 33
0.0
  0
MTEXT
  5
151B
330
DEF
100
AcDbEntity
  8
MEASURE
 62
     2
100
AcDbMText
 10
482.8100309477497
 20
363.6612529964013
 30
0.0
 40
13.99999999999999
 41
0.0
 71
     5
 72
     1
  1
\A1;97～108
  7
AD-STANDARD
 11
0.0000000000000001
 21
1.0
 31
0.0
  0
POINT
  5
151C
330
DEF
100
AcDbEntity
  8
DEFPOINTS
 62
     0
100
AcDbPoint
 10
631.7486580074317
 20
313.4112994159431
 30
0.0
  0
POINT
  5
151D
330
DEF
100
AcDbEntity
  8
DEFPOINTS
 62
     0
100
AcDbPoint
 10
608.2486146213319
 20
413.9112065768593
 30
0.0
  0
POINT
  5
151E
330
DEF
100
AcDbEntity
  8
DEFPOINTS
 62
     0
100
AcDbPoint
 10
492.3100309477497
 20
413.9112065768593
 30
0.0
  0
ENDBLK
  5
10E0
330
DEF
100
AcDbEntity
  8
0
100
AcDbBlockEnd
  0
BLOCK
  5
105F
330
DFB
100
AcDbEntity
  8
0
100
AcDbBlockBegin
  2
*D4
 70
     1
 10
0.0
 20
0.0
 30
0.0
  3
*D4
  1

  0
LINE
  5
151F
330
DFB
100
AcDbEntity
  8
MEASURE
 62
     9
100
AcDbLine
 10
591.7486146213341
 20
353.9112065768668
 30
0.0
 11
529.1168555245506
 21
353.9112065768668
 31
0.0
  0
LINE
  5
1520
330
DFB
100
AcDbEntity
  8
MEASURE
 62
     9
100
AcDbLine
 10
603.2486146213332
 20
413.9112065768603
 30
0.0
 11
529.1168555245506
 21
413.9112065768603
 31
0.0
  0
LINE
  5
1521
330
DFB
100
AcDbEntity
  8
MEASURE
 62
     9
100
AcDbLine
 10
539.1168555245505
 20
366.4112065768668
 30
0.0
 11
539.1168555245505
 21
401.4112065768603
 31
0.0
  0
SOLID
  5
1522
330
DFB
100
AcDbEntity
  8
MEASURE
 62
     9
100
AcDbTrace
 10
537.0335221912172
 20
366.4112065768668
 30
0.0
 11
541.2001888578839
 21
366.4112065768668
 31
0.0
 12
539.1168555245505
 22
353.9112065768668
 32
0.0
 13
539.1168555245505
 23
353.9112065768668
 33
0.0
  0
SOLID
  5
1523
330
DFB
100
AcDbEntity
  8
MEASURE
 62
     9
100
AcDbTrace
 10
537.0335221912172
 20
401.4112065768603
 30
0.0
 11
541.2001888578839
 21
401.4112065768603
 31
0.0
 12
539.1168555245505
 22
413.9112065768603
 32
0.0
 13
539.1168555245505
 23
413.9112065768603
 33
0.0
  0
MTEXT
  5
1524
330
DFB
100
AcDbEntity
  8
MEASURE
 62
     2
100
AcDbMText
 10
529.6168555245505
 20
383.9112065768636
 30
0.0
 40
13.99999999999999
 41
0.0
 71
     5
 72
     1
  1
\A1;60
  7
AD-STANDARD
 11
0.0000000000000001
 21
1.0
 31
0.0
  0
POINT
  5
1525
330
DFB
100
AcDbEntity
  8
DEFPOINTS
 62
     0
100
AcDbPoint
 10
596.7486146213341
 20
353.9112065768668
 30
0.0
  0
POINT
  5
1526
330
DFB
100
AcDbEntity
  8
DEFPOINTS
 62
     0
100
AcDbPoint
 10
608.2486146213332
 20
413.9112065768603
 30
0.0
  0
POINT
  5
1527
330
DFB
100
AcDbEntity
  8
DEFPOINTS
 62
     0
100
AcDbPoint
 10
539.1168555245505
 20
413.9112065768603
 30
0.0
  0
ENDBLK
  5
1069
330
DFB
100
AcDbEntity
  8
0
100
AcDbBlockEnd
  0
BLOCK
  5
1049
330
EA9
100
AcDbEntity
  8
0
100
AcDbBlockBegin
  2
*D5
 70
     1
 10
0.0
 20
0.0
 30
0.0
  3
*D5
  1

  0
LINE
  5
1570
330
EA9
100
AcDbEntity
  8
MEASURE
 62
     9
100
AcDbLine
 10
631.7486580074317
 20
308.4112994159431
 30
0.0
 11
631.7486580074317
 21
246.0123692402721
 31
0.0
  0
LINE
  5
1571
330
EA9
100
AcDbEntity
  8
MEASURE
 62
     9
100
AcDbLine
 10
811.7485708346713
 20
308.4112994159431
 30
0.0
 11
811.7485708346713
 21
246.0123692402721
 31
0.0
  0
LINE
  5
1572
330
EA9
100
AcDbEntity
  8
MEASURE
 62
     9
100
AcDbLine
 10
644.2486580074317
 20
256.0123692402721
 30
0.0
 11
799.2485708346712
 21
256.0123692402721
 31
0.0
  0
SOLID
  5
1573
330
EA9
100
AcDbEntity
  8
MEASURE
 62
     9
100
AcDbTrace
 10
644.2486580074317
 20
258.0957025736054
 30
0.0
 11
644.2486580074317
 21
253.9290359069387
 31
0.0
 12
631.7486580074317
 22
256.0123692402721
 32
0.0
 13
631.7486580074317
 23
256.0123692402721
 33
0.0
  0
SOLID
  5
1574
330
EA9
100
AcDbEntity
  8
MEASURE
 62
     9
100
AcDbTrace
 10
799.2485708346712
 20
258.0957025736054
 30
0.0
 11
799.2485708346712
 21
253.9290359069387
 31
0.0
 12
811.7485708346713
 22
256.0123692402721
 32
0.0
 13
811.7485708346713
 23
256.0123692402721
 33
0.0
  0
MTEXT
  5
1575
330
EA9
100
AcDbEntity
  8
MEASURE
 62
     2
100
AcDbMText
 10
721.7486144210514
 20
265.5123692402721
 30
0.0
 40
13.99999999999999
 41
0.0
 71
     5
 72
     1
  1
\A1;180
  7
AD-STANDARD
  0
POINT
  5
1576
330
EA9
100
AcDbEntity
  8
DEFPOINTS
 62
     0
100
AcDbPoint
 10
631.7486580074317
 20
313.4112994159431
 30
0.0
  0
POINT
  5
1577
330
EA9
100
AcDbEntity
  8
DEFPOINTS
 62
     0
100
AcDbPoint
 10
811.7485708346713
 20
313.4112994159431
 30
0.0
  0
POINT
  5
1578
330
EA9
100
AcDbEntity
  8
DEFPOINTS
 62
     0
100
AcDbPoint
 10
811.7485708346713
 20
256.0123692402721
 30
0.0
  0
ENDBLK
  5
1053
330
EA9
100
AcDbEntity
  8
0
100
AcDbBlockEnd
  0
BLOCK
  5
FAE
330
EED
100
AcDbEntity
  8
0
100
AcDbBlockBegin
  2
*D6
 70
     1
 10
0.0
 20
0.0
 30
0.0
  3
*D6
  1

  0
LINE
  5
1579
330
EED
100
AcDbEntity
  8
MEASURE
 62
     9
100
AcDbLine
 10
631.7486580074317
 20
308.4112994159431
 30
0.0
 11
631.7486580074317
 21
246.0123692402721
 31
0.0
  0
LINE
  5
157A
330
EED
100
AcDbEntity
  8
MEASURE
 62
     9
100
AcDbLine
 10
596.7486146213341
 20
348.9112065768648
 30
0.0
 11
596.7486146213341
 21
246.0123692402721
 31
0.0
  0
LINE
  5
157B
330
EED
100
AcDbEntity
  8
MEASURE
 62
     9
100
AcDbLine
 10
619.2486580074317
 20
256.0123692402721
 30
0.0
 11
609.2486146213341
 21
256.0123692402721
 31
0.0
  0
SOLID
  5
157C
330
EED
100
AcDbEntity
  8
MEASURE
 62
     9
100
AcDbTrace
 10
619.2486580074317
 20
258.0957025736054
 30
0.0
 11
619.2486580074317
 21
253.9290359069387
 31
0.0
 12
631.7486580074317
 22
256.0123692402721
 32
0.0
 13
631.7486580074317
 23
256.0123692402721
 33
0.0
  0
SOLID
  5
157D
330
EED
100
AcDbEntity
  8
MEASURE
 62
     9
100
AcDbTrace
 10
609.2486146213341
 20
258.0957025736054
 30
0.0
 11
609.2486146213341
 21
253.9290359069387
 31
0.0
 12
596.7486146213341
 22
256.0123692402721
 32
0.0
 13
596.7486146213341
 23
256.0123692402721
 33
0.0
  0
MTEXT
  5
157E
330
EED
100
AcDbEntity
  8
MEASURE
 62
     2
100
AcDbMText
 10
614.2486363143829
 20
265.5123692402721
 30
0.0
 40
13.99999999999999
 41
0.0
 71
     5
 72
     1
  1
\A1;35
  7
AD-STANDARD
  0
POINT
  5
157F
330
EED
100
AcDbEntity
  8
DEFPOINTS
 62
     0
100
AcDbPoint
 10
631.7486580074317
 20
313.4112994159431
 30
0.0
  0
POINT
  5
1580
330
EED
100
AcDbEntity
  8
DEFPOINTS
 62
     0
100
AcDbPoint
 10
596.7486146213341
 20
353.9112065768648
 30
0.0
  0
POINT
  5
1581
330
EED
100
AcDbEntity
  8
DEFPOINTS
 62
     0
100
AcDbPoint
 10
596.7486146213341
 20
256.0123692402721
 30
0.0
  0
ENDBLK
  5
FB8
330
EED
100
AcDbEntity
  8
0
100
AcDbBlockEnd
  0
BLOCK
  5
1080
330
F14
100
AcDbEntity
  8
0
100
AcDbBlockBegin
  2
*D7
 70
     1
 10
0.0
 20
0.0
 30
0.0
  3
*D7
  1

  0
LINE
  5
1582
330
F14
100
AcDbEntity
  8
MEASURE
 62
     9
100
AcDbLine
 10
152.2233703863379
 20
308.4112994159355
 30
0.0
 11
152.2233703863379
 21
246.0123692402721
 31
0.0
  0
LINE
  5
1583
330
F14
100
AcDbEntity
  8
MEASURE
 62
     9
100
AcDbLine
 10
332.2232832135773
 20
308.4112994159354
 30
0.0
 11
332.2232832135773
 21
246.0123692402721
 31
0.0
  0
LINE
  5
1584
330
F14
100
AcDbEntity
  8
MEASURE
 62
     9
100
AcDbLine
 10
164.7233703863379
 20
256.0123692402721
 30
0.0
 11
319.7232832135773
 21
256.0123692402721
 31
0.0
  0
SOLID
  5
1585
330
F14
100
AcDbEntity
  8
MEASURE
 62
     9
100
AcDbTrace
 10
164.7233703863379
 20
258.0957025736054
 30
0.0
 11
164.7233703863379
 21
253.9290359069387
 31
0.0
 12
152.2233703863379
 22
256.0123692402721
 32
0.0
 13
152.2233703863379
 23
256.0123692402721
 33
0.0
  0
SOLID
  5
1586
330
F14
100
AcDbEntity
  8
MEASURE
 62
     9
100
AcDbTrace
 10
319.7232832135773
 20
258.0957025736054
 30
0.0
 11
319.7232832135773
 21
253.9290359069387
 31
0.0
 12
332.2232832135773
 22
256.0123692402721
 32
0.0
 13
332.2232832135773
 23
256.0123692402721
 33
0.0
  0
MTEXT
  5
1587
330
F14
100
AcDbEntity
  8
MEASURE
 62
     2
100
AcDbMText
 10
242.2233267999576
 20
265.5123692402721
 30
0.0
 40
13.99999999999999
 41
0.0
 71
     5
 72
     1
  1
\A1;180
  7
AD-STANDARD
  0
POINT
  5
1588
330
F14
100
AcDbEntity
  8
DEFPOINTS
 62
     0
100
AcDbPoint
 10
152.2233703863379
 20
313.4112994159355
 30
0.0
  0
POINT
  5
1589
330
F14
100
AcDbEntity
  8
DEFPOINTS
 62
     0
100
AcDbPoint
 10
332.2232832135773
 20
313.4112994159353
 30
0.0
  0
POINT
  5
158A
330
F14
100
AcDbEntity
  8
DEFPOINTS
 62
     0
100
AcDbPoint
 10
332.2232832135773
 20
256.0123692402721
 30
0.0
  0
ENDBLK
  5
108A
330
F14
100
AcDbEntity
  8
0
100
AcDbBlockEnd
  0
BLOCK
  5
103E
330
F21
100
AcDbEntity
  8
0
100
AcDbBlockBegin
  2
*D8
 70
     1
 10
0.0
 20
0.0
 30
0.0
  3
*D8
  1

  0
LINE
  5
158B
330
F21
100
AcDbEntity
  8
MEASURE
 62
     9
100
AcDbLine
 10
811.7485708346713
 20
308.4112994159431
 30
0.0
 11
811.7485708346713
 21
246.0123692402721
 31
0.0
  0
LINE
  5
158C
330
F21
100
AcDbEntity
  8
MEASURE
 62
     9
100
AcDbLine
 10
1012.748570834671
 20
308.4112994159431
 30
0.0
 11
1012.748570834671
 21
246.0123692402721
 31
0.0
  0
LINE
  5
158D
330
F21
100
AcDbEntity
  8
MEASURE
 62
     9
100
AcDbLine
 10
824.2485708346713
 20
256.0123692402721
 30
0.0
 11
1000.24857083467
 21
256.0123692402721
 31
0.0
  0
SOLID
  5
158E
330
F21
100
AcDbEntity
  8
MEASURE
 62
     9
100
AcDbTrace
 10
824.2485708346713
 20
258.0957025736054
 30
0.0
 11
824.2485708346713
 21
253.9290359069387
 31
0.0
 12
811.7485708346713
 22
256.0123692402721
 32
0.0
 13
811.7485708346713
 23
256.0123692402721
 33
0.0
  0
SOLID
  5
158F
330
F21
100
AcDbEntity
  8
MEASURE
 62
     9
100
AcDbTrace
 10
1000.24857083467
 20
258.0957025736054
 30
0.0
 11
1000.24857083467
 21
253.9290359069387
 31
0.0
 12
1012.748570834671
 22
256.0123692402721
 32
0.0
 13
1012.748570834671
 23
256.0123692402721
 33
0.0
  0
MTEXT
  5
1590
330
F21
100
AcDbEntity
  8
MEASURE
 62
     2
100
AcDbMText
 10
912.2485708346712
 20
265.5123692402721
 30
0.0
 40
13.99999999999999
 41
0.0
 71
     5
 72
     1
  1
\A1;201
  7
AD-STANDARD
  0
POINT
  5
1591
330
F21
100
AcDbEntity
  8
DEFPOINTS
 62
     0
100
AcDbPoint
 10
811.7485708346713
 20
313.4112994159431
 30
0.0
  0
POINT
  5
1592
330
F21
100
AcDbEntity
  8
DEFPOINTS
 62
     0
100
AcDbPoint
 10
1012.748570834671
 20
313.4112994159431
 30
0.0
  0
POINT
  5
1593
330
F21
100
AcDbEntity
  8
DEFPOINTS
 62
     0
100
AcDbPoint
 10
1012.748570834671
 20
256.0123692402721
 30
0.0
  0
ENDBLK
  5
1048
330
F21
100
AcDbEntity
  8
0
100
AcDbBlockEnd
  0
BLOCK
  5
106A
330
F3B
100
AcDbEntity
  8
0
100
AcDbBlockBegin
  2
*D9
 70
     1
 10
0.0
 20
0.0
 30
0.0
  3
*D9
  1

  0
LINE
  5
1594
330
F3B
100
AcDbEntity
  8
MEASURE
 62
     9
100
AcDbLine
 10
596.7486146213332
 20
407.4112065768579
 30
0.0
 11
596.7486146213332
 21
473.8546987658201
 31
0.0
  0
LINE
  5
1595
330
F3B
100
AcDbEntity
  8
MEASURE
 62
     9
100
AcDbLine
 10
846.748614220769
 20
407.4112065768746
 30
0.0
 11
846.748614220769
 21
473.8546987658201
 31
0.0
  0
LINE
  5
1596
330
F3B
100
AcDbEntity
  8
MEASURE
 62
     9
100
AcDbLine
 10
609.2486146213332
 20
463.8546987658201
 30
0.0
 11
834.248614220769
 21
463.8546987658201
 31
0.0
  0
SOLID
  5
1597
330
F3B
100
AcDbEntity
  8
MEASURE
 62
     9
100
AcDbTrace
 10
609.2486146213332
 20
465.9380320991535
 30
0.0
 11
609.2486146213332
 21
461.7713654324868
 31
0.0
 12
596.7486146213332
 22
463.8546987658201
 32
0.0
 13
596.7486146213332
 23
463.8546987658201
 33
0.0
  0
SOLID
  5
1598
330
F3B
100
AcDbEntity
  8
MEASURE
 62
     9
100
AcDbTrace
 10
834.248614220769
 20
465.9380320991535
 30
0.0
 11
834.248614220769
 21
461.7713654324868
 31
0.0
 12
846.748614220769
 22
463.8546987658201
 32
0.0
 13
846.748614220769
 23
463.8546987658201
 33
0.0
  0
MTEXT
  5
1599
330
F3B
100
AcDbEntity
  8
MEASURE
 62
     2
100
AcDbMText
 10
721.7486144210511
 20
473.3546987658201
 30
0.0
 40
13.99999999999999
 41
0.0
 71
     5
 72
     1
  1
\A1;250
  7
AD-STANDARD
  0
POINT
  5
159A
330
F3B
100
AcDbEntity
  8
DEFPOINTS
 62
     0
100
AcDbPoint
 10
596.7486146213332
 20
402.4112065768579
 30
0.0
  0
POINT
  5
159B
330
F3B
100
AcDbEntity
  8
DEFPOINTS
 62
     0
100
AcDbPoint
 10
846.748614220769
 20
402.4112065768746
 30
0.0
  0
POINT
  5
159C
330
F3B
100
AcDbEntity
  8
DEFPOINTS
 62
     0
100
AcDbPoint
 10
846.748614220769
 20
463.8546987658201
 30
0.0
  0
ENDBLK
  5
1074
330
F3B
100
AcDbEntity
  8
0
100
AcDbBlockEnd
  0
BLOCK
  5
1075
330
FE2
100
AcDbEntity
  8
0
100
AcDbBlockBegin
  2
*D10
 70
     1
 10
0.0
 20
0.0
 30
0.0
  3
*D10
  1

  0
LINE
  5
159D
330
FE2
100
AcDbEntity
  8
MEASURE
 62
     9
100
AcDbLine
 10
117.2233270002402
 20
348.911206576859
 30
0.0
 11
117.2233270002402
 21
196.0053965633568
 31
0.0
  0
LINE
  5
159E
330
FE2
100
AcDbEntity
  8
MEASURE
 62
     9
100
AcDbLine
 10
367.2233265996796
 20
348.9112065768825
 30
0.0
 11
367.2233265996796
 21
196.0053965633568
 31
0.0
  0
LINE
  5
159F
330
FE2
100
AcDbEntity
  8
MEASURE
 62
     9
100
AcDbLine
 10
129.7233270002402
 20
206.0053965633569
 30
0.0
 11
354.7233265996796
 21
206.0053965633569
 31
0.0
  0
SOLID
  5
15A0
330
FE2
100
AcDbEntity
  8
MEASURE
 62
     9
100
AcDbTrace
 10
129.7233270002402
 20
208.0887298966902
 30
0.0
 11
129.7233270002402
 21
203.9220632300235
 31
0.0
 12
117.2233270002402
 22
206.0053965633569
 32
0.0
 13
117.2233270002402
 23
206.0053965633569
 33
0.0
  0
SOLID
  5
15A1
330
FE2
100
AcDbEntity
  8
MEASURE
 62
     9
100
AcDbTrace
 10
354.7233265996796
 20
208.0887298966902
 30
0.0
 11
354.7233265996796
 21
203.9220632300235
 31
0.0
 12
367.2233265996796
 22
206.0053965633569
 32
0.0
 13
367.2233265996796
 23
206.0053965633569
 33
0.0
  0
MTEXT
  5
15A2
330
FE2
100
AcDbEntity
  8
MEASURE
 62
     2
100
AcDbMText
 10
242.2233267999599
 20
215.5053965633569
 30
0.0
 40
13.99999999999999
 41
0.0
 71
     5
 72
     1
  1
\A1;250
  7
AD-STANDARD
  0
POINT
  5
15A3
330
FE2
100
AcDbEntity
  8
DEFPOINTS
 62
     0
100
AcDbPoint
 10
117.2233270002402
 20
353.9112065768589
 30
0.0
  0
POINT
  5
15A4
330
FE2
100
AcDbEntity
  8
DEFPOINTS
 62
     0
100
AcDbPoint
 10
367.2233265996796
 20
353.9112065768824
 30
0.0
  0
POINT
  5
15A5
330
FE2
100
AcDbEntity
  8
DEFPOINTS
 62
     0
100
AcDbPoint
 10
367.2233265996796
 20
206.0053965633569
 30
0.0
  0
ENDBLK
  5
107F
330
FE2
100
AcDbEntity
  8
0
100
AcDbBlockEnd
  0
ENDSEC
  0
SECTION
  2
ENTITIES
  0
ARC
  5
89F
330
1A
100
AcDbEntity
  8
1
100
AcDbCircle
 10
-335.1072910802993
 20
-254.0495725200586
 30
527.8277154834114
 40
30.0
210
0.0000000000000005
220
0.9205048534524403
230
0.3907311284892737
100
AcDbArc
 50
89.99985419520328
 51
172.7437708830955
  0
ARC
  5
8A0
330
1A
100
AcDbEntity
  8
1
100
AcDbCircle
 10
-149.506040889702
 20
-254.0495725200591
 30
527.8277154834107
 40
30.0
210
0.0000000000000003
220
0.9205048534524403
230
0.3907311284892737
100
AcDbArc
 50
7.256229116904334
 51
90.00014580479669
  0
ARC
  5
8A1
330
1A
100
AcDbEntity
  8
1
 62
     8
100
AcDbCircle
 10
-194.806665985001
 20
-384.6559162303157
 30
553.0730787742378
 40
82.0
210
0.0000000000000005
220
0.9205048534524403
230
0.3907311284892737
100
AcDbArc
 50
339.0751675723618
 51
19.61597913540639
  0
ARC
  5
8A3
330
1A
100
AcDbEntity
  8
1
 62
     8
100
AcDbCircle
 10
65.44978211332693
 20
-312.7769817415406
 30
553.0730787742378
 40
180.0
210
0.0000000000000005
220
0.9205048534524403
230
0.3907311284892737
100
AcDbArc
 50
181.0000000000023
 51
195.4393555178335
  0
ARC
  5
8A4
330
1A
100
AcDbEntity
  8
1
 62
     8
100
AcDbCircle
 10
65.44978211332693
 20
-312.7769817415406
 30
553.0730787742378
 40
184.0
210
0.0000000000000005
220
0.9205048534524403
230
0.3907311284892737
100
AcDbArc
 50
181.0000000000023
 51
195.4393555178335
  0
ARC
  5
8A5
330
1A
100
AcDbEntity
  8
1
 62
     8
100
AcDbCircle
 10
-550.0631218858586
 20
-312.7769817415455
 30
553.0730787742378
 40
180.0
210
0.0000000000000005
220
0.9205048534524403
230
0.3907311284892737
100
AcDbArc
 50
344.5606444821676
 51
358.9999999999988
  0
ARC
  5
8A6
330
1A
100
AcDbEntity
  8
1
 62
     8
100
AcDbCircle
 10
-550.0631218858586
 20
-312.7769817415455
 30
553.0730787742378
 40
184.0
210
0.0000000000000005
220
0.9205048534524403
230
0.3907311284892737
100
AcDbArc
 50
344.5606444821676
 51
358.9999999999988
  0
ARC
  5
8A7
330
1A
100
AcDbEntity
  8
1
 62
     8
100
AcDbCircle
 10
-550.0631218858586
 20
-310.8233260990993
 30
548.4705545069756
 40
180.0
210
0.0000000000000005
220
0.9205048534524403
230
0.3907311284892737
100
AcDbArc
 50
344.5606444821676
 51
358.9999999999988
  0
ARC
  5
8A8
330
1A
100
AcDbEntity
  8
1
 62
     8
100
AcDbCircle
 10
65.44978991585281
 20
-310.4325949706101
 30
547.5500496535213
 40
180.0
210
-0.0000000000000059
220
0.9205048534524403
230
0.3907311284892737
100
AcDbArc
 50
181.0000000000012
 51
195.4393555178322
  0
ARC
  5
8A9
330
1A
100
AcDbEntity
  8
1
 62
     8
100
AcDbCircle
 10
65.44978991585281
 20
-310.8233260990995
 30
548.4705545069735
 40
180.0
210
-0.0000000000000059
220
0.9205048534524403
230
0.3907311284892737
100
AcDbArc
 50
181.0000000000012
 51
195.4393555178322
  0
ARC
  5
8AA
330
1A
100
AcDbEntity
  8
1
 62
     8
100
AcDbCircle
 10
65.44978991585281
 20
-312.7769817415458
 30
553.0730787742357
 40
180.0
210
-0.0000000000000059
220
0.9205048534524403
230
0.3907311284892737
100
AcDbArc
 50
181.0000000000012
 51
195.4393555178322
  0
LINE
  5
8AB
330
1A
100
AcDbEntity
  8
1
 62
     8
100
AcDbLine
 10
272.806665985001
 20
663.5061704034535
 30
-147.6400705539569
 11
272.806665985001
 21
614.8601449065387
 31
-33.03721629912821
210
0.0000000000000005
220
0.9205048534524403
230
0.3907311284892737
  0
LINE
  5
8AC
330
1A
100
AcDbEntity
  8
1
 62
     8
100
AcDbLine
 10
272.306665985001
 20
663.5061704034543
 30
-147.6400705539588
 11
272.306665985001
 21
614.4694137780494
 31
-32.11671144567573
210
0.0000000000000005
220
0.9205048534524403
230
0.3907311284892737
  0
LINE
  5
8AD
330
1A
100
AcDbEntity
  8
1
 62
     8
100
AcDbLine
 10
272.8066737875295
 20
614.4694137780494
 30
-32.11671144567505
 11
272.8066737875278
 21
663.5061704034531
 31
-147.6400705539563
210
0.0000000000000005
220
0.9205048534524403
230
0.3907311284892737
  0
ARC
  5
8AE
330
1A
100
AcDbEntity
  8
1
100
AcDbCircle
 10
-550.0631218858586
 20
-308.0882081996743
 30
542.0270205328088
 40
180.0
210
0.0000000000000005
220
0.9205048534524403
230
0.3907311284892737
100
AcDbArc
 50
344.5606444821676
 51
358.9999999999988
  0
ARC
  5
8AF
330
1A
100
AcDbEntity
  8
1
 62
     8
100
AcDbCircle
 10
-550.0631218858586
 20
-310.43259497061
 30
547.5500496535232
 40
180.0
210
0.0000000000000005
220
0.9205048534524403
230
0.3907311284892737
100
AcDbArc
 50
344.5606444821676
 51
358.9999999999988
  0
ARC
  5
8B0
330
1A
100
AcDbEntity
  8
1
100
AcDbCircle
 10
65.44978991585281
 20
-308.0882081996745
 30
542.027020532807
 40
180.0
210
-0.0000000000000059
220
0.9205048534524403
230
0.3907311284892737
100
AcDbArc
 50
181.0000000000012
 51
195.4393555178322
  0
LINE
  5
8B1
330
1A
100
AcDbEntity
  8
1
 62
     8
100
AcDbLine
 10
268.806665985001
 20
671.1254274089943
 30
-165.5899151962796
 11
268.806665985001
 21
648.2676563923718
 31
-111.7403812693119
210
0.0000000000000005
220
0.9205048534524403
230
0.3907311284892737
  0
ARC
  5
8B3
330
1A
100
AcDbEntity
  8
1
 62
     8
100
AcDbCircle
 10
-356.3573985129004
 20
-414.6559162303153
 30
553.0730787742378
 40
7.0
210
0.0000000000000005
220
0.9205048534524403
230
0.3907311284892737
100
AcDbArc
 50
204.2650859026864
 51
270.0
  0
ARC
  5
8B4
330
1A
100
AcDbEntity
  8
1
 62
     8
100
AcDbCircle
 10
-275.8066659850014
 20
-419.6559162303154
 30
553.0730787742378
 40
2.0
210
0.0000000000000005
220
0.9205048534524403
230
0.3907311284892737
100
AcDbArc
 50
270.0
 51
0.0
  0
ARC
  5
8B5
330
1A
100
AcDbEntity
  8
1
 62
     8
100
AcDbCircle
 10
-355.1901501381106
 20
-409.6559162303151
 30
553.0730787742378
 40
16.0
210
0.0000000000000005
220
0.9205048534524403
230
0.3907311284892737
100
AcDbArc
 50
200.9248324276371
 51
270.0
  0
ARC
  5
8B6
330
1A
100
AcDbEntity
  8
1
 62
     8
100
AcDbCircle
 10
-261.8066659850014
 20
-414.6559162303153
 30
553.0730787742378
 40
7.0
210
0.0000000000000005
220
0.9205048534524403
230
0.3907311284892737
100
AcDbArc
 50
180.0
 51
270.0
  0
ARC
  5
8B8
330
1A
100
AcDbEntity
  8
1
 62
     8
100
AcDbCircle
 10
-129.4231818318919
 20
-409.6559162303154
 30
553.0730787742378
 40
16.0
210
0.0000000000000005
220
0.9205048534524403
230
0.3907311284892737
100
AcDbArc
 50
270.0
 51
339.0751675723628
  0
ARC
  5
8B9
330
1A
100
AcDbEntity
  8
1
 62
     8
100
AcDbCircle
 10
-129.4231818318919
 20
-409.6559162303154
 30
553.0730787742378
 40
12.0
210
0.0000000000000005
220
0.9205048534524403
230
0.3907311284892737
100
AcDbArc
 50
270.0
 51
339.0751675723638
  0
ARC
  5
8BB
330
1A
100
AcDbEntity
  8
1
100
AcDbCircle
 10
-355.1901501381106
 20
-409.6559162303151
 30
553.0730787742378
 40
20.0
210
0.0000000000000005
220
0.9205048534524403
230
0.3907311284892737
100
AcDbArc
 50
200.9248324276371
 51
270.0
  0
ARC
  5
8BC
330
1A
100
AcDbEntity
  8
1
100
AcDbCircle
 10
-129.4231818318919
 20
-409.6559162303154
 30
553.0730787742378
 40
20.0
210
0.0000000000000005
220
0.9205048534524403
230
0.3907311284892737
100
AcDbArc
 50
270.0
 51
339.0751675723628
  0
LINE
  5
8BD
330
1A
100
AcDbEntity
  8
1
 62
     8
100
AcDbLine
 10
355.1901501381111
 20
675.4234698223764
 30
-175.7154685842571
 11
129.4231818318912
 21
675.4234698223768
 31
-175.7154685842573
  0
LINE
  5
8BE
330
1A
100
AcDbEntity
  8
1
100
AcDbLine
 10
129.4231818318916
 20
676.9863943363342
 30
-179.3974879980673
 11
355.1901501381111
 21
676.9863943363336
 31
-179.3974879980661
210
0.0000000000000005
220
0.9205048534524403
230
0.3907311284892737
  0
LINE
  5
8BF
330
1A
100
AcDbEntity
  8
1
100
AcDbLine
 10
355.1901501381367
 20
676.9863943363336
 30
-179.3974879980661
 11
129.4231818318662
 21
676.9863943363342
 31
-179.3974879980673
210
0.0000000000000005
220
0.9205048534524403
230
0.3907311284892737
  0
LINE
  5
8C0
330
1A
100
AcDbEntity
  8
1
 62
     8
100
AcDbLine
 10
129.4231818318916
 20
673.8605453084201
 30
-172.0334491704476
 11
261.806665985001
 21
673.8605453084193
 31
-172.0334491704468
210
0.0000000000000005
220
0.9205048534524403
230
0.3907311284892737
  0
LINE
  5
8C2
330
1A
100
AcDbEntity
  8
1
100
AcDbLine
 10
284.8066659849968
 20
570.4111651417568
 30
-179.3974879980668
 11
284.8066659849968
 21
573.4111651417568
 31
-179.3974879980668
  0
LINE
  5
8C3
330
1A
100
AcDbEntity
  8
1
100
AcDbLine
 10
319.8066659850028
 20
570.4111310855117
 30
-179.3974879980668
 11
319.8066659850028
 21
573.4111310855118
 31
-179.3974879980668
  0
LINE
  5
8C4
330
1A
100
AcDbEntity
  8
1
 62
     8
100
AcDbLine
 10
275.8066659850014
 20
673.8605453084193
 30
-172.0334491704468
 11
356.357398512901
 21
673.8605453084193
 31
-172.0334491704468
210
0.0000000000000005
220
0.9205048534524403
230
0.3907311284892737
  0
LINE
  5
8C5
330
1A
100
AcDbEntity
  8
1
100
AcDbLine
 10
199.8066659850069
 20
570.4112478497799
 30
-179.3974879980668
 11
199.8066659850069
 21
573.41124784978
 31
-179.3974879980668
  0
LINE
  5
8C6
330
1A
100
AcDbEntity
  8
1
100
AcDbLine
 10
164.8066659850014
 20
570.4112819060251
 30
-179.3974879980668
 11
164.8066659850014
 21
573.4112819060251
 31
-179.3974879980668
  0
ARC
  5
8C7
330
1A
100
AcDbEntity
  8
1
100
AcDbCircle
 10
-194.806665985001
 20
-384.6559162303157
 30
553.0730787742378
 40
90.0
210
0.0000000000000005
220
0.9205048534524403
230
0.3907311284892737
100
AcDbArc
 50
339.0751675723606
 51
15.43935551783415
  0
ARC
  5
8C8
330
1A
100
AcDbEntity
  8
1
100
AcDbCircle
 10
-290.6600621280171
 20
-384.5399253467386
 30
553.0730787742378
 40
89.14660385698349
210
0.0000000000000005
220
0.9205048534524403
230
0.3907311284892737
100
AcDbArc
 50
164.4864865151915
 51
191.3970563212886
  0
ARC
  5
8C9
330
1A
100
AcDbEntity
  8
1
 62
     8
100
AcDbCircle
 10
-290.6433903884884
 20
-384.5421897958487
 30
553.0730787742378
 40
85.16327726379186
210
0.0000000000000005
220
0.9205048534524403
230
0.3907311284892737
100
AcDbArc
 50
164.4845354435436
 51
191.7987439427778
  0
LINE
  5
8CA
330
1A
100
AcDbEntity
  8
1
 62
     8
100
AcDbLine
 10
257.8066659849964
 20
667.9995783810792
 30
-158.2258763686576
 11
257.8066659849964
 21
649.6352153420832
 31
-114.9621482563929
210
0.0000000000000005
220
0.9205048534524403
230
0.3907311284892737
  0
LINE
  5
8CB
330
1A
100
AcDbEntity
  8
1
 62
     8
100
AcDbLine
 10
132.8066659849969
 20
667.9995783810794
 30
-158.2258763686576
 11
132.8066659849969
 21
649.6352153420835
 31
-114.9621482563932
210
0.0000000000000005
220
0.9205048534524403
230
0.3907311284892737
  0
ARC
  5
8CC
330
1A
100
AcDbEntity
  8
1
 62
     8
100
AcDbCircle
 10
-194.806665985001
 20
-384.6559162303157
 30
553.0730787742378
 40
86.0
210
0.0000000000000005
220
0.9205048534524403
230
0.3907311284892737
100
AcDbArc
 50
339.0751675723606
 51
15.43935551783415
  0
LINE
  5
8CD
330
1A
100
AcDbEntity
  8
1
 62
     8
100
AcDbLine
 10
132.8066659849969
 20
667.9995783810794
 30
-158.2258763686576
 11
257.8066659849964
 21
667.9995783810792
 31
-158.2258763686576
210
0.0000000000000005
220
0.9205048534524403
230
0.3907311284892737
  0
ARC
  5
8CE
330
1A
100
AcDbEntity
  8
1
 62
     8
100
AcDbCircle
 10
-289.8066659850007
 20
-384.6559162303157
 30
553.0730787742378
 40
86.0
210
0.0000000000000005
220
0.9205048534524403
230
0.3907311284892737
100
AcDbArc
 50
192.0814698847062
 51
200.924832427639
  0
ARC
  5
8CF
330
1A
100
AcDbEntity
  8
1
100
AcDbCircle
 10
-289.8066659850007
 20
-384.6559162303157
 30
553.0730787742378
 40
90.0
210
0.0000000000000005
220
0.9205048534524403
230
0.3907311284892737
100
AcDbArc
 50
191.5369590328148
 51
200.924832427639
  0
ARC
  5
8D0
330
1A
100
AcDbEntity
  8
1
 62
     8
100
AcDbCircle
 10
-280.8066659850014
 20
-416.1559162303154
 30
553.0730787742378
 40
7.0
210
0.0000000000000005
220
0.9205048534524403
230
0.3907311284892737
100
AcDbArc
 50
0.0
 51
90.0
  0
ARC
  5
8D1
330
1A
100
AcDbEntity
  8
1
 62
     8
100
AcDbCircle
 10
-289.8066659850007
 20
-384.6559162303157
 30
553.0730787742378
 40
80.0
210
0.0000000000000005
220
0.9205048534524403
230
0.3907311284892737
100
AcDbArc
 50
199.8612529467865
 51
204.2650859026834
  0
LINE
  5
8D2
330
1A
100
AcDbEntity
  8
1
 62
     8
100
AcDbLine
 10
273.806665985001
 20
673.0790830514409
 30
-170.1924394635418
 11
273.806665985001
 21
671.7115241017284
 31
-166.9706724764582
210
0.0000000000000005
220
0.9205048534524403
230
0.3907311284892737
  0
LINE
  5
8D3
330
1A
100
AcDbEntity
  8
1
 62
     8
100
AcDbLine
 10
280.806665985001
 20
668.9764062023033
 30
-160.5271385022913
 11
363.1670776523296
 21
668.9764062023033
 31
-160.5271385022913
210
0.0000000000000005
220
0.9205048534524403
230
0.3907311284892737
  0
ARC
  5
8D4
330
1A
100
AcDbEntity
  8
1
 62
     8
100
AcDbCircle
 10
-363.1670776523295
 20
-411.1559162303151
 30
553.0730787742378
 40
2.0
210
0.0000000000000005
220
0.9205048534524403
230
0.3907311284892737
100
AcDbArc
 50
90.0
 51
199.8612529468069
  0
ARC
  5
8D5
330
1A
100
AcDbEntity
  8
1
 62
     8
100
AcDbCircle
 10
-279.8066659850009
 20
-395.1559162303155
 30
553.0730787742378
 40
7.0
210
0.0000000000000005
220
0.9205048534524403
230
0.3907311284892737
100
AcDbArc
 50
270.0
 51
0.0
  0
ARC
  5
8D6
330
1A
100
AcDbEntity
  8
1
 62
     8
100
AcDbCircle
 10
-279.8066737875278
 20
-395.1559162303146
 30
553.0730787742378
 40
7.0
210
0.0000000000000005
220
0.9205048534524403
230
0.3907311284892737
100
AcDbArc
 50
270.0
 51
0.0000000000007994
  0
ARC
  5
8D7
330
1A
100
AcDbEntity
  8
1
 62
     8
100
AcDbCircle
 10
-279.8066659850009
 20
-395.1559162303163
 30
553.0730787742378
 40
7.5
210
0.0000000000000005
220
0.9205048534524403
230
0.3907311284892737
100
AcDbArc
 50
269.9999999999988
 51
0.0
  0
ARC
  5
8D8
330
1A
100
AcDbEntity
  8
1
 62
     8
100
AcDbCircle
 10
-289.8066659850007
 20
-384.6559162303157
 30
553.0730787742378
 40
89.0
210
0.0000000000000005
220
0.9205048534524403
230
0.3907311284892737
100
AcDbArc
 50
191.3399134476776
 51
191.668399496464
  0
LINE
  5
8D9
330
1A
100
AcDbEntity
  8
1
 62
     8
100
AcDbLine
 10
279.8066659850014
 20
666.4366538671234
 30
-154.543856954852
 11
377.9882967251956
 21
666.4366538671231
 31
-154.5438569548503
210
0.0000000000000005
220
0.9205048534524403
230
0.3907311284892737
  0
LINE
  5
8DA
330
1A
100
AcDbEntity
  8
1
 62
     8
100
AcDbLine
 10
279.806665985001
 20
666.2412883028784
 30
-154.083604528124
 11
377.0692009011945
 21
666.2412883028784
 31
-154.083604528124
210
0.0000000000000005
220
0.9205048534524403
230
0.3907311284892737
  0
LINE
  5
8DB
330
1A
100
AcDbEntity
  8
1
 62
     8
100
AcDbLine
 10
279.8066737875278
 20
666.241288302878
 30
-154.0836045281231
 11
378.048813374523
 21
666.241288302878
 31
-154.0836045281231
210
0.0000000000000005
220
0.9205048534524403
230
0.3907311284892737
  0
LINE
  5
8DC
330
1A
100
AcDbEntity
  8
1
 62
     8
100
AcDbLine
 10
132.8066659849969
 20
649.6352153420835
 30
-114.9621482563932
 11
257.8066659849964
 21
649.6352153420832
 31
-114.9621482563929
210
0.0000000000000005
220
0.9205048534524403
230
0.3907311284892737
  0
ARC
  5
8DD
330
1A
100
AcDbEntity
  8
1
 62
     8
100
AcDbCircle
 10
-290.6600621280171
 20
-382.5862697042923
 30
548.4705545069756
 40
89.14660385698349
210
0.0000000000000005
220
0.9205048534524403
230
0.3907311284892737
100
AcDbArc
 50
164.4864865151915
 51
180.0000000000001
  0
ARC
  5
8DE
330
1A
100
AcDbEntity
  8
1
100
AcDbCircle
 10
-290.6600621280171
 20
-379.8511518048673
 30
542.0270205328088
 40
89.14660385698349
210
0.0000000000000005
220
0.9205048534524403
230
0.3907311284892737
100
AcDbArc
 50
164.4864865151915
 51
180.0000000000001
  0
ARC
  5
8DF
330
1A
100
AcDbEntity
  8
1
 62
     8
100
AcDbCircle
 10
-290.6600621280171
 20
-382.1955385758029
 30
547.5500496535232
 40
89.14660385698349
210
0.0000000000000005
220
0.9205048534524403
230
0.3907311284892737
100
AcDbArc
 50
164.4864865151915
 51
180.0
  0
LINE
  5
8E0
330
1A
100
AcDbEntity
  8
1
100
AcDbLine
 10
379.8066659850007
 20
659.3581723054853
 30
-137.8679994214173
 11
379.8066659850007
 21
647.3581723054852
 31
-137.8679994214173
  0
LINE
  5
8E1
330
1A
100
AcDbEntity
  8
1
 62
     8
100
AcDbLine
 10
268.8067154655127
 20
652.1749676772643
 30
-120.9454298038362
 11
268.8067154655127
 21
652.7610643699992
 31
-122.3261870840167
210
0.0000000000000005
220
0.9205048534524403
230
0.3907311284892737
  0
ARC
  5
8E2
330
1A
100
AcDbEntity
  8
1
 62
     8
100
AcDbCircle
 10
-193.9532698419893
 20
-382.1955385758036
 30
547.5500496535213
 40
89.14660385698349
210
-0.0000000000000059
220
0.9205048534524403
230
0.3907311284892737
100
AcDbArc
 50
359.9999999999997
 51
15.51351348480847
  0
ARC
  5
8E3
330
1A
100
AcDbEntity
  8
1
 62
     8
100
AcDbCircle
 10
-193.9532698419893
 20
-382.5862697042927
 30
548.4705545069735
 40
89.14660385698349
210
-0.0000000000000059
220
0.9205048534524403
230
0.3907311284892737
100
AcDbArc
 50
359.9999999999997
 51
15.51351348480847
  0
ARC
  5
8E4
330
1A
100
AcDbEntity
  8
1
100
AcDbCircle
 10
-193.9532698419893
 20
-379.8511518048678
 30
542.027020532807
 40
89.14660385698349
210
-0.0000000000000059
220
0.9205048534524403
230
0.3907311284892737
100
AcDbArc
 50
359.9999999999997
 51
15.51351348480847
  0
LINE
  5
8E5
330
1A
100
AcDbEntity
  8
1
100
AcDbLine
 10
104.8066659850017
 20
659.358172305473
 30
-137.8679994214173
 11
104.8066659850017
 21
647.3581723054731
 31
-137.8679994214173
  0
DIMENSION
  5
8EF
330
1A
100
AcDbEntity
  8
MEASURE
100
AcDbDimension
  2
*D1
 10
596.7486146213341
 20
206.0053965633569
 30
0.0
 11
835.5289010327901
 21
215.5053965633569
 31
0.0
 70
    32
  1
（480）
  3
AD-STANDARD
100
AcDbAlignedDimension
 13
1074.309187444246
 23
660.3303267177157
 33
0.0
 14
596.7486146213341
 24
353.9112065768648
 34
0.0
100
AcDbRotatedDimension
1001
ACAD
1000
DSTYLE
1002
{
1070
   287
1070
     1
1070
   287
1070
     1
1070
    40
1040
5.0
1070
   140
1040
2.799999999999998
1070
   271
1070
     3
1070
   272
1070
     8
1070
   289
1070
     1
1002
}
  0
DIMENSION
  5
8F0
330
1A
100
AcDbEntity
  8
MEASURE
100
AcDbDimension
  2
*D2
 10
1163.499451644674
 20
678.1896868520408
 30
0.0
 11
1153.999451644673
 21
495.8004931339921
 31
0.0
 70
    32
  1
（365）
  3
AD-STANDARD
100
AcDbAlignedDimension
 13
811.7485708346713
 23
313.4112994159431
 33
0.0
 14
1062.681760948233
 24
678.1896868520408
 34
0.0
 50
90.0
100
AcDbRotatedDimension
1001
ACAD
1000
DSTYLE
1002
{
1070
   287
1070
     1
1070
   287
1070
     1
1070
    40
1040
5.0
1070
   140
1040
2.799999999999998
1070
   271
1070
     3
1070
   272
1070
     8
1070
   289
1070
     1
1002
}
  0
CIRCLE
  5
8F1
330
1A
100
AcDbEntity
  8
1
100
AcDbCircle
 10
1002.461682502346
 20
505.2902804315681
 30
0.0
 40
25.0
  0
CIRCLE
  5
8F2
330
1A
100
AcDbEntity
  8
1
 62
     8
100
AcDbCircle
 10
1002.461682502346
 20
505.2902804315681
 30
0.0
 40
24.5
  0
CIRCLE
  5
8F3
330
1A
100
AcDbEntity
  8
1
 62
     8
100
AcDbCircle
 10
1002.461682502346
 20
505.2902804315681
 30
0.0
 40
23.0
  0
LINE
  5
8F4
330
1A
100
AcDbEntity
  8
1
100
AcDbLine
 10
1035.304459164495
 20
567.2902561688329
 30
0.0
 11
1031.203550435597
 21
489.040256168827
 31
0.0
  0
LINE
  5
8F5
330
1A
100
AcDbEntity
  8
1
 62
     8
100
AcDbLine
 10
1034.443128723945
 20
565.1855842563409
 30
0.0
 11
1030.413215341638
 21
488.2902561688268
 31
0.0
  0
CIRCLE
  5
8F6
330
1A
100
AcDbEntity
  8
1
100
AcDbCircle
 10
1002.461682502346
 20
505.2902804315681
 30
0.0
 40
25.0
  0
LINE
  5
8F7
330
1A
100
AcDbEntity
  8
1
100
AcDbLine
 10
844.3124327140449
 20
345.290280358514
 30
0.0
 11
1023.811682422837
 21
345.2902804393879
 31
0.0
  0
LINE
  5
8F8
330
1A
100
AcDbEntity
  8
1
100
AcDbLine
 10
873.2365436651134
 20
330.2902803719883
 30
0.0
 11
1032.461682422836
 21
330.2902804419308
 31
0.0
  0
DIMENSION
  5
8F9
330
1A
100
AcDbEntity
  8
MEASURE
100
AcDbDimension
  2
*D3
 10
492.3100309477497
 20
413.9112065768593
 30
0.0
 11
482.8100309477497
 21
363.6612529964013
 31
0.0
 70
    32
  1
97～108
  3
AD-STANDARD
100
AcDbAlignedDimension
 13
631.7486580074317
 23
313.4112994159431
 33
0.0
 14
608.2486146213319
 24
413.9112065768593
 34
0.0
 50
90.0
100
AcDbRotatedDimension
1001
ACAD
1000
DSTYLE
1002
{
1070
   287
1070
     1
1070
   287
1070
     1
1070
    40
1040
5.0
1070
   140
1040
2.799999999999998
1070
   271
1070
     3
1070
   272
1070
     8
1070
   289
1070
     1
1002
}
  0
LINE
  5
8FC
330
1A
100
AcDbEntity
  8
1
100
AcDbLine
 10
642.9486850879913
 20
334.4112994159583
 30
0.0
 11
842.03038680486
 21
334.4112994159556
 31
0.0
  0
LINE
  5
8FD
330
1A
100
AcDbEntity
  8
1
100
AcDbLine
 10
608.2486146213332
 20
413.9112065768603
 30
0.0
 11
835.2486142207689
 21
413.9112065768758
 31
0.0
  0
LINE
  5
8FE
330
1A
100
AcDbEntity
  8
1
100
AcDbLine
 10
633.4349057021472
 20
334.4112994159486
 30
0.0
 11
828.748614335168
 21
334.4112994159559
 31
0.0
  0
LINE
  5
8FF
330
1A
100
AcDbEntity
  8
1
 62
     8
100
AcDbLine
 10
661.5058654029343
 20
319.411299415954
 30
0.0
 11
748.4349057021537
 21
319.411299415954
 31
0.0
  0
LINE
  5
900
330
1A
100
AcDbEntity
  8
1
100
AcDbLine
 10
596.7486146213341
 20
353.9112065768648
 30
0.0
 11
846.748614220769
 21
353.9112065768686
 31
0.0
  0
DIMENSION
  5
901
330
1A
100
AcDbEntity
  8
MEASURE
100
AcDbDimension
  2
*D4
 10
539.1168555245505
 20
413.9112065768603
 30
0.0
 11
529.6168555245505
 21
383.9112065768636
 31
0.0
 70
    32
  3
AD-STANDARD
100
AcDbAlignedDimension
 13
596.7486146213341
 23
353.9112065768668
 33
0.0
 14
608.2486146213332
 24
413.9112065768603
 34
0.0
 50
90.0
100
AcDbRotatedDimension
1001
ACAD
1000
DSTYLE
1002
{
1070
   287
1070
     1
1070
   287
1070
     1
1070
    40
1040
5.0
1070
   140
1040
2.799999999999998
1070
   271
1070
     3
1070
   272
1070
     8
1070
   289
1070
     1
1002
}
  0
ARC
  5
902
330
1A
100
AcDbEntity
  8
1
100
AcDbCircle
 10
608.2486146213332
 20
402.4112065768595
 30
0.0
 40
11.5
100
AcDbArc
 50
90.00000000000609
 51
180.0000000000076
  0
ARC
  5
903
330
1A
100
AcDbEntity
  8
1
100
AcDbCircle
 10
614.7486140671217
 20
342.411299415954
 30
0.0
 40
8.0
100
AcDbArc
 50
180.0
 51
270.0
  0
LINE
  5
904
330
1A
100
AcDbEntity
  8
1
100
AcDbLine
 10
601.7486580074319
 20
317.4112994159422
 30
0.0
 11
661.7486580074319
 21
317.4112994159431
 31
0.0
  0
LINE
  5
905
330
1A
100
AcDbEntity
  8
1
100
AcDbLine
 10
602.48265923512
 20
323.4112981874623
 30
0.0
 11
616.5965553431013
 21
326.4112994159422
 31
0.0
  0
ARC
  5
906
330
1A
100
AcDbEntity
  8
1
 62
     8
100
AcDbCircle
 10
605.7677549822018
 20
308.5461691300861
 30
0.0
 40
15.22412825367855
100
AcDbArc
 50
77.53263880813964
 51
102.4615338597444
  0
LINE
  5
907
330
1A
100
AcDbEntity
  8
1
100
AcDbLine
 10
606.7486140671217
 20
353.9112065768668
 30
0.0
 11
606.7486140671217
 21
342.411299415954
 31
0.0
  0
LINE
  5
908
330
1A
100
AcDbEntity
  8
1
100
AcDbLine
 10
602.4826298894339
 20
323.4116336101933
 30
0.0
 11
601.7514138290025
 21
317.456356700346
 31
0.0
  0
LINE
  5
909
330
1A
100
AcDbEntity
  8
1
100
AcDbLine
 10
596.7486146213332
 20
402.4112065768585
 30
0.0
 11
596.7486146213341
 21
353.9112065768668
 31
0.0
  0
LINE
  5
90A
330
1A
100
AcDbEntity
  8
1
 62
     8
100
AcDbLine
 10
639.2542115068981
 20
331.9057021101798
 30
0.0
 11
644.7486142011347
 21
326.411299415944
 31
0.0
  0
LINE
  5
90B
330
1A
100
AcDbEntity
  8
1
100
AcDbLine
 10
633.4349057021462
 20
334.4112994159448
 30
0.0
 11
614.7486140671226
 21
334.4112994159431
 31
0.0
  0
LINE
  5
90C
330
1A
100
AcDbEntity
  8
1
100
AcDbLine
 10
625.2486580074328
 20
334.4112994159431
 30
0.0
 11
638.2486580074328
 21
334.4112994159431
 31
0.0
  0
ARC
  5
90D
330
1A
100
AcDbEntity
  8
1
 62
     8
100
AcDbCircle
 10
631.7486580074328
 20
321.9918559995448
 30
0.0
 40
12.41944341639924
100
AcDbArc
 50
72.41204622600618
 51
107.5879537739937
  0
ARC
  5
90E
330
1A
100
AcDbEntity
  8
1
 62
     8
100
AcDbCircle
 10
625.2486580074328
 20
327.6210211241423
 30
0.0
 40
6.790278291800357
100
AcDbArc
 50
66.13507458395003
 51
90.0
  0
LINE
  5
90F
330
1A
100
AcDbEntity
  8
1
100
AcDbLine
 10
625.2486580074328
 20
334.4112994159431
 30
0.0
 11
624.2431045079674
 21
333.8307428323431
 31
0.0
  0
ARC
  5
910
330
1A
100
AcDbEntity
  8
1
 62
     8
100
AcDbCircle
 10
638.2486580074328
 20
327.6210211241423
 30
0.0
 40
6.790278291800357
100
AcDbArc
 50
90.0
 51
113.8649254160499
  0
LINE
  5
911
330
1A
100
AcDbEntity
  8
1
100
AcDbLine
 10
638.2486580074328
 20
334.4112994159431
 30
0.0
 11
639.2542115068981
 21
333.8307428323431
 31
0.0
  0
LINE
  5
912
330
1A
100
AcDbEntity
  8
1
100
AcDbLine
 10
625.2486580074319
 20
329.4112994159431
 30
0.0
 11
638.2486580074319
 21
329.4112994159431
 31
0.0
  0
ARC
  5
913
330
1A
100
AcDbEntity
  8
1
 62
     8
100
AcDbCircle
 10
631.7486580074317
 20
341.8307428323431
 30
0.0
 40
12.41944341639924
100
AcDbArc
 50
252.4120462260063
 51
287.5879537739937
  0
ARC
  5
914
330
1A
100
AcDbEntity
  8
1
 62
     8
100
AcDbCircle
 10
625.2486580074319
 20
336.2015777077439
 30
0.0
 40
6.790278291800357
100
AcDbArc
 50
270.0
 51
293.8649254160498
  0
LINE
  5
915
330
1A
100
AcDbEntity
  8
1
100
AcDbLine
 10
625.2486580074319
 20
329.4112994159431
 30
0.0
 11
624.2431045079666
 21
329.991855999543
 31
0.0
  0
ARC
  5
916
330
1A
100
AcDbEntity
  8
1
 62
     8
100
AcDbCircle
 10
638.2486580074319
 20
336.2015777077439
 30
0.0
 40
6.790278291800357
100
AcDbArc
 50
246.1350745839499
 51
270.0
  0
LINE
  5
917
330
1A
100
AcDbEntity
  8
1
100
AcDbLine
 10
638.2486580074319
 20
329.4112994159431
 30
0.0
 11
639.2542115068972
 21
329.991855999543
 31
0.0
  0
LINE
  5
918
330
1A
100
AcDbEntity
  8
1
100
AcDbLine
 10
624.2431045079674
 20
333.8307428323431
 30
0.0
 11
624.2431045079666
 21
329.991855999543
 31
0.0
  0
LINE
  5
919
330
1A
100
AcDbEntity
  8
1
 62
     8
100
AcDbLine
 10
627.9958812577006
 20
333.8307428323431
 30
0.0
 11
627.9958812577006
 21
329.9918559995449
 31
0.0
  0
LINE
  5
91A
330
1A
100
AcDbEntity
  8
1
 62
     8
100
AcDbLine
 10
635.501434757165
 20
333.8307428323431
 30
0.0
 11
635.5014347571641
 21
329.9918559995449
 31
0.0
  0
LINE
  5
91B
330
1A
100
AcDbEntity
  8
1
100
AcDbLine
 10
639.2542115068981
 20
333.8307428323431
 30
0.0
 11
639.2542115068972
 21
329.991855999543
 31
0.0
  0
LINE
  5
91C
330
1A
100
AcDbEntity
  8
1
 62
     8
100
AcDbLine
 10
609.0543919668707
 20
323.4112994159421
 30
0.0
 11
608.3125451089654
 21
317.4112994159422
 31
0.0
  0
LINE
  5
91D
330
1A
100
AcDbEntity
  8
1
 62
     8
100
AcDbLine
 10
613.0203742577041
 20
317.4112994159422
 30
0.0
 11
613.2696674375011
 21
323.4112994159421
 31
0.0
  0
LINE
  5
91E
330
1A
100
AcDbEntity
  8
1
 62
     8
100
AcDbLine
 10
628.4197200916914
 20
317.4112994159422
 30
0.0
 11
628.7680081375793
 21
323.4112994159421
 31
0.0
  0
LINE
  5
91F
330
1A
100
AcDbEntity
  8
1
 62
     8
100
AcDbLine
 10
635.0775959231722
 20
317.4112994159431
 30
0.0
 11
634.7293078772836
 21
323.4112994159431
 31
0.0
  0
LINE
  5
920
330
1A
100
AcDbEntity
  8
1
100
AcDbLine
 10
619.7486580074317
 20
326.4112994159422
 30
0.0
 11
621.748658007431
 21
329.4112994159422
 31
0.0
  0
ARC
  5
921
330
1A
100
AcDbEntity
  8
1
 62
     8
100
AcDbCircle
 10
611.1620297021864
 20
317.4039429408775
 30
0.0
 40
6.3663544232017
100
AcDbArc
 50
70.66694630462109
 51
109.3330536953833
  0
ARC
  5
922
330
1A
100
AcDbEntity
  8
1
 62
     8
100
AcDbCircle
 10
621.018837787542
 20
239.9557227225185
 30
0.0
 40
83.81457464156119
100
AcDbArc
 50
84.69507829858496
 51
95.30492170141597
  0
ARC
  5
923
330
1A
100
AcDbEntity
  8
1
 62
     8
100
AcDbCircle
 10
631.7486580074317
 20
311.2170874917456
 30
0.0
 40
12.55320987233474
100
AcDbArc
 50
76.26442995381562
 51
103.7355700461829
  0
ARC
  5
924
330
1A
100
AcDbEntity
  8
1
 62
     8
100
AcDbCircle
 10
657.729561032661
 20
308.546169130087
 30
0.0
 40
15.22412825367855
100
AcDbArc
 50
77.53846614025619
 51
102.4673611918609
  0
LINE
  5
925
330
1A
100
AcDbEntity
  8
1
100
AcDbLine
 10
661.0146567797427
 20
323.4112981874631
 30
0.0
 11
646.9007606717622
 21
326.4112994159432
 31
0.0
  0
LINE
  5
926
330
1A
100
AcDbEntity
  8
1
100
AcDbLine
 10
661.0146861254297
 20
323.4116336101942
 30
0.0
 11
661.7459021858612
 21
317.456356700346
 31
0.0
  0
ARC
  5
927
330
1A
100
AcDbEntity
  8
1
 62
     8
100
AcDbCircle
 10
652.3352863126764
 20
317.4039429408785
 30
0.0
 40
6.3663544232017
100
AcDbArc
 50
70.66694630461724
 51
109.3330536953795
  0
LINE
  5
928
330
1A
100
AcDbEntity
  8
1
100
AcDbLine
 10
643.7486580074319
 20
326.4112994159432
 30
0.0
 11
641.748658007431
 21
329.4112994159431
 31
0.0
  0
LINE
  5
929
330
1A
100
AcDbEntity
  8
1
 62
     8
100
AcDbLine
 10
650.4769417571597
 20
317.4112994159422
 30
0.0
 11
650.2276485773617
 21
323.4112994159431
 31
0.0
  0
LINE
  5
92A
330
1A
100
AcDbEntity
  8
1
 62
     8
100
AcDbLine
 10
654.442924047992
 20
323.4112994159431
 30
0.0
 11
655.1847709058984
 21
317.4112994159422
 31
0.0
  0
LINE
  5
92B
330
1A
100
AcDbEntity
  8
1
100
AcDbLine
 10
616.5965553430988
 20
326.4112994159422
 30
0.0
 11
646.9007606717596
 21
326.4112994159432
 31
0.0
  0
LINE
  5
92C
330
1A
100
AcDbEntity
  8
1
100
AcDbLine
 10
621.7486580074319
 20
329.4112994159422
 30
0.0
 11
641.748658007431
 21
329.4112994159431
 31
0.0
  0
ARC
  5
92D
330
1A
100
AcDbEntity
  8
1
 62
     8
100
AcDbCircle
 10
642.4784782273218
 20
239.9557227225185
 30
0.0
 40
83.81457464156119
100
AcDbArc
 50
84.69507829858375
 51
95.30492170141476
  0
ARC
  5
92E
330
1A
100
AcDbEntity
  8
1
100
AcDbCircle
 10
631.7486580074317
 20
325.4112994159431
 30
0.0
 40
12.0
100
AcDbArc
 50
228.1896851042221
 51
311.8103148957783
  0
LINE
  5
92F
330
1A
100
AcDbEntity
  8
1
100
AcDbLine
 10
639.7486580074319
 20
317.4112994159431
 30
0.0
 11
639.7486580074319
 21
316.4670275059433
 31
0.0
  0
LINE
  5
930
330
1A
100
AcDbEntity
  8
1
100
AcDbLine
 10
623.7486580074317
 20
317.4112994159422
 30
0.0
 11
623.7486580074317
 21
316.4670275059433
 31
0.0
  0
LINE
  5
931
330
1A
100
AcDbEntity
  8
1
 62
     8
100
AcDbLine
 10
623.7486580074317
 20
316.4670275059433
 30
0.0
 11
639.7486580074319
 21
316.4670275059433
 31
0.0
  0
ARC
  5
932
330
1A
100
AcDbEntity
  8
1
 62
     8
100
AcDbCircle
 10
846.5544571208541
 20
342.6112506159609
 30
0.0
 40
5.0
100
AcDbArc
 50
185.0000000000001
 51
270.0
  0
ARC
  5
933
330
1A
100
AcDbEntity
  8
1
100
AcDbCircle
 10
842.03038680486
 20
328.4112994159496
 30
0.0
 40
6.0
100
AcDbArc
 50
2.349097855641582
 51
90.0
  0
ARC
  5
934
330
1A
100
AcDbEntity
  8
1
100
AcDbCircle
 10
835.2486142207689
 20
402.411206576875
 30
0.0
 40
11.5
100
AcDbArc
 50
359.9999999999983
 51
89.99999999999998
  0
LINE
  5
935
330
1A
100
AcDbEntity
  8
1
100
AcDbLine
 10
819.2541243341365
 20
330.2902803482757
 30
0.0
 11
847.9583527555407
 21
330.2902803608846
 31
0.0
  0
LINE
  5
936
330
1A
100
AcDbEntity
  8
1
 62
     8
100
AcDbLine
 10
840.5467398882159
 20
353.9112065768684
 30
0.0
 11
841.5734836303952
 21
342.1754719022226
 31
0.0
  0
LINE
  5
937
330
1A
100
AcDbEntity
  8
1
100
AcDbLine
 10
836.748614335168
 20
353.9112065768668
 30
0.0
 11
836.748614335168
 21
342.4112994159559
 31
0.0
  0
ARC
  5
938
330
1A
100
AcDbEntity
  8
1
100
AcDbCircle
 10
828.748614335168
 20
342.4112994159559
 30
0.0
 40
8.0
100
AcDbArc
 50
270.0
 51
0.0
  0
LINE
  5
939
330
1A
100
AcDbEntity
  8
1
100
AcDbLine
 10
792.4616824307768
 20
330.2902803365058
 30
0.0
 11
804.2430173352059
 21
330.2902803416817
 31
0.0
  0
LINE
  5
93A
330
1A
100
AcDbEntity
  8
1
100
AcDbLine
 10
792.4616824307768
 20
330.2902803365058
 30
0.0
 11
792.4616824307768
 21
334.411299415955
 31
0.0
  0
LINE
  5
93B
330
1A
100
AcDbEntity
  8
1
100
AcDbLine
 10
818.2485708346701
 20
334.4112994159431
 30
0.0
 11
805.2485708346702
 21
334.4112994159431
 31
0.0
  0
ARC
  5
93C
330
1A
100
AcDbEntity
  8
1
 62
     8
100
AcDbCircle
 10
811.7485708346702
 20
321.9918559995448
 30
0.0
 40
12.41944341639924
100
AcDbArc
 50
72.41204622600628
 51
107.5879537739938
  0
ARC
  5
93D
330
1A
100
AcDbEntity
  8
1
 62
     8
100
AcDbCircle
 10
818.2485708346701
 20
327.6210211241423
 30
0.0
 40
6.790278291800357
100
AcDbArc
 50
90.0
 51
113.8649254160499
  0
LINE
  5
93E
330
1A
100
AcDbEntity
  8
1
100
AcDbLine
 10
818.2485708346701
 20
334.4112994159431
 30
0.0
 11
819.2541243341356
 21
333.8307428323431
 31
0.0
  0
ARC
  5
93F
330
1A
100
AcDbEntity
  8
1
 62
     8
100
AcDbCircle
 10
805.2485708346702
 20
327.6210211241423
 30
0.0
 40
6.790278291800357
100
AcDbArc
 50
66.13507458395004
 51
90.0
  0
LINE
  5
940
330
1A
100
AcDbEntity
  8
1
100
AcDbLine
 10
805.2485708346702
 20
334.4112994159431
 30
0.0
 11
804.243017335205
 21
333.8307428323431
 31
0.0
  0
LINE
  5
941
330
1A
100
AcDbEntity
  8
1
100
AcDbLine
 10
818.2485708346714
 20
329.4112994159431
 30
0.0
 11
805.2485708346711
 21
329.4112994159431
 31
0.0
  0
ARC
  5
942
330
1A
100
AcDbEntity
  8
1
 62
     8
100
AcDbCircle
 10
811.7485708346713
 20
341.8307428323431
 30
0.0
 40
12.41944341639924
100
AcDbArc
 50
252.412046226006
 51
287.5879537739936
  0
ARC
  5
943
330
1A
100
AcDbEntity
  8
1
 62
     8
100
AcDbCircle
 10
818.2485708346714
 20
336.2015777077439
 30
0.0
 40
6.790278291800357
100
AcDbArc
 50
246.1350745839499
 51
270.0
  0
LINE
  5
944
330
1A
100
AcDbEntity
  8
1
100
AcDbLine
 10
818.2485708346714
 20
329.4112994159431
 30
0.0
 11
819.2541243341365
 21
329.991855999543
 31
0.0
  0
ARC
  5
945
330
1A
100
AcDbEntity
  8
1
 62
     8
100
AcDbCircle
 10
805.2485708346711
 20
336.2015777077439
 30
0.0
 40
6.790278291800357
100
AcDbArc
 50
270.0
 51
293.8649254160498
  0
LINE
  5
946
330
1A
100
AcDbEntity
  8
1
100
AcDbLine
 10
805.2485708346711
 20
329.4112994159431
 30
0.0
 11
804.2430173352059
 21
329.991855999543
 31
0.0
  0
LINE
  5
947
330
1A
100
AcDbEntity
  8
1
100
AcDbLine
 10
819.2541243341356
 20
333.8307428323431
 30
0.0
 11
819.2541243341365
 21
329.991855999543
 31
0.0
  0
LINE
  5
948
330
1A
100
AcDbEntity
  8
1
 62
     8
100
AcDbLine
 10
815.5013475844024
 20
333.8307428323431
 30
0.0
 11
815.5013475844024
 21
329.9918559995449
 31
0.0
  0
LINE
  5
949
330
1A
100
AcDbEntity
  8
1
 62
     8
100
AcDbLine
 10
807.995794084938
 20
333.8307428323431
 30
0.0
 11
807.9957940849388
 21
329.9918559995449
 31
0.0
  0
LINE
  5
94A
330
1A
100
AcDbEntity
  8
1
100
AcDbLine
 10
804.243017335205
 20
333.8307428323431
 30
0.0
 11
804.2430173352059
 21
329.991855999543
 31
0.0
  0
LINE
  5
94B
330
1A
100
AcDbEntity
  8
1
100
AcDbLine
 10
841.7485708346713
 20
317.4112994159422
 30
0.0
 11
781.7485708346713
 21
317.4112994159431
 31
0.0
  0
LINE
  5
94C
330
1A
100
AcDbEntity
  8
1
100
AcDbLine
 10
841.0145696069831
 20
323.4112981874623
 30
0.0
 11
826.9006734990016
 21
326.4112994159422
 31
0.0
  0
ARC
  5
94D
330
1A
100
AcDbEntity
  8
1
 62
     8
100
AcDbCircle
 10
837.7294738599013
 20
308.546169130087
 30
0.0
 40
15.22412825367855
100
AcDbArc
 50
77.53846614025566
 51
102.4673611918601
  0
LINE
  5
94E
330
1A
100
AcDbEntity
  8
1
100
AcDbLine
 10
841.0145989526691
 20
323.4116336101933
 30
0.0
 11
841.7458150131006
 21
317.456356700346
 31
0.0
  0
LINE
  5
94F
330
1A
100
AcDbEntity
  8
1
 62
     8
100
AcDbLine
 10
834.4428368752323
 20
323.4112994159421
 30
0.0
 11
835.1846837331377
 21
317.4112994159422
 31
0.0
  0
LINE
  5
950
330
1A
100
AcDbEntity
  8
1
 62
     8
100
AcDbLine
 10
830.4768545843987
 20
317.4112994159422
 30
0.0
 11
830.227561404602
 21
323.4112994159421
 31
0.0
  0
LINE
  5
951
330
1A
100
AcDbEntity
  8
1
 62
     8
100
AcDbLine
 10
815.0775087504117
 20
317.4112994159422
 30
0.0
 11
814.7292207045238
 21
323.4112994159421
 31
0.0
  0
LINE
  5
952
330
1A
100
AcDbEntity
  8
1
 62
     8
100
AcDbLine
 10
808.4196329189307
 20
317.4112994159431
 30
0.0
 11
808.7679209648195
 21
323.4112994159431
 31
0.0
  0
LINE
  5
953
330
1A
100
AcDbEntity
  8
1
100
AcDbLine
 10
823.7485708346714
 20
326.4112994159422
 30
0.0
 11
821.7485708346721
 21
329.4112994159422
 31
0.0
  0
ARC
  5
954
330
1A
100
AcDbEntity
  8
1
 62
     8
100
AcDbCircle
 10
832.3351991399166
 20
317.4039429408785
 30
0.0
 40
6.3663544232017
100
AcDbArc
 50
70.66694630461666
 51
109.3330536953788
  0
ARC
  5
955
330
1A
100
AcDbEntity
  8
1
 62
     8
100
AcDbCircle
 10
822.4783910545621
 20
239.9557227225185
 30
0.0
 40
83.81457464156119
100
AcDbArc
 50
84.69507829858409
 51
95.30492170141494
  0
ARC
  5
956
330
1A
100
AcDbEntity
  8
1
 62
     8
100
AcDbCircle
 10
811.7485708346713
 20
311.2170874917456
 30
0.0
 40
12.55320987233474
100
AcDbArc
 50
76.26442995381703
 51
103.7355700461842
  0
ARC
  5
957
330
1A
100
AcDbEntity
  8
1
 62
     8
100
AcDbCircle
 10
785.7676678094422
 20
308.546169130087
 30
0.0
 40
15.22412825367855
100
AcDbArc
 50
77.5326388081391
 51
102.4615338597437
  0
LINE
  5
958
330
1A
100
AcDbEntity
  8
1
100
AcDbLine
 10
782.4825720623604
 20
323.4112981874631
 30
0.0
 11
796.5964681703407
 21
326.4112994159432
 31
0.0
  0
LINE
  5
959
330
1A
100
AcDbEntity
  8
1
100
AcDbLine
 10
782.4825427166733
 20
323.4116336101942
 30
0.0
 11
781.751326656242
 21
317.456356700346
 31
0.0
  0
ARC
  5
95A
330
1A
100
AcDbEntity
  8
1
 62
     8
100
AcDbCircle
 10
791.1619425294267
 20
317.4039429408785
 30
0.0
 40
6.3663544232017
100
AcDbArc
 50
70.66694630462054
 51
109.3330536953827
  0
LINE
  5
95B
330
1A
100
AcDbEntity
  8
1
100
AcDbLine
 10
799.7485708346713
 20
326.4112994159432
 30
0.0
 11
801.7485708346722
 21
329.4112994159431
 31
0.0
  0
LINE
  5
95C
330
1A
100
AcDbEntity
  8
1
 62
     8
100
AcDbLine
 10
793.0202870849435
 20
317.4112994159422
 30
0.0
 11
793.2695802647413
 21
323.4112994159431
 31
0.0
  0
LINE
  5
95D
330
1A
100
AcDbEntity
  8
1
 62
     8
100
AcDbLine
 10
789.0543047941109
 20
323.4112994159431
 30
0.0
 11
788.3124579362047
 21
317.4112994159422
 31
0.0
  0
LINE
  5
95E
330
1A
100
AcDbEntity
  8
1
100
AcDbLine
 10
826.9006734990043
 20
326.4112994159422
 30
0.0
 11
796.5964681703434
 21
326.4112994159432
 31
0.0
  0
LINE
  5
95F
330
1A
100
AcDbEntity
  8
1
100
AcDbLine
 10
821.7485708346712
 20
329.4112994159422
 30
0.0
 11
801.7485708346722
 21
329.4112994159431
 31
0.0
  0
ARC
  5
960
330
1A
100
AcDbEntity
  8
1
 62
     8
100
AcDbCircle
 10
801.0187506147811
 20
239.9557227225194
 30
0.0
 40
83.81457464156119
100
AcDbArc
 50
84.69507829858519
 51
95.30492170141622
  0
ARC
  5
961
330
1A
100
AcDbEntity
  8
1
100
AcDbCircle
 10
811.7485708346713
 20
325.4112994159431
 30
0.0
 40
12.0
100
AcDbArc
 50
228.1896851042215
 51
311.8103148957778
  0
LINE
  5
962
330
1A
100
AcDbEntity
  8
1
100
AcDbLine
 10
803.7485708346713
 20
317.4112994159431
 30
0.0
 11
803.7485708346713
 21
316.4670275059433
 31
0.0
  0
LINE
  5
963
330
1A
100
AcDbEntity
  8
1
100
AcDbLine
 10
819.7485708346713
 20
317.4112994159422
 30
0.0
 11
819.7485708346713
 21
316.4670275059433
 31
0.0
  0
LINE
  5
964
330
1A
100
AcDbEntity
  8
1
 62
     8
100
AcDbLine
 10
819.7485708346713
 20
316.4670275059433
 30
0.0
 11
803.7485708346713
 21
316.4670275059433
 31
0.0
  0
LINE
  5
965
330
1A
100
AcDbEntity
  8
1
 62
     8
100
AcDbLine
 10
764.4054684506317
 20
332.0681536654455
 30
0.0
 11
754.0917599516452
 21
321.7544451664607
 31
0.0
  0
ARC
  5
966
330
1A
100
AcDbEntity
  8
1
 62
     8
100
AcDbCircle
 10
770.0623227001225
 20
326.411299415954
 30
0.0
 40
8.0
100
AcDbArc
 50
89.99999999999998
 51
135.0000000000032
  0
ARC
  5
967
330
1A
100
AcDbEntity
  8
1
 62
     8
100
AcDbCircle
 10
748.4349057021537
 20
327.4112994159541
 30
0.0
 40
8.0
100
AcDbArc
 50
270.0
 51
314.9999999999936
  0
ARC
  5
968
330
1A
100
AcDbEntity
  8
1
100
AcDbCircle
 10
871.1779262985682
 20
328.4112994159647
 30
0.0
 40
2.0
100
AcDbArc
 50
270.0
 51
358.2418555684471
  0
ARC
  5
969
330
1A
100
AcDbEntity
  8
1
100
AcDbCircle
 10
873.0623259029632
 20
340.9112994159647
 30
0.0
 40
0.5
100
AcDbArc
 50
357.98352417602
 51
90.0
  0
LINE
  5
96A
330
1A
100
AcDbEntity
  8
1
100
AcDbLine
 10
873.1769847781201
 20
328.3499382284678
 30
0.0
 11
873.5620162780092
 21
340.8937059772353
 31
0.0
  0
ARC
  5
96B
330
1A
100
AcDbEntity
  8
1
100
AcDbCircle
 10
846.5544571208541
 20
342.6112506159595
 30
0.0
 40
2.0
100
AcDbArc
 50
184.9999999999999
 51
270.0
  0
LINE
  5
96C
330
1A
100
AcDbEntity
  8
1
100
AcDbLine
 10
843.5581994008456
 20
353.9112065768684
 30
0.0
 11
844.5620677246704
 21
342.4369391304641
 31
0.0
  0
LINE
  5
96D
330
1A
100
AcDbEntity
  8
1
 62
     8
100
AcDbLine
 10
848.0253446361848
 20
328.6572274554985
 30
0.0
 11
847.658028397458
 21
337.6112506159608
 31
0.0
  0
ARC
  5
96E
330
1A
100
AcDbEntity
  8
1
100
AcDbCircle
 10
850.0371153508368
 20
328.4112994159647
 30
0.0
 40
2.0
100
AcDbArc
 50
182.3490978556428
 51
270.0
  0
LINE
  5
96F
330
1A
100
AcDbEntity
  8
1
100
AcDbLine
 10
848.0387960737285
 20
328.3293234027816
 30
0.0
 11
848.0253446361848
 21
328.6572274554985
 31
0.0
  0
ARC
  5
970
330
1A
100
AcDbEntity
  8
1
100
AcDbCircle
 10
848.3519980974602
 20
340.6112506159613
 30
0.0
 40
0.8
100
AcDbArc
 50
90.0
 51
180.0000000001302
  0
LINE
  5
971
330
1A
100
AcDbEntity
  8
1
100
AcDbLine
 10
846.5544571208541
 20
340.6112506159595
 30
0.0
 11
847.5519980974599
 21
340.6112506159598
 31
0.0
  0
LINE
  5
972
330
1A
100
AcDbEntity
  8
1
 62
     8
100
AcDbLine
 10
846.5544571208541
 20
337.6112506159608
 30
0.0
 11
847.658028397458
 21
337.6112506159612
 31
0.0
  0
LINE
  5
973
330
1A
100
AcDbEntity
  8
1
100
AcDbLine
 10
850.0371153508368
 20
326.4112994159647
 30
0.0
 11
871.1779262985682
 21
326.4112994159647
 31
0.0
  0
LINE
  5
974
330
1A
100
AcDbEntity
  8
1
100
AcDbLine
 10
848.3519980974593
 20
341.4112994159647
 30
0.0
 11
873.0623259029632
 21
341.4112994159647
 31
0.0
  0
LINE
  5
975
330
1A
100
AcDbEntity
  8
1
100
AcDbLine
 10
846.748614220769
 20
402.4112065768758
 30
0.0
 11
846.7486142207736
 21
353.9112065768695
 31
0.0
  0
LINE
  5
978
330
1A
100
AcDbEntity
  8
1
100
AcDbLine
 10
1031.203550435597
 20
489.0402561688265
 30
0.0
 11
1030.413215341636
 21
488.2902561688268
 31
0.0
  0
LINE
  5
979
330
1A
100
AcDbEntity
  8
1
100
AcDbLine
 10
1030.413215341636
 20
488.2902561688268
 30
0.0
 11
1020.791962780241
 21
488.2902561688268
 31
0.0
  0
LINE
  5
97A
330
1A
100
AcDbEntity
  8
1
 62
     8
100
AcDbLine
 10
994.9902368590992
 20
479.9372795143945
 30
0.0
 11
1009.933128145594
 21
479.9372795143945
 31
0.0
  0
ELLIPSE
  5
97B
330
1A
100
AcDbEntity
  8
1
 62
     8
100
AcDbEllipse
 10
1002.461682502346
 20
479.9372795143945
 30
0.0
 11
-0.000000000000003
 21
11.60664886835364
 31
0.0
210
0.0
220
0.0
230
0.9999999999999998
 40
0.6437211746466295
 41
1.570796326794896
 42
4.712388980384688
  0
LINE
  5
97C
330
1A
100
AcDbEntity
  8
1
100
AcDbLine
 10
982.4616825023467
 20
480.2902804315681
 30
0.0
 11
981.1116825023471
 21
468.2902804315681
 31
0.0
  0
LINE
  5
97D
330
1A
100
AcDbEntity
  8
1
 62
     8
100
AcDbLine
 10
994.9902368591001
 20
481.612129420454
 30
0.0
 11
994.9902368591001
 21
479.9372795143926
 31
0.0
  0
LINE
  5
97E
330
1A
100
AcDbEntity
  8
1
100
AcDbLine
 10
982.4616825023458
 20
490.2902804315681
 30
0.0
 11
982.4616825023467
 21
480.2902804315681
 31
0.0
  0
LINE
  5
97F
330
1A
100
AcDbEntity
  8
1
100
AcDbLine
 10
1022.461682502346
 20
480.2902804315681
 30
0.0
 11
1023.811682502347
 21
468.2902804315681
 31
0.0
  0
LINE
  5
980
330
1A
100
AcDbEntity
  8
1
 62
     8
100
AcDbLine
 10
1009.933128145594
 20
481.4970511118862
 30
0.0
 11
1009.933128145594
 21
479.9372795143945
 31
0.0
  0
LINE
  5
981
330
1A
100
AcDbEntity
  8
1
100
AcDbLine
 10
1022.461682502346
 20
488.2902561688269
 30
0.0
 11
1022.461682502346
 21
480.2902804315681
 31
0.0
  0
ARC
  5
984
330
1A
100
AcDbEntity
  8
1
100
AcDbCircle
 10
1030.461682422836
 20
343.290280442382
 30
0.0
 40
2.0
100
AcDbArc
 50
359.9999999999956
 51
90.00000002581492
  0
LINE
  5
985
330
1A
100
AcDbEntity
  8
1
100
AcDbLine
 10
1032.461682422836
 20
343.290280442382
 30
0.0
 11
1032.461682422836
 21
330.2902804419308
 31
0.0
  0
LINE
  5
986
330
1A
100
AcDbEntity
  8
1
100
AcDbLine
 10
1023.811682422836
 20
345.2902804393861
 30
0.0
 11
1030.461682421935
 21
345.2902804423819
 31
0.0
  0
LINE
  5
987
330
1A
100
AcDbEntity
  8
1
100
AcDbLine
 10
1024.192545585604
 20
323.2060877154999
 30
0.0
 11
1027.461682422585
 21
319.4112994159613
 31
0.0
  0
LINE
  5
988
330
1A
100
AcDbEntity
  8
1
100
AcDbLine
 10
1027.961682422586
 20
319.4112994159613
 30
0.0
 11
996.9616824225868
 21
319.4112994159613
 31
0.0
  0
LINE
  5
989
330
1A
100
AcDbEntity
  8
1
100
AcDbLine
 10
1028.461682422584
 20
315.4112994159613
 30
0.0
 11
996.4616824225858
 21
315.4112994159613
 31
0.0
  0
LINE
  5
98A
330
1A
100
AcDbEntity
  8
1
100
AcDbLine
 10
1026.461682422586
 20
313.4112994159621
 30
0.0
 11
998.4616824225859
 21
313.4112994159613
 31
0.0
  0
LINE
  5
98B
330
1A
100
AcDbEntity
  8
1
 62
     8
100
AcDbLine
 10
1011.893941877422
 20
319.4112994159613
 30
0.0
 11
1011.893941877422
 21
315.4112994159613
 31
0.0
  0
LINE
  5
98C
330
1A
100
AcDbEntity
  8
1
 62
     8
100
AcDbLine
 10
1009.952591607162
 20
319.4112994159613
 30
0.0
 11
1009.952591607162
 21
315.4112994159613
 31
0.0
  0
LINE
  5
98D
330
1A
100
AcDbEntity
  8
1
 62
     8
100
AcDbLine
 10
1006.980936004147
 20
319.4112994159613
 30
0.0
 11
1006.980936004147
 21
315.4112994159613
 31
0.0
  0
LINE
  5
98E
330
1A
100
AcDbEntity
  8
1
 62
     8
100
AcDbLine
 10
1005.948105962868
 20
319.4112994159604
 30
0.0
 11
1005.948105962868
 21
315.4112994159613
 31
0.0
  0
LINE
  5
98F
330
1A
100
AcDbEntity
  8
1
 62
     8
100
AcDbLine
 10
1004.211682422585
 20
319.4112994159613
 30
0.0
 11
1004.211682422585
 21
315.4112994159613
 31
0.0
  0
LINE
  5
990
330
1A
100
AcDbEntity
  8
1
 62
     8
100
AcDbLine
 10
1003.338962969646
 20
319.4112994159613
 30
0.0
 11
1003.338962969646
 21
315.4112994159613
 31
0.0
  0
LINE
  5
991
330
1A
100
AcDbEntity
  8
1
 62
     8
100
AcDbLine
 10
1001.75928863038
 20
319.4112994159613
 30
0.0
 11
1001.75928863038
 21
315.4112994159613
 31
0.0
  0
LINE
  5
992
330
1A
100
AcDbEntity
  8
1
 62
     8
100
AcDbLine
 10
1001.128526592183
 20
319.4112994159613
 30
0.0
 11
1001.128526592183
 21
315.4112994159613
 31
0.0
  0
LINE
  5
993
330
1A
100
AcDbEntity
  8
1
 62
     8
100
AcDbLine
 10
999.7309360041493
 20
319.4112994159613
 30
0.0
 11
999.7309360041493
 21
315.4112994159613
 31
0.0
  0
LINE
  5
994
330
1A
100
AcDbEntity
  8
1
 62
     8
100
AcDbLine
 10
1008.841923502987
 20
319.4112994159613
 30
0.0
 11
1008.841923502987
 21
315.4112994159613
 31
0.0
  0
LINE
  5
995
330
1A
100
AcDbEntity
  8
1
 62
     8
100
AcDbLine
 10
997.2785422119459
 20
319.4112994159613
 30
0.0
 11
997.2785422119459
 21
315.4112994159613
 31
0.0
  0
LINE
  5
996
330
1A
100
AcDbEntity
  8
1
 62
     8
100
AcDbLine
 10
998.2152732867662
 20
319.4112994159604
 30
0.0
 11
998.2152732867673
 21
315.4112994159613
 31
0.0
  0
LINE
  5
997
330
1A
100
AcDbEntity
  8
1
 62
     8
100
AcDbLine
 10
1025.192428841022
 20
319.4112994159613
 30
0.0
 11
1025.192428841022
 21
315.4112994159613
 31
0.0
  0
LINE
  5
998
330
1A
100
AcDbEntity
  8
1
 62
     8
100
AcDbLine
 10
1023.794838252988
 20
319.4112994159613
 30
0.0
 11
1023.794838252988
 21
315.4112994159613
 31
0.0
  0
LINE
  5
999
330
1A
100
AcDbEntity
  8
1
 62
     8
100
AcDbLine
 10
1023.16407621479
 20
319.4112994159613
 30
0.0
 11
1023.164076214789
 21
315.4112994159613
 31
0.0
  0
LINE
  5
99A
330
1A
100
AcDbEntity
  8
1
 62
     8
100
AcDbLine
 10
1021.584401875525
 20
319.4112994159613
 30
0.0
 11
1021.584401875525
 21
315.4112994159613
 31
0.0
  0
LINE
  5
99B
330
1A
100
AcDbEntity
  8
1
 62
     8
100
AcDbLine
 10
1020.711682422586
 20
319.4112994159613
 30
0.0
 11
1020.711682422586
 21
315.4112994159613
 31
0.0
  0
LINE
  5
99C
330
1A
100
AcDbEntity
  8
1
 62
     8
100
AcDbLine
 10
1018.975258882303
 20
319.4112994159604
 30
0.0
 11
1018.975258882303
 21
315.4112994159613
 31
0.0
  0
LINE
  5
99D
330
1A
100
AcDbEntity
  8
1
 62
     8
100
AcDbLine
 10
1017.942428841023
 20
319.4112994159613
 30
0.0
 11
1017.942428841023
 21
315.4112994159613
 31
0.0
  0
LINE
  5
99E
330
1A
100
AcDbEntity
  8
1
 62
     8
100
AcDbLine
 10
1016.081441342183
 20
319.4112994159613
 30
0.0
 11
1016.081441342183
 21
315.4112994159613
 31
0.0
  0
LINE
  5
99F
330
1A
100
AcDbEntity
  8
1
 62
     8
100
AcDbLine
 10
1013.029422967748
 20
319.4112994159613
 30
0.0
 11
1013.029422967748
 21
315.4112994159613
 31
0.0
  0
LINE
  5
9A0
330
1A
100
AcDbEntity
  8
1
 62
     8
100
AcDbLine
 10
1014.970773238009
 20
319.4112994159613
 30
0.0
 11
1014.970773238009
 21
315.4112994159613
 31
0.0
  0
LINE
  5
9A1
330
1A
100
AcDbEntity
  8
1
100
AcDbLine
 10
1008.461682422586
 20
327.4112994159612
 30
0.0
 11
1005.961682422584
 21
327.4112994159612
 31
0.0
  0
LINE
  5
9A2
330
1A
100
AcDbEntity
  8
1
100
AcDbLine
 10
1008.461682422585
 20
327.4112994159612
 30
0.0
 11
1008.461682422585
 21
330.2902804313879
 31
0.0
  0
LINE
  5
9A3
330
1A
100
AcDbEntity
  8
1
100
AcDbLine
 10
1016.461682422586
 20
330.2902804349022
 30
0.0
 11
1016.461682422586
 21
327.4112994159612
 31
0.0
  0
LINE
  5
9A4
330
1A
100
AcDbEntity
  8
1
 62
     8
100
AcDbLine
 10
1009.138214922585
 20
327.4112994159612
 30
0.0
 11
1009.138214922585
 21
330.2902804316853
 31
0.0
  0
LINE
  5
9A5
330
1A
100
AcDbEntity
  8
1
 62
     8
100
AcDbLine
 10
1015.785149922586
 20
327.4112994159612
 30
0.0
 11
1015.785149922586
 21
330.2902804346048
 31
0.0
  0
ARC
  5
9A6
330
1A
100
AcDbEntity
  8
1
100
AcDbCircle
 10
996.9616824225868
 20
318.9112994159613
 30
0.0
 40
0.5
100
AcDbArc
 50
89.99999999999998
 51
180.0
  0
ARC
  5
9A7
330
1A
100
AcDbEntity
  8
1
100
AcDbCircle
 10
1000.066455420735
 20
323.9534970341829
 30
0.0
 40
1.0
100
AcDbArc
 50
311.6335393365702
 51
345.9637565320621
  0
ARC
  5
9A8
330
1A
100
AcDbEntity
  8
1
100
AcDbCircle
 10
1024.856909424433
 20
323.9534970341836
 30
0.0
 40
1.0
100
AcDbArc
 50
194.0362434679225
 51
228.3664606634296
  0
ARC
  5
9A9
330
1A
100
AcDbEntity
  8
1
100
AcDbCircle
 10
1022.180906016181
 20
326.4112994159613
 30
0.0
 40
1.0
100
AcDbArc
 50
14.03624346792646
 51
89.99999999999998
  0
ARC
  5
9AA
330
1A
100
AcDbEntity
  8
1
100
AcDbCircle
 10
1002.74245882899
 20
326.4112994159613
 30
0.0
 40
1.0
100
AcDbArc
 50
89.99999999999998
 51
165.9637565320734
  0
ARC
  5
9AB
330
1A
100
AcDbEntity
  8
1
100
AcDbCircle
 10
998.4616824225859
 20
314.4112994159613
 30
0.0
 40
1.0
100
AcDbArc
 50
180.0
 51
270.0000000000017
  0
LINE
  5
9AC
330
1A
100
AcDbEntity
  8
1
100
AcDbLine
 10
997.461682422586
 20
315.4112994159613
 30
0.0
 11
997.461682422586
 21
314.4112994159613
 31
0.0
  0
LINE
  5
9AD
330
1A
100
AcDbEntity
  8
1
100
AcDbLine
 10
1000.730819259564
 20
323.206087715499
 30
0.0
 11
997.461682422586
 21
319.4112994159613
 31
0.0
  0
LINE
  5
9AE
330
1A
100
AcDbEntity
  8
1
100
AcDbLine
 10
1001.772316328845
 20
326.6538350409973
 30
0.0
 11
1001.036597920881
 21
323.7109614091459
 31
0.0
  0
LINE
  5
9AF
330
1A
100
AcDbEntity
  8
1
100
AcDbLine
 10
1023.151048516327
 20
326.6538350409973
 30
0.0
 11
1023.886766924289
 21
323.7109614091476
 31
0.0
  0
LINE
  5
9B0
330
1A
100
AcDbEntity
  8
1
 62
     8
100
AcDbLine
 10
1023.961682422585
 20
323.4112994159612
 30
0.0
 11
1000.961682422585
 21
323.4112994159612
 31
0.0
  0
LINE
  5
9B1
330
1A
100
AcDbEntity
  8
1
100
AcDbLine
 10
996.4616824225869
 20
318.9112994159613
 30
0.0
 11
996.4616824225869
 21
315.4112994159613
 31
0.0
  0
LINE
  5
9B2
330
1A
100
AcDbEntity
  8
1
100
AcDbLine
 10
1022.180906016181
 20
327.4112994159612
 30
0.0
 11
1002.74245882899
 21
327.4112994159612
 31
0.0
  0
LINE
  5
9B3
330
1A
100
AcDbEntity
  8
1
 62
     8
100
AcDbLine
 10
1026.708091558405
 20
319.4112994159604
 30
0.0
 11
1026.708091558404
 21
315.4112994159613
 31
0.0
  0
LINE
  5
9B4
330
1A
100
AcDbEntity
  8
1
 62
     8
100
AcDbLine
 10
1027.644822633224
 20
319.4112994159613
 30
0.0
 11
1027.644822633224
 21
315.4112994159613
 31
0.0
  0
ARC
  5
9B5
330
1A
100
AcDbEntity
  8
1
100
AcDbCircle
 10
1027.961682422586
 20
318.9112994159613
 30
0.0
 40
0.5
100
AcDbArc
 50
0.0
 51
89.99999999999998
  0
ARC
  5
9B6
330
1A
100
AcDbEntity
  8
1
100
AcDbCircle
 10
1026.461682422586
 20
314.4112994159621
 30
0.0
 40
1.0
100
AcDbArc
 50
270.0
 51
0.0
  0
LINE
  5
9B7
330
1A
100
AcDbEntity
  8
1
100
AcDbLine
 10
1027.461682422585
 20
315.4112994159613
 30
0.0
 11
1027.461682422585
 21
314.4112994159621
 31
0.0
  0
LINE
  5
9B8
330
1A
100
AcDbEntity
  8
1
100
AcDbLine
 10
1028.461682422584
 20
318.9112994159613
 30
0.0
 11
1028.461682422584
 21
315.4112994159613
 31
0.0
  0
LINE
  5
9B9
330
1A
100
AcDbEntity
  8
1
100
AcDbLine
 10
981.1116825023471
 20
468.2902804315681
 30
0.0
 11
981.1116824228374
 21
345.2902804201484
 31
0.0
  0
LINE
  5
9BA
330
1A
100
AcDbEntity
  8
1
100
AcDbLine
 10
1023.811682502347
 20
468.2902804315681
 30
0.0
 11
1023.811682422836
 21
345.2902804393861
 31
0.0
  0
ARC
  5
9EE
330
1A
100
AcDbEntity
  8
1
 62
     8
100
AcDbCircle
 10
-146.3066659850006
 20
-299.9059162303137
 30
553.0730787742378
 40
20.0
210
0.0000000000000005
220
0.9205048534524403
230
0.3907311284892737
100
AcDbArc
 50
0.0
 51
90.0
  0
LINE
  5
9F0
330
1A
100
AcDbEntity
  8
1
 62
     8
100
AcDbLine
 10
262.8066659849991
 20
637.3271847946722
 30
-85.96624537264348
 11
262.8066659849991
 21
619.2558701020439
 31
-43.39289590047008
210
0.0000000000000005
220
0.9205048534524403
230
0.3907311284892737
  0
LINE
  5
9F2
330
1A
100
AcDbEntity
  8
1
 62
     8
100
AcDbLine
 10
262.8066659850005
 20
637.4248675767947
 30
-86.19637158600722
 11
262.8066659850005
 21
619.2558701020438
 31
-43.39289590046861
210
0.0000000000000005
220
0.9205048534524403
230
0.3907311284892737
  0
ARC
  5
9F3
330
1A
100
AcDbEntity
  8
1
 62
     8
100
AcDbCircle
 10
-144.855751984952
 20
-303.77442031712
 30
553.0730787742378
 40
26.1185502118284
210
0.0000000000000005
220
0.9205048534524403
230
0.3907311284892737
100
AcDbArc
 50
0.2626104772850812
 51
89.89232088829098
  0
ARC
  5
9F4
330
1A
100
AcDbEntity
  8
1
 62
     8
100
AcDbCircle
 10
-339.8758622624331
 20
-303.6546287741161
 30
553.0730787742378
 40
26.0
210
0.0000000000000005
220
0.9205048534524403
230
0.3907311284892737
100
AcDbArc
 50
89.42981080968911
 51
179.9999999999963
  0
ARC
  5
9F5
330
1A
100
AcDbEntity
  8
1
 62
     8
100
AcDbCircle
 10
-339.8021039462086
 20
-299.6559162303151
 30
553.0730787742378
 40
30.0
210
0.0000000000000005
220
0.9205048534524403
230
0.3907311284892737
100
AcDbArc
 50
90.0
 51
178.9999999999897
  0
ARC
  5
9F7
330
1A
100
AcDbEntity
  8
1
 62
     8
100
AcDbCircle
 10
-339.8021019574673
 20
-298.8744160951195
 30
551.2319798318458
 40
30.0
210
0.0000000000000005
220
0.9205048534524403
230
0.3907311284892737
100
AcDbArc
 50
89.9998541952039
 51
178.9999999999897
  0
ARC
  5
9F8
330
1A
100
AcDbEntity
  8
1
 62
     8
100
AcDbCircle
 10
-144.8112300125385
 20
-298.8744160951198
 30
551.231979831844
 40
30.0
210
-0.0000000000000059
220
0.9205048534524403
230
0.3907311284892737
100
AcDbArc
 50
1.000000000010224
 51
90.00014580479605
  0
ARC
  5
9F9
330
1A
100
AcDbEntity
  8
1
 62
     8
100
AcDbCircle
 10
-144.8112309347489
 20
-298.4836838365458
 30
550.3114723160791
 40
30.0
210
-0.0000000000000059
220
0.9205048534524403
230
0.3907311284892737
100
AcDbArc
 50
1.000000000010224
 51
90.00013523002953
  0
ARC
  5
9FA
330
1A
100
AcDbEntity
  8
1
 62
     8
100
AcDbCircle
 10
-144.8112280237973
 20
-299.6559162303151
 30
553.0730787742357
 40
30.0
210
-0.0000000000000059
220
0.9205048534524403
230
0.3907311284892737
100
AcDbArc
 50
1.000000000010224
 51
90.0
  0
ARC
  5
9FB
330
1A
100
AcDbEntity
  8
1
 62
     8
100
AcDbCircle
 10
-144.8112320011978
 20
-293.4041746003632
 30
538.3448984647948
 40
30.0
210
-0.0000000000000059
220
0.9205048534524403
230
0.3907311284892737
100
AcDbArc
 50
7.256229116904332
 51
90.00014580479669
  0
ARC
  5
9FC
330
1A
100
AcDbEntity
  8
1
 62
     8
100
AcDbCircle
 10
-144.8112298299975
 20
-294.2801894469214
 30
540.4086601135555
 40
30.0
210
-0.0000000000000059
220
0.9205048534524403
230
0.3907311284892737
100
AcDbArc
 50
7.256229116904332
 51
90.00014580479669
  0
ARC
  5
9FD
330
1A
100
AcDbEntity
  8
1
 62
     8
100
AcDbCircle
 10
-339.8021021400089
 20
-294.2801894469214
 30
540.4086601135572
 40
30.0
210
0.0000000000000005
220
0.9205048534524403
230
0.3907311284892737
100
AcDbArc
 50
89.99985419520328
 51
172.7437708830955
  0
ARC
  5
9FE
330
1A
100
AcDbEntity
  8
1
 62
     8
100
AcDbCircle
 10
-339.8020999688081
 20
-293.4041746003632
 30
538.3448984647968
 40
30.0
210
0.0000000000000005
220
0.9205048534524403
230
0.3907311284892737
100
AcDbArc
 50
89.99985419520328
 51
172.7437708830955
  0
LINE
  5
9FF
330
1A
100
AcDbEntity
  8
1
100
AcDbLine
 10
369.5618366780658
 20
608.7106759498745
 30
-46.82020369889589
 11
370.0905367577096
 21
620.545612090091
 31
-74.70156600419797
210
0.0000000000000005
220
0.9205048534524403
230
0.3907311284892737
  0
ARC
  5
A00
330
1A
100
AcDbEntity
  8
1
 62
     8
100
AcDbCircle
 10
-339.8021010352574
 20
-298.4836838365458
 30
550.3114723160811
 40
30.0
210
0.0000000000000005
220
0.9205048534524403
230
0.3907311284892737
100
AcDbArc
 50
89.99986476997042
 51
178.9999999999897
  0
LINE
  5
A01
330
1A
100
AcDbEntity
  8
1
100
AcDbLine
 10
115.0514952919365
 20
608.7106759498737
 30
-46.82020369889589
 11
114.5227952122927
 21
620.5456120900902
 31
-74.70156600419797
210
-0.0000000000000059
220
0.9205048534524403
230
0.3907311284892737
  0
LINE
  5
A03
330
1A
100
AcDbEntity
  8
1
 62
     8
100
AcDbLine
 10
126.3066659850014
 20
637.3271847946721
 30
-85.96624537264302
 11
126.3066659849996
 21
626.2890304148505
 31
-59.96198326261241
210
0.0000000000000005
220
0.9205048534524403
230
0.3907311284892737
  0
LINE
  5
A04
330
1A
100
AcDbEntity
  8
1
 62
     8
100
AcDbLine
 10
126.3066659850028
 20
637.4248675767943
 30
-86.19637158600566
 11
126.3066659850009
 21
626.2890304148498
 31
-59.96198326261084
210
0.0000000000000005
220
0.9205048534524403
230
0.3907311284892737
  0
POLYLINE
  5
A05
330
1A
100
AcDbEntity
  8
1
 62
     8
100
AcDb2dPolyline
 66
     1
 10
0.0
 20
0.0
 30
547.0467336881434
 70
     1
210
0.0000000000000005
220
0.9205048534524403
230
0.3907311284892737
  0
VERTEX
  5
1528
330
A05
100
AcDbEntity
  8
1
 62
     8
100
AcDbVertex
100
AcDb2dVertex
 10
-237.3066659850004
 20
-325.7524406330992
 30
547.0467336881434
  0
VERTEX
  5
1529
330
A05
100
AcDbEntity
  8
1
 62
     8
100
AcDbVertex
100
AcDb2dVertex
 10
-252.3066659850005
 20
-325.7524406330992
 30
547.0467336881434
 42
0.4142135623730951
  0
VERTEX
  5
152A
330
A05
100
AcDbEntity
  8
1
 62
     8
100
AcDbVertex
100
AcDb2dVertex
 10
-254.3066659850004
 20
-327.7524406330996
 30
547.0467336881434
  0
VERTEX
  5
152B
330
A05
100
AcDbEntity
  8
1
 62
     8
100
AcDbVertex
100
AcDb2dVertex
 10
-254.3066659850004
 20
-335.7524406330993
 30
547.0467336881434
 42
0.4142135623730951
  0
VERTEX
  5
152C
330
A05
100
AcDbEntity
  8
1
 62
     8
100
AcDbVertex
100
AcDb2dVertex
 10
-252.3066659850005
 20
-337.7524406330995
 30
547.0467336881434
  0
VERTEX
  5
152D
330
A05
100
AcDbEntity
  8
1
 62
     8
100
AcDbVertex
100
AcDb2dVertex
 10
-237.3066659850004
 20
-337.7524406330995
 30
547.0467336881434
 42
0.4142135623730951
  0
VERTEX
  5
152E
330
A05
100
AcDbEntity
  8
1
 62
     8
100
AcDbVertex
100
AcDb2dVertex
 10
-235.3066659850004
 20
-335.7524406330991
 30
547.0467336881434
  0
VERTEX
  5
152F
330
A05
100
AcDbEntity
  8
1
 62
     8
100
AcDbVertex
100
AcDb2dVertex
 10
-235.3066659850004
 20
-327.7524406330996
 30
547.0467336881434
 42
0.4142135623730984
  0
SEQEND
  5
1530
330
A05
100
AcDbEntity
  8
1
 62
     8
  0
LINE
  5
A06
330
1A
100
AcDbEntity
  8
1
 62
     8
100
AcDbLine
 10
128.3066659849996
 20
638.8901093086292
 30
-89.64826478645273
 11
260.8066659849991
 21
638.8901093086293
 31
-89.64826478645342
210
0.0000000000000005
220
0.9205048534524403
230
0.3907311284892737
  0
LINE
  5
A07
330
1A
100
AcDbEntity
  8
1
 62
     8
100
AcDbLine
 10
128.3066659850014
 20
638.1086470516508
 30
-87.80725507954777
 11
260.8066659849991
 21
638.1086470516508
 31
-87.80725507954846
210
0.0000000000000005
220
0.9205048534524403
230
0.3907311284892737
  0
LINE
  5
A09
330
1A
100
AcDbEntity
  8
1
 62
     8
100
AcDbLine
 10
128.3066659850028
 20
638.206329833773
 30
-88.0373812929106
 11
260.8066659850005
 21
638.2063298337732
 31
-88.03738129291197
210
0.0000000000000005
220
0.9205048534524403
230
0.3907311284892737
  0
LINE
  5
A0A
330
1A
100
AcDbEntity
  8
1
 62
     8
100
AcDbLine
 10
128.8691956058613
 20
645.5325384929468
 30
-105.2968472951442
 11
261.806665985001
 21
645.5325384929467
 31
-105.2968472951447
210
0.0000000000000005
220
0.9205048534524403
230
0.3907311284892737
  0
LINE
  5
A0C
330
1A
100
AcDbEntity
  8
1
 62
     8
100
AcDbLine
 10
128.3066659849996
 20
644.7510762359684
 30
-103.4558375882392
 11
260.806665985001
 21
644.7510762359677
 31
-103.455837588238
210
0.0000000000000005
220
0.9205048534524403
230
0.3907311284892737
  0
LINE
  5
A0D
330
1A
100
AcDbEntity
  8
1
 62
     8
100
AcDbLine
 10
262.8066659849991
 20
639.671571565608
 30
-91.48927449335815
 11
262.806665985001
 21
643.9696139789893
 31
-101.6148278813334
210
0.0000000000000005
220
0.9205048534524403
230
0.3907311284892737
  0
ARC
  5
A0E
330
1A
100
AcDbEntity
  8
1
 62
     8
100
AcDbCircle
 10
-297.8066737875282
 20
-342.1559162303148
 30
553.0730787742378
 40
1.0
210
0.0000000000000005
220
0.9205048534524403
230
0.3907311284892737
100
AcDbArc
 50
270.0
 51
90.0
  0
ARC
  5
A0F
330
1A
100
AcDbEntity
  8
1
 62
     8
100
AcDbCircle
 10
-360.9941737875286
 20
-342.1559162303147
 30
553.0730787742378
 40
1.0
210
0.0000000000000005
220
0.9205048534524403
230
0.3907311284892737
100
AcDbArc
 50
90.0
 51
270.0
  0
ARC
  5
A10
330
1A
100
AcDbEntity
  8
1
 62
     8
100
AcDbCircle
 10
-361.3066737875286
 20
-349.1559162303148
 30
553.0730787742378
 40
1.0
210
0.0000000000000005
220
0.9205048534524403
230
0.3907311284892737
100
AcDbArc
 50
90.0
 51
270.0
  0
ARC
  5
A11
330
1A
100
AcDbEntity
  8
1
 62
     8
100
AcDbCircle
 10
-261.806665985001
 20
-356.1559162303157
 30
553.0730787742378
 40
7.0
210
0.0000000000000005
220
0.9205048534524403
230
0.3907311284892737
100
AcDbArc
 50
90.0
 51
180.0
  0
ARC
  5
A13
330
1A
100
AcDbEntity
  8
1
 62
     8
100
AcDbCircle
 10
-297.8066737875282
 20
-349.1559162303148
 30
553.0730787742378
 40
1.0
210
0.0000000000000005
220
0.9205048534524403
230
0.3907311284892737
100
AcDbArc
 50
270.0
 51
90.0
  0
LINE
  5
A14
330
1A
100
AcDbEntity
  8
1
 62
     8
100
AcDbLine
 10
297.8066737875283
 20
645.923269621436
 30
-106.2173521485963
 11
361.3066737875283
 21
645.923269621436
 31
-106.2173521485963
210
0.0000000000000005
220
0.9205048534524403
230
0.3907311284892737
  0
LINE
  5
A15
330
1A
100
AcDbEntity
  8
1
 62
     8
100
AcDbLine
 10
297.8066737875283
 20
643.188151722011
 30
-99.77381817442939
 11
360.9941737875283
 21
643.188151722011
 31
-99.77381817442939
210
0.0000000000000005
220
0.9205048534524403
230
0.3907311284892737
  0
LINE
  5
A16
330
1A
100
AcDbEntity
  8
1
 62
     8
100
AcDbLine
 10
297.8066737875283
 20
645.1418073644575
 30
-104.3763424416914
 11
361.3066737875283
 21
645.1418073644575
 31
-104.3763424416914
210
0.0000000000000005
220
0.9205048534524403
230
0.3907311284892737
  0
ARC
  5
A17
330
1A
100
AcDbEntity
  8
1
 62
     8
100
AcDbCircle
 10
-260.806665985001
 20
-345.155916230314
 30
553.0730787742378
 40
2.0
210
0.0000000000000005
220
0.9205048534524403
230
0.3907311284892737
100
AcDbArc
 50
180.0
 51
270.0000000000005
  0
ARC
  5
A18
330
1A
100
AcDbEntity
  8
1
 62
     8
100
AcDbCircle
 10
-360.6816737875291
 20
-335.1559162303146
 30
553.0730787742378
 40
1.0
210
0.0000000000000005
220
0.9205048534524403
230
0.3907311284892737
100
AcDbArc
 50
90.0
 51
270.0
  0
ARC
  5
A19
330
1A
100
AcDbEntity
  8
1
 62
     8
100
AcDbCircle
 10
-297.8066737875282
 20
-335.1559162303148
 30
553.0730787742378
 40
1.0
210
0.0000000000000005
220
0.9205048534524403
230
0.3907311284892737
100
AcDbArc
 50
270.0
 51
90.0
  0
LINE
  5
A1A
330
1A
100
AcDbEntity
  8
1
 62
     8
100
AcDbLine
 10
297.8066737875283
 20
640.453033822586
 30
-93.33028420026222
 11
360.6816737875286
 21
640.453033822586
 31
-93.33028420026222
210
0.0000000000000005
220
0.9205048534524403
230
0.3907311284892737
  0
LINE
  5
A1B
330
1A
100
AcDbEntity
  8
1
 62
     8
100
AcDbLine
 10
297.8066737875283
 20
642.4066894650325
 30
-97.93280846752445
 11
360.9941737875283
 21
642.4066894650325
 31
-97.93280846752445
210
0.0000000000000005
220
0.9205048534524403
230
0.3907311284892737
  0
LINE
  5
A1C
330
1A
100
AcDbEntity
  8
1
 62
     8
100
AcDbLine
 10
297.8066737875283
 20
636.9364536661826
 30
-85.04574051919032
 11
360.3691737875286
 21
636.9364536661826
 31
-85.04574051919032
210
0.0000000000000005
220
0.9205048534524403
230
0.3907311284892737
  0
LINE
  5
A1D
330
1A
100
AcDbEntity
  8
1
 62
     8
100
AcDbLine
 10
297.8066737875283
 20
637.717915923161
 30
-86.88675022609528
 11
360.3691737875286
 21
637.717915923161
 31
-86.88675022609528
210
0.0000000000000005
220
0.9205048534524403
230
0.3907311284892737
  0
ARC
  5
A1E
330
1A
100
AcDbEntity
  8
1
 62
     8
100
AcDbCircle
 10
-360.3691737875291
 20
-328.1559162303147
 30
553.0730787742378
 40
1.0
210
0.0000000000000005
220
0.9205048534524403
230
0.3907311284892737
100
AcDbArc
 50
90.0
 51
270.0
  0
ARC
  5
A1F
330
1A
100
AcDbEntity
  8
1
 62
     8
100
AcDbCircle
 10
-260.8066659849991
 20
-328.1559162303159
 30
553.0730787742378
 40
2.0
210
0.0000000000000005
220
0.9205048534524403
230
0.3907311284892737
100
AcDbArc
 50
179.9999999999988
 51
270.0000000000005
  0
ARC
  5
A21
330
1A
100
AcDbEntity
  8
1
 62
     8
100
AcDbCircle
 10
-260.8066659850005
 20
-328.4059162303153
 30
553.0730787742378
 40
2.0
210
0.0000000000000005
220
0.9205048534524403
230
0.3907311284892737
100
AcDbArc
 50
179.9999999999988
 51
270.0000000000005
  0
ARC
  5
A22
330
1A
100
AcDbEntity
  8
1
 62
     8
100
AcDbCircle
 10
-297.8066737875282
 20
-328.1559162303148
 30
553.0730787742378
 40
1.0
210
0.0000000000000005
220
0.9205048534524403
230
0.3907311284892737
100
AcDbArc
 50
270.0
 51
90.0
  0
LINE
  5
A23
330
1A
100
AcDbEntity
  8
1
 62
     8
100
AcDbLine
 10
297.8066737875283
 20
639.6715715656076
 30
-91.48927449335749
 11
360.6816737875286
 21
639.6715715656076
 31
-91.48927449335749
210
0.0000000000000005
220
0.9205048534524403
230
0.3907311284892737
  0
ARC
  5
A24
330
1A
100
AcDbEntity
  8
1
 62
     8
100
AcDbCircle
 10
-260.8066659849991
 20
-334.1559162303159
 30
553.0730787742378
 40
2.0
210
0.0000000000000005
220
0.9205048534524403
230
0.3907311284892737
100
AcDbArc
 50
90.00000000000047
 51
179.9999999999938
  0
LINE
  5
A25
330
1A
100
AcDbEntity
  8
1
 62
     8
100
AcDbLine
 10
126.3066659849995
 20
639.6715715656077
 30
-91.4892744933577
 11
126.3066659849995
 21
643.9696139789897
 31
-101.6148278813343
210
0.0000000000000005
220
0.9205048534524403
230
0.3907311284892737
  0
ARC
  5
A26
330
1A
100
AcDbEntity
  8
1
 62
     8
100
AcDbCircle
 10
-128.8691956058617
 20
-361.155916230314
 30
553.0730787742378
 40
12.0
210
0.0000000000000005
220
0.9205048534524403
230
0.3907311284892737
100
AcDbArc
 50
19.61597913540471
 51
90.0
  0
ARC
  5
A28
330
1A
100
AcDbEntity
  8
1
 62
     8
100
AcDbCircle
 10
-128.306665985
 20
-345.155916230314
 30
553.0730787742378
 40
2.0
210
0.0000000000000005
220
0.9205048534524403
230
0.3907311284892737
100
AcDbArc
 50
270.0000000000005
 51
0.0
  0
POLYLINE
  5
A29
330
1A
100
AcDbEntity
  8
1
 62
     8
100
AcDb2dPolyline
 66
     1
 10
0.0
 20
0.0
 30
547.0467336881431
 70
     1
210
0.0000000000000005
220
0.9205048534524403
230
0.3907311284892737
  0
VERTEX
  5
1531
330
A29
100
AcDbEntity
  8
1
 62
     8
100
AcDbVertex
100
AcDb2dVertex
 10
-213.3066659850005
 20
-325.7524406330993
 30
547.0467336881431
  0
VERTEX
  5
1532
330
A29
100
AcDbEntity
  8
1
 62
     8
100
AcDbVertex
100
AcDb2dVertex
 10
-228.3066659850005
 20
-325.7524406330996
 30
547.0467336881431
 42
0.4142135623730951
  0
VERTEX
  5
1533
330
A29
100
AcDbEntity
  8
1
 62
     8
100
AcDbVertex
100
AcDb2dVertex
 10
-230.3066659850005
 20
-327.7524406330993
 30
547.0467336881431
  0
VERTEX
  5
1534
330
A29
100
AcDbEntity
  8
1
 62
     8
100
AcDbVertex
100
AcDb2dVertex
 10
-230.3066659850005
 20
-335.7524406330995
 30
547.0467336881431
 42
0.4142135623730951
  0
VERTEX
  5
1535
330
A29
100
AcDbEntity
  8
1
 62
     8
100
AcDbVertex
100
AcDb2dVertex
 10
-228.3066659850005
 20
-337.7524406330996
 30
547.0467336881431
  0
VERTEX
  5
1536
330
A29
100
AcDbEntity
  8
1
 62
     8
100
AcDbVertex
100
AcDb2dVertex
 10
-213.3066659850005
 20
-337.7524406330993
 30
547.0467336881431
 42
0.4142135623730951
  0
VERTEX
  5
1537
330
A29
100
AcDbEntity
  8
1
 62
     8
100
AcDbVertex
100
AcDb2dVertex
 10
-211.3066659850005
 20
-335.7524406330993
 30
547.0467336881431
  0
VERTEX
  5
1538
330
A29
100
AcDbEntity
  8
1
 62
     8
100
AcDbVertex
100
AcDb2dVertex
 10
-211.3066659850005
 20
-327.7524406330993
 30
547.0467336881431
 42
0.4142135623730984
  0
SEQEND
  5
1539
330
A29
100
AcDbEntity
  8
1
 62
     8
  0
POLYLINE
  5
A2A
330
1A
100
AcDbEntity
  8
1
 62
     8
100
AcDb2dPolyline
 66
     1
 10
0.0
 20
0.0
 30
547.0467336881438
 70
     1
210
0.0000000000000005
220
0.9205048534524403
230
0.3907311284892737
  0
VERTEX
  5
153A
330
A2A
100
AcDbEntity
  8
1
 62
     8
100
AcDbVertex
100
AcDb2dVertex
 10
-165.3066659850004
 20
-325.7524406330993
 30
547.0467336881438
  0
VERTEX
  5
153B
330
A2A
100
AcDbEntity
  8
1
 62
     8
100
AcDbVertex
100
AcDb2dVertex
 10
-180.3066659850005
 20
-325.7524406330996
 30
547.0467336881438
 42
0.4142135623730951
  0
VERTEX
  5
153C
330
A2A
100
AcDbEntity
  8
1
 62
     8
100
AcDbVertex
100
AcDb2dVertex
 10
-182.3066659850005
 20
-327.7524406330996
 30
547.0467336881438
  0
VERTEX
  5
153D
330
A2A
100
AcDbEntity
  8
1
 62
     8
100
AcDbVertex
100
AcDb2dVertex
 10
-182.3066659850005
 20
-335.7524406330997
 30
547.0467336881438
 42
0.4142135623730951
  0
VERTEX
  5
153E
330
A2A
100
AcDbEntity
  8
1
 62
     8
100
AcDbVertex
100
AcDb2dVertex
 10
-180.3066659850005
 20
-337.7524406330998
 30
547.0467336881438
  0
VERTEX
  5
153F
330
A2A
100
AcDbEntity
  8
1
 62
     8
100
AcDbVertex
100
AcDb2dVertex
 10
-165.3066659850004
 20
-337.7524406330997
 30
547.0467336881438
 42
0.4142135623730951
  0
VERTEX
  5
1540
330
A2A
100
AcDbEntity
  8
1
 62
     8
100
AcDbVertex
100
AcDb2dVertex
 10
-163.3066659850005
 20
-335.7524406330995
 30
547.0467336881438
  0
VERTEX
  5
1541
330
A2A
100
AcDbEntity
  8
1
 62
     8
100
AcDbVertex
100
AcDb2dVertex
 10
-163.3066659850005
 20
-327.7524406330996
 30
547.0467336881438
 42
0.4142135623730984
  0
SEQEND
  5
1542
330
A2A
100
AcDbEntity
  8
1
 62
     8
  0
POLYLINE
  5
A2B
330
1A
100
AcDbEntity
  8
1
 62
     8
100
AcDb2dPolyline
 66
     1
 10
0.0
 20
0.0
 30
547.0467336881438
 70
     1
210
0.0000000000000005
220
0.9205048534524403
230
0.3907311284892737
  0
VERTEX
  5
1543
330
A2B
100
AcDbEntity
  8
1
 62
     8
100
AcDbVertex
100
AcDb2dVertex
 10
-189.3066659850004
 20
-325.7524406330996
 30
547.0467336881438
  0
VERTEX
  5
1544
330
A2B
100
AcDbEntity
  8
1
 62
     8
100
AcDbVertex
100
AcDb2dVertex
 10
-204.3066659850004
 20
-325.7524406330993
 30
547.0467336881438
 42
0.4142135623730951
  0
VERTEX
  5
1545
330
A2B
100
AcDbEntity
  8
1
 62
     8
100
AcDbVertex
100
AcDb2dVertex
 10
-206.3066659850004
 20
-327.7524406330993
 30
547.0467336881438
  0
VERTEX
  5
1546
330
A2B
100
AcDbEntity
  8
1
 62
     8
100
AcDbVertex
100
AcDb2dVertex
 10
-206.3066659850004
 20
-335.7524406330995
 30
547.0467336881438
 42
0.4142135623730951
  0
VERTEX
  5
1547
330
A2B
100
AcDbEntity
  8
1
 62
     8
100
AcDbVertex
100
AcDb2dVertex
 10
-204.3066659850004
 20
-337.7524406330995
 30
547.0467336881438
  0
VERTEX
  5
1548
330
A2B
100
AcDbEntity
  8
1
 62
     8
100
AcDbVertex
100
AcDb2dVertex
 10
-189.3066659850004
 20
-337.7524406330998
 30
547.0467336881438
 42
0.4142135623730951
  0
VERTEX
  5
1549
330
A2B
100
AcDbEntity
  8
1
 62
     8
100
AcDbVertex
100
AcDb2dVertex
 10
-187.3066659850005
 20
-335.7524406330997
 30
547.0467336881438
  0
VERTEX
  5
154A
330
A2B
100
AcDbEntity
  8
1
 62
     8
100
AcDbVertex
100
AcDb2dVertex
 10
-187.3066659850005
 20
-327.7524406330996
 30
547.0467336881438
 42
0.4142135623730984
  0
SEQEND
  5
154B
330
A2B
100
AcDbEntity
  8
1
 62
     8
  0
POLYLINE
  5
A2C
330
1A
100
AcDbEntity
  8
1
 62
     8
100
AcDb2dPolyline
 66
     1
 10
0.0
 20
0.0
 30
547.0467336881442
 70
     1
210
0.0000000000000005
220
0.9205048534524403
230
0.3907311284892737
  0
VERTEX
  5
154C
330
A2C
100
AcDbEntity
  8
1
 62
     8
100
AcDbVertex
100
AcDb2dVertex
 10
-141.3066659850005
 20
-325.6344409319449
 30
547.0467336881442
  0
VERTEX
  5
154D
330
A2C
100
AcDbEntity
  8
1
 62
     8
100
AcDbVertex
100
AcDb2dVertex
 10
-156.3066659850005
 20
-325.6344409319449
 30
547.0467336881442
 42
0.4142135623730951
  0
VERTEX
  5
154E
330
A2C
100
AcDbEntity
  8
1
 62
     8
100
AcDbVertex
100
AcDb2dVertex
 10
-158.3066659850005
 20
-327.6344409319444
 30
547.0467336881442
  0
VERTEX
  5
154F
330
A2C
100
AcDbEntity
  8
1
 62
     8
100
AcDbVertex
100
AcDb2dVertex
 10
-158.3066659850005
 20
-335.6344409319448
 30
547.0467336881442
 42
0.4142135623730951
  0
VERTEX
  5
1550
330
A2C
100
AcDbEntity
  8
1
 62
     8
100
AcDbVertex
100
AcDb2dVertex
 10
-156.3066659850005
 20
-337.6344409319449
 30
547.0467336881442
  0
VERTEX
  5
1551
330
A2C
100
AcDbEntity
  8
1
 62
     8
100
AcDbVertex
100
AcDb2dVertex
 10
-141.3066659850005
 20
-337.6344409319451
 30
547.0467336881442
 42
0.4142135623730951
  0
VERTEX
  5
1552
330
A2C
100
AcDbEntity
  8
1
 62
     8
100
AcDbVertex
100
AcDb2dVertex
 10
-139.3066659850004
 20
-335.6344409319451
 30
547.0467336881442
  0
VERTEX
  5
1553
330
A2C
100
AcDbEntity
  8
1
 62
     8
100
AcDbVertex
100
AcDb2dVertex
 10
-139.3066659850004
 20
-327.6344409319448
 30
547.0467336881442
 42
0.4142135623730984
  0
SEQEND
  5
1554
330
A2C
100
AcDbEntity
  8
1
 62
     8
  0
ARC
  5
A2D
330
1A
100
AcDbEntity
  8
1
 62
     8
100
AcDbCircle
 10
-128.3066659850017
 20
-328.1559162303139
 30
553.0730787742378
 40
2.0
210
0.0000000000000005
220
0.9205048534524403
230
0.3907311284892737
100
AcDbArc
 50
270.0000000000005
 51
359.9999999999987
  0
ARC
  5
A2F
330
1A
100
AcDbEntity
  8
1
 62
     8
100
AcDbCircle
 10
-128.3066659850026
 20
-328.4059162303136
 30
553.0730787742378
 40
2.0
210
0.0000000000000005
220
0.9205048534524403
230
0.3907311284892737
100
AcDbArc
 50
270.0000000000005
 51
359.9999999999987
  0
ARC
  5
A30
330
1A
100
AcDbEntity
  8
1
 62
     8
100
AcDbCircle
 10
-128.306665985
 20
-334.1559162303139
 30
553.0730787742378
 40
2.0
210
0.0000000000000005
220
0.9205048534524403
230
0.3907311284892737
100
AcDbArc
 50
0.0
 51
90.00000000000047
  0
POLYLINE
  5
A31
330
1A
100
AcDbEntity
  8
1
 62
     8
100
AcDb2dPolyline
 66
     1
 10
0.0
 20
0.0
 30
547.0467336881438
 70
     1
210
0.0000000000000005
220
0.9205048534524403
230
0.3907311284892737
  0
VERTEX
  5
1555
330
A31
100
AcDbEntity
  8
1
 62
     8
100
AcDbVertex
100
AcDb2dVertex
 10
-237.3066659850006
 20
-302.5164412307911
 30
547.0467336881438
  0
VERTEX
  5
1556
330
A31
100
AcDbEntity
  8
1
 62
     8
100
AcDbVertex
100
AcDb2dVertex
 10
-252.3066659850006
 20
-302.5164412307911
 30
547.0467336881438
 42
0.4142135623730951
  0
VERTEX
  5
1557
330
A31
100
AcDbEntity
  8
1
 62
     8
100
AcDbVertex
100
AcDb2dVertex
 10
-254.3066659850006
 20
-304.516441230791
 30
547.0467336881438
  0
VERTEX
  5
1558
330
A31
100
AcDbEntity
  8
1
 62
     8
100
AcDbVertex
100
AcDb2dVertex
 10
-254.3066659850004
 20
-312.5164412307908
 30
547.0467336881438
 42
0.4142135623730951
  0
VERTEX
  5
1559
330
A31
100
AcDbEntity
  8
1
 62
     8
100
AcDbVertex
100
AcDb2dVertex
 10
-252.3066659850005
 20
-314.5164412307912
 30
547.0467336881438
  0
VERTEX
  5
155A
330
A31
100
AcDbEntity
  8
1
 62
     8
100
AcDbVertex
100
AcDb2dVertex
 10
-237.3066659850004
 20
-314.5164412307912
 30
547.0467336881438
 42
0.4142135623730951
  0
VERTEX
  5
155B
330
A31
100
AcDbEntity
  8
1
 62
     8
100
AcDbVertex
100
AcDb2dVertex
 10
-235.3066659850004
 20
-312.5164412307908
 30
547.0467336881438
  0
VERTEX
  5
155C
330
A31
100
AcDbEntity
  8
1
 62
     8
100
AcDbVertex
100
AcDb2dVertex
 10
-235.3066659850006
 20
-304.516441230791
 30
547.0467336881438
 42
0.4142135623730984
  0
SEQEND
  5
155D
330
A31
100
AcDbEntity
  8
1
 62
     8
  0
LINE
  5
A32
330
1A
100
AcDbEntity
  8
1
 62
     8
100
AcDbLine
 10
365.8758622624334
 20
627.7537690974761
 30
-63.4126913533901
 11
366.0911459770841
 21
632.57288888394
 31
-74.76582610351944
210
0.0000000000000005
220
0.9205048534524403
230
0.3907311284892737
  0
LINE
  5
A33
330
1A
100
AcDbEntity
  8
1
 62
     8
100
AcDbLine
 10
369.7975348009013
 20
625.9867716788622
 30
-59.24990630434492
 11
370.0905367577096
 21
632.545612090091
 31
-74.70156600419797
210
0.0000000000000005
220
0.9205048534524403
230
0.3907311284892737
  0
LINE
  5
A34
330
1A
100
AcDbEntity
  8
1
 62
     8
100
AcDbLine
 10
370.0905367577088
 20
626.545612090091
 30
-74.70156600419763
 11
369.7975318899493
 21
622.9866718447349
 31
-59.24990630434586
  0
LINE
  5
A35
330
1A
100
AcDbEntity
  8
1
 62
     8
100
AcDbLine
 10
370.0905367577088
 20
627.545612090091
 30
-74.70156600419763
 11
369.7975328121592
 21
623.9866747369652
 31
-59.24990630434582
  0
LINE
  5
A36
330
1A
100
AcDbEntity
  8
1
 62
     8
100
AcDbLine
 10
297.8066737875283
 20
634.2013357667577
 30
-78.60220654502315
 11
360.0566737875286
 21
634.2013357667577
 31
-78.60220654502315
210
0.0000000000000005
220
0.9205048534524403
230
0.3907311284892737
  0
LINE
  5
A37
330
1A
100
AcDbEntity
  8
1
 62
     8
100
AcDbLine
 10
297.8066737875283
 20
634.9827980237362
 30
-80.44321625192813
 11
360.0566737875286
 21
634.9827980237362
 31
-80.44321625192813
210
0.0000000000000005
220
0.9205048534524403
230
0.3907311284892737
  0
ARC
  5
A38
330
1A
100
AcDbEntity
  8
1
 62
     8
100
AcDbCircle
 10
-360.0566737875291
 20
-321.1559162303148
 30
553.0730787742378
 40
1.0
210
0.0000000000000005
220
0.9205048534524403
230
0.3907311284892737
100
AcDbArc
 50
90.0
 51
270.0
  0
ARC
  5
A39
330
1A
100
AcDbEntity
  8
1
 62
     8
100
AcDbCircle
 10
-297.8066737875282
 20
-321.155916230315
 30
553.0730787742378
 40
1.0
210
0.0000000000000005
220
0.9205048534524403
230
0.3907311284892737
100
AcDbArc
 50
270.0
 51
90.0
  0
LINE
  5
A3A
330
1A
100
AcDbEntity
  8
1
 62
     8
100
AcDbLine
 10
297.8066737875283
 20
631.4662178673327
 30
-72.15867257085619
 11
359.7441737875286
 21
631.4662178673327
 31
-72.15867257085619
210
0.0000000000000005
220
0.9205048534524403
230
0.3907311284892737
  0
LINE
  5
A3B
330
1A
100
AcDbEntity
  8
1
 62
     8
100
AcDbLine
 10
297.8066737875283
 20
632.2476801243112
 30
-73.99968227776096
 11
359.7441737875286
 21
632.2476801243112
 31
-73.99968227776096
210
0.0000000000000005
220
0.9205048534524403
230
0.3907311284892737
  0
ARC
  5
A3C
330
1A
100
AcDbEntity
  8
1
 62
     8
100
AcDbCircle
 10
-359.7441737875291
 20
-314.1559162303148
 30
553.0730787742378
 40
1.0
210
0.0000000000000005
220
0.9205048534524403
230
0.3907311284892737
100
AcDbArc
 50
90.0
 51
270.0
  0
ARC
  5
A3D
330
1A
100
AcDbEntity
  8
1
 62
     8
100
AcDbCircle
 10
-297.8066737875282
 20
-314.155916230315
 30
553.0730787742378
 40
1.0
210
0.0000000000000005
220
0.9205048534524403
230
0.3907311284892737
100
AcDbArc
 50
270.0
 51
90.0
  0
LINE
  5
A3E
330
1A
100
AcDbEntity
  8
1
 62
     8
100
AcDbLine
 10
297.8066737875283
 20
628.7310999679077
 30
-65.71513859668904
 11
359.4316737875288
 21
628.7310999679077
 31
-65.71513859668904
210
0.0000000000000005
220
0.9205048534524403
230
0.3907311284892737
  0
LINE
  5
A3F
330
1A
100
AcDbEntity
  8
1
 62
     8
100
AcDbLine
 10
297.8066737875283
 20
629.5125622248861
 30
-67.55614830359403
 11
359.4316737875288
 21
629.5125622248861
 31
-67.55614830359403
210
0.0000000000000005
220
0.9205048534524403
230
0.3907311284892737
  0
ARC
  5
A40
330
1A
100
AcDbEntity
  8
1
 62
     8
100
AcDbCircle
 10
-359.4316737875291
 20
-307.1559162303151
 30
553.0730787742378
 40
1.0
210
0.0000000000000005
220
0.9205048534524403
230
0.3907311284892737
100
AcDbArc
 50
90.0
 51
270.0
  0
ARC
  5
A41
330
1A
100
AcDbEntity
  8
1
 62
     8
100
AcDbCircle
 10
-297.8066737875282
 20
-307.1559162303151
 30
553.0730787742378
 40
1.0
210
0.0000000000000005
220
0.9205048534524403
230
0.3907311284892737
100
AcDbArc
 50
270.0
 51
90.0
  0
LINE
  5
A42
330
1A
100
AcDbEntity
  8
1
 62
     8
100
AcDbLine
 10
297.8066737875283
 20
626.7774443254612
 30
-61.11261432942685
 11
359.1191737875286
 21
626.7774443254612
 31
-61.11261432942685
210
0.0000000000000005
220
0.9205048534524403
230
0.3907311284892737
  0
LINE
  5
A43
330
1A
100
AcDbEntity
  8
1
 62
     8
100
AcDbLine
 10
297.8066737875283
 20
625.9959820684827
 30
-59.27160462252189
 11
359.1191737875286
 21
625.9959820684827
 31
-59.27160462252189
210
0.0000000000000005
220
0.9205048534524403
230
0.3907311284892737
  0
ARC
  5
A44
330
1A
100
AcDbEntity
  8
1
 62
     8
100
AcDbCircle
 10
-359.1191737875291
 20
-300.1559162303151
 30
553.0730787742378
 40
1.0
210
0.0000000000000005
220
0.9205048534524403
230
0.3907311284892737
100
AcDbArc
 50
90.0
 51
270.0
  0
ARC
  5
A45
330
1A
100
AcDbEntity
  8
1
 62
     8
100
AcDbCircle
 10
-297.8066737875282
 20
-300.1559162303151
 30
553.0730787742378
 40
1.0
210
0.0000000000000005
220
0.9205048534524403
230
0.3907311284892737
100
AcDbArc
 50
270.0
 51
90.0
  0
POLYLINE
  5
A46
330
1A
100
AcDbEntity
  8
1
 62
     8
100
AcDb2dPolyline
 66
     1
 10
0.0
 20
0.0
 30
547.0467336881446
 70
     1
210
0.0000000000000005
220
0.9205048534524403
230
0.3907311284892737
  0
VERTEX
  5
155E
330
A46
100
AcDbEntity
  8
1
 62
     8
100
AcDbVertex
100
AcDb2dVertex
 10
-141.3066659850005
 20
-302.6344409319448
 30
547.0467336881446
  0
VERTEX
  5
155F
330
A46
100
AcDbEntity
  8
1
 62
     8
100
AcDbVertex
100
AcDb2dVertex
 10
-156.3066659850005
 20
-302.6344409319448
 30
547.0467336881446
 42
0.4142135623730951
  0
VERTEX
  5
1560
330
A46
100
AcDbEntity
  8
1
 62
     8
100
AcDbVertex
100
AcDb2dVertex
 10
-158.3066659850006
 20
-304.6344409319449
 30
547.0467336881446
  0
VERTEX
  5
1561
330
A46
100
AcDbEntity
  8
1
 62
     8
100
AcDbVertex
100
AcDb2dVertex
 10
-158.3066659850005
 20
-312.6344409319449
 30
547.0467336881446
 42
0.4142135623730951
  0
VERTEX
  5
1562
330
A46
100
AcDbEntity
  8
1
 62
     8
100
AcDbVertex
100
AcDb2dVertex
 10
-156.3066659850005
 20
-314.6344409319453
 30
547.0467336881446
  0
VERTEX
  5
1563
330
A46
100
AcDbEntity
  8
1
 62
     8
100
AcDbVertex
100
AcDb2dVertex
 10
-141.3066659850005
 20
-314.6344409319453
 30
547.0467336881446
 42
0.4142135623730951
  0
VERTEX
  5
1564
330
A46
100
AcDbEntity
  8
1
 62
     8
100
AcDbVertex
100
AcDb2dVertex
 10
-139.3066659850004
 20
-312.6344409319453
 30
547.0467336881446
  0
VERTEX
  5
1565
330
A46
100
AcDbEntity
  8
1
 62
     8
100
AcDbVertex
100
AcDb2dVertex
 10
-139.3066659850004
 20
-304.6344409319449
 30
547.0467336881446
 42
0.4142135623730984
  0
SEQEND
  5
1566
330
A46
100
AcDbEntity
  8
1
 62
     8
  0
POLYLINE
  5
A47
330
1A
100
AcDbEntity
  8
1
 62
     8
100
AcDb2dPolyline
 66
     1
 10
0.0
 20
0.0
 30
547.0467336881446
 70
     1
210
0.0000000000000005
220
0.9205048534524403
230
0.3907311284892737
  0
VERTEX
  5
1567
330
A47
100
AcDbEntity
  8
1
 62
     8
100
AcDbVertex
100
AcDb2dVertex
 10
-213.3066659850006
 20
-302.5164412307911
 30
547.0467336881446
  0
VERTEX
  5
1568
330
A47
100
AcDbEntity
  8
1
 62
     8
100
AcDbVertex
100
AcDb2dVertex
 10
-228.3066659850006
 20
-302.5164412307911
 30
547.0467336881446
 42
0.4142135623730951
  0
VERTEX
  5
1569
330
A47
100
AcDbEntity
  8
1
 62
     8
100
AcDbVertex
100
AcDb2dVertex
 10
-230.3066659850006
 20
-304.5164412307913
 30
547.0467336881446
  0
VERTEX
  5
156A
330
A47
100
AcDbEntity
  8
1
 62
     8
100
AcDbVertex
100
AcDb2dVertex
 10
-230.3066659850005
 20
-312.5164412307912
 30
547.0467336881446
 42
0.4142135623730951
  0
VERTEX
  5
156B
330
A47
100
AcDbEntity
  8
1
 62
     8
100
AcDbVertex
100
AcDb2dVertex
 10
-228.3066659850005
 20
-314.5164412307913
 30
547.0467336881446
  0
VERTEX
  5
156C
330
A47
100
AcDbEntity
  8
1
 62
     8
100
AcDbVertex
100
AcDb2dVertex
 10
-213.3066659850005
 20
-314.5164412307913
 30
547.0467336881446
 42
0.4142135623730951
  0
VERTEX
  5
156D
330
A47
100
AcDbEntity
  8
1
 62
     8
100
AcDbVertex
100
AcDb2dVertex
 10
-211.3066659850005
 20
-312.5164412307911
 30
547.0467336881446
  0
VERTEX
  5
156E
330
A47
100
AcDbEntity
  8
1
 62
     8
100
AcDbVertex
100
AcDb2dVertex
 10
-211.3066659850006
 20
-304.5164412307913
 30
547.0467336881446
 42
0.4142135623730984
  0
SEQEND
  5
156F
330
A47
100
AcDbEntity
  8
1
 62
     8
  0
LINE
  5
A48
330
1A
100
AcDbEntity
  8
1
 62
     8
100
AcDbLine
 10
118.7374761181831
 20
627.7538002553824
 30
-63.41276475681685
 11
118.522193795447
 21
632.5728888839389
 31
-74.76582610351603
210
0.0000000000000005
220
0.9205048534524403
230
0.3907311284892737
  0
LINE
  5
A49
330
1A
100
AcDbEntity
  8
1
 62
     8
100
AcDbLine
 10
114.8066659850014
 20
626.1913476327285
 30
-59.73185704924983
 11
114.5228030148214
 21
632.5456120900907
 31
-74.70156600419615
210
0.0000000000000005
220
0.9205048534524403
230
0.3907311284892737
  0
LINE
  5
A62
330
1A
100
AcDbEntity
  8
1
100
AcDbLine
 10
933.6807886762487
 20
595.5059907659951
 30
0.0
 11
1002.909821379344
 21
625.2744748283394
 31
0.0
  0
LINE
  5
A63
330
1A
100
AcDbEntity
  8
1
 62
     8
100
AcDbLine
 10
928.7688339414417
 20
597.7479747114821
 30
0.0
 11
998.7226165962519
 21
627.8281012530637
 31
0.0
  0
ARC
  5
A64
330
1A
100
AcDbEntity
  8
1
100
AcDbCircle
 10
961.5726898321746
 20
580.290256168852
 30
0.0
 40
10.0
100
AcDbArc
 50
212.1483639605882
 51
270.000000000002
  0
LINE
  5
A65
330
1A
100
AcDbEntity
  8
1
100
AcDbLine
 10
1041.289826439433
 20
668.9911550132137
 30
0.0
 11
940.8425668199759
 21
625.7988333766489
 31
0.0
  0
LINE
  5
A66
330
1A
100
AcDbEntity
  8
1
 62
     8
100
AcDbLine
 10
1045.635131696704
 20
658.8857939497955
 30
0.0
 11
924.0951981799538
 21
606.6236225374043
 31
0.0
  0
LINE
  5
A68
330
1A
100
AcDbEntity
  8
1
 62
     8
100
AcDbLine
 10
1071.47729594331
 20
668.9093934555706
 30
0.0
 11
924.4902259305105
 21
605.7049533500539
 31
0.0
  0
LINE
  5
A76
330
1A
100
AcDbEntity
  8
1
100
AcDbLine
 10
367.2789587424067
 20
605.4858495925402
 30
-43.11698143494021
 11
364.8378136414176
 21
583.5654424015143
 31
-8.751149680899985
  0
LINE
  5
A77
330
1A
100
AcDbEntity
  8
1
 62
     8
100
AcDbLine
 10
364.867027789558
 20
583.652489888778
 30
-24.12716443980396
 11
364.2162165718681
 21
603.379156169886
 31
-39.81419751634565
  0
LINE
  5
A78
330
1A
100
AcDbEntity
  8
1
100
AcDbLine
 10
117.3343732275957
 20
605.4858495925396
 30
-43.11698143494021
 11
119.7755183285853
 21
583.5654424015127
 31
-8.751149680898732
  0
LINE
  5
A79
330
1A
100
AcDbEntity
  8
1
 62
     8
100
AcDbLine
 10
119.7463041804444
 20
583.6524898887781
 30
-24.12716443980393
 11
120.3971153981342
 21
603.3791561698854
 31
-39.81419751634565
  0
LINE
  5
A7B
330
1A
100
AcDbEntity
  8
1
 62
     8
100
AcDbLine
 10
339.8020302289801
 20
611.4693139439874
 30
-32.11671144567589
 11
144.6449886780524
 21
611.4694939192375
 31
-32.11671144567589
  0
LINE
  5
A7C
330
1A
100
AcDbEntity
  8
1
 62
     8
100
AcDbLine
 10
144.8066659850009
 20
617.5952628059642
 30
-39.48075027329629
 11
272.306665985001
 21
617.5952628059637
 31
-39.48075027329538
210
0.0000000000000005
220
0.9205048534524403
230
0.3907311284892737
  0
LINE
  5
A7E
330
1A
100
AcDbEntity
  8
1
 62
     8
100
AcDbLine
 10
146.3066659850005
 20
618.4744078450647
 30
-41.55188619356295
 11
260.8066659850005
 21
618.4744078450651
 31
-41.55188619356386
210
0.0000000000000005
220
0.9205048534524403
230
0.3907311284892737
  0
LINE
  5
A7F
330
1A
100
AcDbEntity
  8
1
 62
     8
100
AcDbLine
 10
144.8066659850009
 20
614.46941377805
 30
-32.11671144567664
 11
272.306665985001
 21
614.4694137780494
 31
-32.11671144567573
210
0.0000000000000005
220
0.9205048534524403
230
0.3907311284892737
  0
LINE
  5
A80
330
1A
100
AcDbEntity
  8
1
 62
     8
100
AcDbLine
 10
301.4100763102569
 20
598.4693404326406
 30
-32.11671144567589
 11
144.6404253949549
 21
598.4694922524693
 31
-32.11671144567589
  0
LINE
  5
A81
330
1A
100
AcDbEntity
  8
1
 62
     8
100
AcDbLine
 10
316.1365617527635
 20
600.711314873478
 30
-32.11671144567589
 11
144.6405047596272
 21
600.7114809547434
 31
-32.11671144567589
  0
ARC
  5
A84
330
1A
100
AcDbEntity
  8
1
 62
     8
100
AcDbCircle
 10
-260.8066659850005
 20
-281.9059162303165
 30
553.0730787742378
 40
2.0
210
0.0000000000000005
220
0.9205048534524403
230
0.3907311284892737
100
AcDbArc
 50
90.00000000000047
 51
179.9999999999988
  0
LINE
  5
A85
330
1A
100
AcDbEntity
  8
1
 62
     8
100
AcDbLine
 10
297.8066737875283
 20
623.2608641690577
 30
-52.82807064835494
 11
358.8066737875292
 21
623.2608641690577
 31
-52.82807064835494
210
0.0000000000000005
220
0.9205048534524403
230
0.3907311284892737
  0
LINE
  5
A86
330
1A
100
AcDbEntity
  8
1
 62
     8
100
AcDbLine
 10
297.8066737875283
 20
624.0423264260364
 30
-54.66908035525968
 11
358.8066737875292
 21
624.0423264260364
 31
-54.66908035525968
210
0.0000000000000005
220
0.9205048534524403
230
0.3907311284892737
  0
ARC
  5
A87
330
1A
100
AcDbEntity
  8
1
 62
     8
100
AcDbCircle
 10
-358.8066737875295
 20
-293.1559162303161
 30
553.0730787742378
 40
1.0
210
0.0000000000000005
220
0.9205048534524403
230
0.3907311284892737
100
AcDbArc
 50
90.0
 51
270.0
  0
ARC
  5
A88
330
1A
100
AcDbEntity
  8
1
 62
     8
100
AcDbCircle
 10
-297.8066737875282
 20
-293.1559162303151
 30
553.0730787742378
 40
1.0
210
0.0000000000000005
220
0.9205048534524403
230
0.3907311284892737
100
AcDbArc
 50
270.0
 51
90.0
  0
LINE
  5
A89
330
1A
100
AcDbEntity
  8
1
 62
     8
100
AcDbLine
 10
272.8066737875295
 20
617.5952628059633
 30
-39.48075027329446
 11
339.6171228862463
 21
617.5952628059633
 31
-39.48075027329446
210
0.0000000000000005
220
0.9205048534524403
230
0.3907311284892737
  0
LINE
  5
A8A
330
1A
100
AcDbEntity
  8
1
 62
     8
100
AcDbLine
 10
339.8020236255955
 20
598.4693022586672
 30
-32.11671144567589
 11
308.4100763102568
 21
598.469333472384
 31
-32.11671144567589
  0
LINE
  5
A8B
330
1A
100
AcDbEntity
  8
1
 62
     8
100
AcDbLine
 10
339.802025796796
 20
600.7112911422897
 30
-32.11671144567589
 11
308.4100784814571
 21
600.7113223560065
 31
-32.11671144567589
  0
LINE
  5
A8C
330
1A
100
AcDbEntity
  8
1
 62
     8
100
AcDbLine
 10
301.4100763102569
 20
599.1360750065938
 30
-32.11671144567589
 11
301.4100763102569
 21
591.993456748213
 31
-32.11671144567589
  0
LINE
  5
A8D
330
1A
100
AcDbEntity
  8
1
 62
     8
100
AcDbLine
 10
308.4100763102568
 20
599.1360750065938
 30
-32.11671144567589
 11
308.4100763102568
 21
591.9934567482139
 31
-32.11671144567589
  0
LINE
  5
A8E
330
1A
100
AcDbEntity
  8
1
 62
     8
100
AcDbLine
 10
308.4100763102568
 20
599.1360750065938
 30
-32.11671144567589
 11
301.4100763102569
 21
599.1360750065938
 31
-32.11671144567589
  0
ELLIPSE
  5
A8F
330
1A
100
AcDbEntity
  8
1
 62
     8
100
AcDbEllipse
 10
304.9100763102568
 20
591.9934567482139
 30
-32.11671144567589
 11
-0.0000000000000004
 21
-7.142618258379116
 31
0.0
210
0.0
220
0.0
230
1.0
 40
0.4900163880232709
 41
4.712388980384688
 42
7.853981633974482
  0
LINE
  5
A90
330
1A
100
AcDbEntity
  8
1
 62
     8
100
AcDbLine
 10
272.8066737875295
 20
614.4694137780494
 30
-32.11671144567505
 11
339.8021039462086
 21
614.4694137780494
 31
-32.11671144567505
210
0.0000000000000005
220
0.9205048534524403
230
0.3907311284892737
  0
LINE
  5
A91
330
1A
100
AcDbEntity
  8
1
 62
     8
100
AcDbLine
 10
339.8020256142548
 20
612.469316836228
 30
-32.11671144567589
 11
273.9078578272359
 21
612.4693823562754
 31
-32.11671144567589
  0
LINE
  5
A93
330
1A
100
AcDbEntity
  8
1
 62
     8
100
AcDbLine
 10
272.306665985001
 20
614.8601449065387
 30
-33.03721629912821
 11
272.806665985001
 21
614.8601449065387
 31
-33.03721629912821
210
0.0000000000000005
220
0.9205048534524403
230
0.3907311284892737
  0
ARC
  5
A94
330
1A
100
AcDbEntity
  8
1
 62
     8
100
AcDbCircle
 10
252.2233267999463
 20
568.4112065768382
 30
-0.0000000000000142
 40
2.0
100
AcDbArc
 50
180.0
 51
270.0
  0
LINE
  5
A95
330
1A
100
AcDbEntity
  8
1
 62
     8
100
AcDbLine
 10
262.3233267999448
 20
506.8062560313883
 30
-0.0000000000000142
 11
222.1233267999459
 21
506.8062560313883
 31
-0.0000000000000142
  0
LINE
  5
A96
330
1A
100
AcDbEntity
  8
1
 48
0.25
100
AcDbLine
 10
335.107216371472
 20
573.4111161975318
 30
-0.0000000000001279
 11
149.3394372284206
 21
573.4112969561886
 31
0.0000000000001279
  0
LINE
  5
A97
330
1A
100
AcDbEntity
  8
1
100
AcDbLine
 10
128.7233270002392
 20
413.9112065768527
 30
0.0
 11
355.7233265996751
 21
413.9112065768681
 31
0.0
  0
LINE
  5
A98
330
1A
100
AcDbEntity
  8
1
 62
     8
100
AcDbLine
 10
302.4660758180746
 20
319.4112994159463
 30
0.0
 11
215.5370355188555
 21
319.4112994159463
 31
0.0
  0
LINE
  5
A99
330
1A
100
AcDbEntity
  8
1
100
AcDbLine
 10
117.2233270002402
 20
353.9112065768572
 30
0.0
 11
367.2233265996751
 21
353.9112065768609
 31
0.0
  0
LINE
  5
A9A
330
1A
100
AcDbEntity
  8
1
100
AcDbLine
 10
330.5370355188618
 20
334.4112994159408
 30
0.0
 11
135.2233268858411
 21
334.4112994159481
 31
0.0
  0
LINE
  5
A9B
330
1A
100
AcDbEntity
  8
1
100
AcDbLine
 10
262.3233267999448
 20
519.8062560313879
 30
-0.0000000000000142
 11
262.3233267999448
 21
478.8062560313878
 31
-0.0000000000000142
  0
LINE
  5
A9C
330
1A
100
AcDbEntity
  8
1
100
AcDbLine
 10
264.7233267999454
 20
475.0062560313881
 30
-0.0000000000000142
 11
264.7233267999454
 21
519.8062560313871
 31
-0.0000000000000142
  0
LINE
  5
A9D
330
1A
100
AcDbEntity
  8
1
100
AcDbLine
 10
283.7233267999445
 20
475.9932712368813
 30
-0.0000000000000142
 11
283.7233267999453
 21
524.0192408258947
 31
-0.0000000000000142
  0
LINE
  5
A9E
330
1A
100
AcDbEntity
  8
1
 62
     8
100
AcDbLine
 10
284.2233267999463
 20
477.5062560313877
 30
-0.0000000000000142
 11
284.2233267999453
 21
522.5062560313881
 31
-0.0000000000000142
  0
LINE
  5
A9F
330
1A
100
AcDbEntity
  8
1
100
AcDbLine
 10
262.2233267999471
 20
506.8062560313883
 30
-0.0000000000000142
 11
262.2233267999483
 21
413.9112065768618
 31
-0.0000000000000142
  0
LINE
  5
AA0
330
1A
100
AcDbEntity
  8
1
100
AcDbLine
 10
367.2233265996751
 20
402.4112065768681
 30
0.0
 11
367.2233265996796
 21
353.9112065768617
 31
0.0
  0
LINE
  5
AA1
330
1A
100
AcDbEntity
  8
1
100
AcDbLine
 10
361.4892819858891
 20
323.4112981874544
 30
0.0
 11
347.3753858779077
 21
326.4112994159344
 31
0.0
  0
LINE
  5
AA2
330
1A
100
AcDbEntity
  8
1
 62
     8
100
AcDbLine
 10
340.2232832135773
 20
316.4670275059356
 30
0.0
 11
324.2232832135773
 21
316.4670275059356
 31
0.0
  0
LINE
  5
AA3
330
1A
100
AcDbEntity
  8
1
100
AcDbLine
 10
340.2232832135773
 20
317.4112994159344
 30
0.0
 11
340.2232832135773
 21
316.4670275059356
 31
0.0
  0
LINE
  5
AA4
330
1A
100
AcDbEntity
  8
1
100
AcDbLine
 10
324.2232832135773
 20
317.4112994159353
 30
0.0
 11
324.2232832135773
 21
316.4670275059356
 31
0.0
  0
ARC
  5
AA5
330
1A
100
AcDbEntity
  8
1
100
AcDbCircle
 10
332.2232832135773
 20
325.4112994159354
 30
0.0
 40
12.0
100
AcDbArc
 50
228.1896851042215
 51
311.8103148957778
  0
ARC
  5
AA6
330
1A
100
AcDbEntity
  8
1
 62
     8
100
AcDbCircle
 10
321.4934629936873
 20
239.9557227225109
 30
0.0
 40
83.81457464156119
100
AcDbArc
 50
84.69507829858523
 51
95.30492170141622
  0
LINE
  5
AA7
330
1A
100
AcDbEntity
  8
1
 62
     8
100
AcDbLine
 10
309.5290171730169
 20
323.4112994159354
 30
0.0
 11
308.7871703151108
 21
317.4112994159344
 31
0.0
  0
LINE
  5
AA8
330
1A
100
AcDbEntity
  8
1
 62
     8
100
AcDbLine
 10
313.4949994638494
 20
317.4112994159344
 30
0.0
 11
313.7442926436473
 21
323.4112994159354
 31
0.0
  0
ARC
  5
AA9
330
1A
100
AcDbEntity
  8
1
 62
     8
100
AcDbCircle
 10
311.6366549083326
 20
317.4039429408708
 30
0.0
 40
6.3663544232017
100
AcDbArc
 50
70.66694630462047
 51
109.3330536953827
  0
ARC
  5
AAA
330
1A
100
AcDbEntity
  8
1
 62
     8
100
AcDbCircle
 10
332.2232832135773
 20
311.2170874917377
 30
0.0
 40
12.55320987233474
100
AcDbArc
 50
76.26442995381705
 51
103.7355700461842
  0
ARC
  5
AAB
330
1A
100
AcDbEntity
  8
1
 62
     8
100
AcDbCircle
 10
342.9531034334671
 20
239.9557227225109
 30
0.0
 40
83.81457464156119
100
AcDbArc
 50
84.69507829858406
 51
95.30492170141505
  0
ARC
  5
AAC
330
1A
100
AcDbEntity
  8
1
 62
     8
100
AcDbCircle
 10
352.8099115188227
 20
317.4039429408698
 30
0.0
 40
6.3663544232017
100
AcDbArc
 50
70.66694630461663
 51
109.3330536953788
  0
LINE
  5
AAD
330
1A
100
AcDbEntity
  8
1
 62
     8
100
AcDbLine
 10
328.8943452978368
 20
317.4112994159353
 30
0.0
 11
329.2426333437255
 21
323.4112994159354
 31
0.0
  0
LINE
  5
AAE
330
1A
100
AcDbEntity
  8
1
 62
     8
100
AcDbLine
 10
335.5522211293177
 20
317.4112994159344
 30
0.0
 11
335.2039330834299
 21
323.4112994159344
 31
0.0
  0
LINE
  5
AAF
330
1A
100
AcDbEntity
  8
1
 62
     8
100
AcDbLine
 10
350.9515669633049
 20
317.4112994159344
 30
0.0
 11
350.7022737835081
 21
323.4112994159344
 31
0.0
  0
LINE
  5
AB0
330
1A
100
AcDbEntity
  8
1
 62
     8
100
AcDbLine
 10
354.9175492541384
 20
323.4112994159344
 30
0.0
 11
355.6593961120436
 21
317.4112994159344
 31
0.0
  0
LINE
  5
AB1
330
1A
100
AcDbEntity
  8
1
100
AcDbLine
 10
361.489311331575
 20
323.4116336101856
 30
0.0
 11
362.2205273920066
 21
317.4563567003383
 31
0.0
  0
ARC
  5
AB2
330
1A
100
AcDbEntity
  8
1
 62
     8
100
AcDbCircle
 10
358.2041862388072
 20
308.5461691300784
 30
0.0
 40
15.22412825367855
100
AcDbArc
 50
77.53846614025556
 51
102.4673611918602
  0
LINE
  5
AB3
330
1A
100
AcDbEntity
  8
1
 62
     8
100
AcDbLine
 10
324.717729714111
 20
331.9057021101721
 30
0.0
 11
319.2233270198743
 21
326.4112994159363
 31
0.0
  0
LINE
  5
AB4
330
1A
100
AcDbEntity
  8
1
100
AcDbLine
 10
342.2232832135772
 20
329.4112994159344
 30
0.0
 11
322.2232832135782
 21
329.4112994159354
 31
0.0
  0
LINE
  5
AB5
330
1A
100
AcDbEntity
  8
1
100
AcDbLine
 10
347.3753858779104
 20
326.4112994159344
 30
0.0
 11
317.0711805492496
 21
326.4112994159353
 31
0.0
  0
LINE
  5
AB6
330
1A
100
AcDbEntity
  8
1
100
AcDbLine
 10
320.2232832135773
 20
326.4112994159353
 30
0.0
 11
322.2232832135782
 21
329.4112994159354
 31
0.0
  0
LINE
  5
AB7
330
1A
100
AcDbEntity
  8
1
100
AcDbLine
 10
344.2232832135772
 20
326.4112994159344
 30
0.0
 11
342.2232832135782
 21
329.4112994159344
 31
0.0
  0
LINE
  5
AB8
330
1A
100
AcDbEntity
  8
1
100
AcDbLine
 10
330.5370355188628
 20
334.4112994159372
 30
0.0
 11
349.2233271538866
 21
334.4112994159353
 31
0.0
  0
ARC
  5
AB9
330
1A
100
AcDbEntity
  8
1
100
AcDbCircle
 10
349.2233271538874
 20
342.4112994159463
 30
0.0
 40
8.0
100
AcDbArc
 50
270.0
 51
0.0
  0
LINE
  5
ABA
330
1A
100
AcDbEntity
  8
1
100
AcDbLine
 10
357.2233271538874
 20
353.9112065768589
 30
0.0
 11
357.2233271538874
 21
342.4112994159463
 31
0.0
  0
LINE
  5
ABB
330
1A
100
AcDbEntity
  8
1
100
AcDbLine
 10
337.7177297141118
 20
334.4112994159345
 30
0.0
 11
326.7288367130471
 21
334.4112994159345
 31
0.0
  0
ARC
  5
ABC
330
1A
100
AcDbEntity
  8
1
 62
     8
100
AcDbCircle
 10
335.4732832135808
 20
325.024147280686
 30
0.0
 40
9.387152135249495
100
AcDbArc
 50
90.0
 51
110.2561580004164
  0
LINE
  5
ABD
330
1A
100
AcDbEntity
  8
1
 62
     8
100
AcDbLine
 10
332.2232832135808
 20
333.8307428323346
 30
0.0
 11
332.2232832135808
 21
329.9918559995353
 31
0.0
  0
LINE
  5
ABE
330
1A
100
AcDbEntity
  8
1
100
AcDbLine
 10
325.7232832135808
 20
333.8307428323346
 30
0.0
 11
325.7232832135799
 21
329.9918559995353
 31
0.0
  0
ARC
  5
ABF
330
1A
100
AcDbEntity
  8
1
 62
     8
100
AcDbCircle
 10
328.9732832135808
 20
325.024147280686
 30
0.0
 40
9.387152135249495
100
AcDbArc
 50
69.74384199958326
 51
110.2561580006069
  0
LINE
  5
AC0
330
1A
100
AcDbEntity
  8
1
100
AcDbLine
 10
338.7232832135818
 20
333.8307428323346
 30
0.0
 11
338.7232832135808
 21
329.9918559995353
 31
0.0
  0
ARC
  5
AC1
330
1A
100
AcDbEntity
  8
1
 62
     8
100
AcDbCircle
 10
328.9732832135808
 20
338.7984515511839
 30
0.0
 40
9.387152135249495
100
AcDbArc
 50
249.743842001175
 51
290.2561580004163
  0
LINE
  5
AC2
330
1A
100
AcDbEntity
  8
1
100
AcDbLine
 10
337.7177297141154
 20
329.4112994159336
 30
0.0
 11
326.7288367130481
 21
329.4112994159354
 31
0.0
  0
ARC
  5
AC3
330
1A
100
AcDbEntity
  8
1
 62
     8
100
AcDbCircle
 10
335.4732832135808
 20
338.7984515511839
 30
0.0
 40
9.387152135249495
100
AcDbArc
 50
249.7438419995836
 51
290.2561580023942
  0
LINE
  5
AC4
330
1A
100
AcDbEntity
  8
1
100
AcDbLine
 10
325.7232832135808
 20
333.8307428323346
 30
0.0
 11
326.7288367130443
 21
334.4112994159336
 31
0.0
  0
LINE
  5
AC5
330
1A
100
AcDbEntity
  8
1
100
AcDbLine
 10
338.7232832135808
 20
333.8307428323346
 30
0.0
 11
337.7177297141173
 21
334.4112994159336
 31
0.0
  0
LINE
  5
AC6
330
1A
100
AcDbEntity
  8
1
100
AcDbLine
 10
325.7232832135808
 20
329.9918559995343
 30
0.0
 11
326.7288367130443
 21
329.4112994159354
 31
0.0
  0
LINE
  5
AC7
330
1A
100
AcDbEntity
  8
1
100
AcDbLine
 10
338.7232832135808
 20
329.9918559995343
 30
0.0
 11
337.7177297141173
 21
329.4112994159354
 31
0.0
  0
LINE
  5
AC8
330
1A
100
AcDbEntity
  8
1
100
AcDbLine
 10
302.9572550955794
 20
323.4116336101865
 30
0.0
 11
302.2260390351478
 21
317.4563567003383
 31
0.0
  0
LINE
  5
AC9
330
1A
100
AcDbEntity
  8
1
100
AcDbLine
 10
302.9572844412663
 20
323.4112981874555
 30
0.0
 11
317.0711805492469
 21
326.4112994159353
 31
0.0
  0
ARC
  5
ACA
330
1A
100
AcDbEntity
  8
1
 62
     8
100
AcDbCircle
 10
306.2423801883482
 20
308.5461691300793
 30
0.0
 40
15.22412825367855
100
AcDbArc
 50
77.53263880813904
 51
102.4615338597437
  0
LINE
  5
ACB
330
1A
100
AcDbEntity
  8
1
100
AcDbLine
 10
362.2232832135773
 20
317.4112994159344
 30
0.0
 11
302.2232832135772
 21
317.4112994159353
 31
0.0
  0
ARC
  5
ACC
330
1A
100
AcDbEntity
  8
1
100
AcDbCircle
 10
260.3233267999448
 20
478.8062560313881
 30
-0.0000000000000142
 40
2.0
100
AcDbArc
 50
341.8051276612386
 51
0.0
  0
LINE
  5
ACD
330
1A
100
AcDbEntity
  8
1
100
AcDbLine
 10
283.2364801409884
 20
475.4934442772049
 30
-0.0000000000000142
 11
264.7233267999454
 21
475.0062560313881
 31
-0.0000000000000142
  0
ARC
  5
ACE
330
1A
100
AcDbEntity
  8
1
 62
     8
100
AcDbCircle
 10
283.7233267999463
 20
477.5062560313874
 30
-0.0000000000000142
 40
0.5
100
AcDbArc
 50
270.0
 51
0.0
  0
ARC
  5
ACF
330
1A
100
AcDbEntity
  8
1
100
AcDbCircle
 10
283.2233267999445
 20
475.9932712368811
 30
-0.0000000000000142
 40
0.5
100
AcDbArc
 50
271.5074357587749
 51
0.0
  0
ARC
  5
AD0
330
1A
100
AcDbEntity
  8
1
100
AcDbCircle
 10
355.723326599675
 20
402.4112065768672
 30
0.0
 40
11.5
100
AcDbArc
 50
359.9999999999983
 51
90.0
  0
LINE
  5
AD2
330
1A
100
AcDbEntity
  8
1
100
AcDbLine
 10
306.7233267999463
 20
566.4112065768384
 30
-0.0000000000000142
 11
287.0625937651793
 21
566.4112065768384
 31
-0.0000000000000142
  0
LINE
  5
AD3
330
1A
100
AcDbEntity
  8
1
100
AcDbLine
 10
308.2233267999463
 20
567.9112065768386
 30
-0.0000000000000142
 11
308.2233267999463
 21
570.4111423565128
 31
-0.0000000000000142
  0
ARC
  5
AD4
330
1A
100
AcDbEntity
  8
1
100
AcDbCircle
 10
306.7233267999463
 20
567.9112065768382
 30
-0.0000000000000142
 40
1.5
100
AcDbArc
 50
270.0
 51
0.0
  0
LINE
  5
AD5
330
1A
100
AcDbEntity
  8
1
 48
0.25
100
AcDbLine
 10
319.8066659850028
 20
570.4111310855117
 30
-0.0000000000000995
 11
284.8066659849968
 21
570.4111651417568
 31
-0.0000000000000426
  0
LINE
  5
AD6
330
1A
100
AcDbEntity
  8
1
100
AcDbLine
 10
282.2233267999454
 20
519.8062560313879
 30
-0.0000000000000142
 11
262.3233267999448
 21
519.8062560313874
 31
-0.0000000000000142
  0
ARC
  5
AD7
330
1A
100
AcDbEntity
  8
1
100
AcDbCircle
 10
283.2233267999453
 20
524.0192408258947
 30
-0.0000000000000142
 40
0.5
100
AcDbArc
 50
0.0
 51
88.49256424122506
  0
ARC
  5
AD8
330
1A
100
AcDbEntity
  8
1
 62
     8
100
AcDbCircle
 10
283.7233267999453
 20
522.5062560313878
 30
-0.0000000000000142
 40
0.5
100
AcDbArc
 50
0.0
 51
90.0
  0
LINE
  5
AD9
330
1A
100
AcDbEntity
  8
1
100
AcDbLine
 10
283.2364801409894
 20
524.5190677855712
 30
-0.0000000000000142
 11
282.7141132279956
 21
524.5328142832813
 31
-0.0000000000000142
  0
LINE
  5
ADA
330
1A
100
AcDbEntity
  8
1
100
AcDbLine
 10
287.0625937651793
 20
566.4112065768384
 30
-0.0000000000000142
 11
282.2233267999454
 21
519.8062560313879
 31
-0.0000000000000142
  0
LINE
  5
ADB
330
1A
100
AcDbEntity
  8
1
 62
     8
100
AcDbLine
 10
269.1625937651783
 20
566.4112065768384
 30
-0.0000000000000142
 11
264.3233267999448
 21
519.8062560313879
 31
-0.0000000000000142
  0
LINE
  5
ADE
330
1A
100
AcDbEntity
  8
1
100
AcDbLine
 10
222.2233267999444
 20
506.8062560313883
 30
-0.0000000000000142
 11
222.2233267999438
 21
413.911206576859
 31
-0.0000000000000142
  0
LINE
  5
ADF
330
1A
100
AcDbEntity
  8
1
100
AcDbLine
 10
222.1233267999459
 20
519.8062560313879
 30
-0.0000000000000142
 11
222.1233267999459
 21
478.8062560313883
 31
-0.0000000000000142
  0
LINE
  5
AE0
330
1A
100
AcDbEntity
  8
1
100
AcDbLine
 10
219.7233267999454
 20
475.0062560313881
 30
-0.0000000000000142
 11
219.7233267999454
 21
519.8062560313883
 31
-0.0000000000000142
  0
LINE
  5
AE1
330
1A
100
AcDbEntity
  8
1
 62
     8
100
AcDbLine
 10
200.2233267999444
 20
477.5062560313877
 30
-0.0000000000000142
 11
200.2233267999454
 21
522.5062560313881
 31
-0.0000000000000142
  0
LINE
  5
AE2
330
1A
100
AcDbEntity
  8
1
100
AcDbLine
 10
200.7233267999463
 20
475.9932712368813
 30
-0.0000000000000142
 11
200.7233267999454
 21
524.0192408258947
 31
-0.0000000000000142
  0
LINE
  5
AE3
330
1A
100
AcDbEntity
  8
1
100
AcDbLine
 10
117.2233270002392
 20
402.4112065768508
 30
0.0
 11
117.2233270002402
 21
353.9112065768589
 31
0.0
  0
LINE
  5
AE4
330
1A
100
AcDbEntity
  8
1
100
AcDbLine
 10
181.4893691586489
 20
323.4112981874555
 30
0.0
 11
167.3754730506684
 21
326.4112994159355
 31
0.0
  0
LINE
  5
AE5
330
1A
100
AcDbEntity
  8
1
100
AcDbLine
 10
122.9573716140262
 20
323.4112981874546
 30
0.0
 11
137.0712677220076
 21
326.4112994159344
 31
0.0
  0
LINE
  5
AE6
330
1A
100
AcDbEntity
  8
1
 62
     8
100
AcDbLine
 10
199.5664727703774
 20
332.0681536654378
 30
0.0
 11
209.880181269364
 21
321.754445166453
 31
0.0
  0
ARC
  5
AE7
330
1A
100
AcDbEntity
  8
1
 62
     8
100
AcDbCircle
 10
162.9531906062279
 20
239.9557227225118
 30
0.0
 40
83.81457464156119
100
AcDbArc
 50
84.69507829858379
 51
95.30492170141476
  0
LINE
  5
AE8
330
1A
100
AcDbEntity
  8
1
100
AcDbLine
 10
122.223370386338
 20
317.4112994159346
 30
0.0
 11
182.2233703863378
 21
317.4112994159353
 31
0.0
  0
LINE
  5
AE9
330
1A
100
AcDbEntity
  8
1
 62
     8
100
AcDbLine
 10
174.9176364268981
 20
323.4112994159354
 30
0.0
 11
175.6594832848044
 21
317.4112994159346
 31
0.0
  0
LINE
  5
AEA
330
1A
100
AcDbEntity
  8
1
 62
     8
100
AcDbLine
 10
170.9516541360656
 20
317.4112994159346
 30
0.0
 11
170.7023609562679
 21
323.4112994159354
 31
0.0
  0
ARC
  5
AEB
330
1A
100
AcDbEntity
  8
1
 62
     8
100
AcDbCircle
 10
172.8099986915825
 20
317.4039429408708
 30
0.0
 40
6.3663544232017
100
AcDbArc
 50
70.66694630461736
 51
109.3330536953794
  0
LINE
  5
AEC
330
1A
100
AcDbEntity
  8
1
100
AcDbLine
 10
181.4893985043358
 20
323.4116336101866
 30
0.0
 11
182.2206145647673
 21
317.4563567003383
 31
0.0
  0
ARC
  5
AED
330
1A
100
AcDbEntity
  8
1
 62
     8
100
AcDbCircle
 10
178.2042734115669
 20
308.5461691300793
 30
0.0
 40
15.22412825367855
100
AcDbArc
 50
77.5384661402563
 51
102.4673611918609
  0
LINE
  5
AEE
330
1A
100
AcDbEntity
  8
1
 62
     8
100
AcDbLine
 10
144.2233703863379
 20
316.4670275059356
 30
0.0
 11
160.223370386338
 21
316.4670275059356
 31
0.0
  0
LINE
  5
AEF
330
1A
100
AcDbEntity
  8
1
100
AcDbLine
 10
144.2233703863379
 20
317.4112994159346
 30
0.0
 11
144.2233703863379
 21
316.4670275059356
 31
0.0
  0
LINE
  5
AF0
330
1A
100
AcDbEntity
  8
1
100
AcDbLine
 10
160.223370386338
 20
317.4112994159353
 30
0.0
 11
160.223370386338
 21
316.4670275059356
 31
0.0
  0
ARC
  5
AF1
330
1A
100
AcDbEntity
  8
1
100
AcDbCircle
 10
152.2233703863379
 20
325.4112994159354
 30
0.0
 40
12.0
100
AcDbArc
 50
228.1896851042221
 51
311.8103148957783
  0
ARC
  5
AF2
330
1A
100
AcDbEntity
  8
1
 62
     8
100
AcDbCircle
 10
152.2233703863379
 20
311.2170874917378
 30
0.0
 40
12.55320987233474
100
AcDbArc
 50
76.2644299538157
 51
103.7355700461829
  0
ARC
  5
AF3
330
1A
100
AcDbEntity
  8
1
 62
     8
100
AcDbCircle
 10
141.493550166447
 20
239.9557227225109
 30
0.0
 40
83.81457464156119
100
AcDbArc
 50
84.69507829858498
 51
95.3049217014159
  0
ARC
  5
AF4
330
1A
100
AcDbEntity
  8
1
 62
     8
100
AcDbCircle
 10
131.6367420810924
 20
317.4039429408708
 30
0.0
 40
6.3663544232017
100
AcDbArc
 50
70.66694630462119
 51
109.3330536953833
  0
LINE
  5
AF5
330
1A
100
AcDbEntity
  8
1
 62
     8
100
AcDbLine
 10
155.5523083020784
 20
317.4112994159353
 30
0.0
 11
155.2040202561896
 21
323.4112994159354
 31
0.0
  0
LINE
  5
AF6
330
1A
100
AcDbEntity
  8
1
 62
     8
100
AcDbLine
 10
148.8944324705975
 20
317.4112994159346
 30
0.0
 11
149.2427205164853
 21
323.4112994159346
 31
0.0
  0
LINE
  5
AF7
330
1A
100
AcDbEntity
  8
1
 62
     8
100
AcDbLine
 10
133.4950866366102
 20
317.4112994159346
 30
0.0
 11
133.7443798164072
 21
323.4112994159346
 31
0.0
  0
LINE
  5
AF8
330
1A
100
AcDbEntity
  8
1
 62
     8
100
AcDbLine
 10
129.5291043457768
 20
323.4112994159346
 30
0.0
 11
128.7872574878714
 21
317.4112994159346
 31
0.0
  0
LINE
  5
AF9
330
1A
100
AcDbEntity
  8
1
100
AcDbLine
 10
122.9573422683402
 20
323.4116336101856
 30
0.0
 11
122.2261262079086
 21
317.4563567003383
 31
0.0
  0
ARC
  5
AFA
330
1A
100
AcDbEntity
  8
1
 62
     8
100
AcDbCircle
 10
126.242467361108
 20
308.5461691300793
 30
0.0
 40
15.22412825367855
100
AcDbArc
 50
77.53263880813968
 51
102.4615338597443
  0
LINE
  5
AFB
330
1A
100
AcDbEntity
  8
1
 62
     8
100
AcDbLine
 10
171.5102587902324
 20
330.2902803364982
 30
0.0
 11
158.7233703863369
 21
330.2902803421171
 31
0.0
  0
LINE
  5
AFC
330
1A
100
AcDbEntity
  8
1
100
AcDbLine
 10
137.0712677220049
 20
326.4112994159344
 30
0.0
 11
167.3754730506655
 21
326.4112994159355
 31
0.0
  0
LINE
  5
AFD
330
1A
100
AcDbEntity
  8
1
100
AcDbLine
 10
164.2233703863379
 20
326.4112994159355
 30
0.0
 11
162.223370386337
 21
329.4112994159354
 31
0.0
  0
LINE
  5
AFE
330
1A
100
AcDbEntity
  8
1
 62
     8
100
AcDbLine
 10
171.5102587902324
 20
330.2902803364982
 30
0.0
 11
171.5102587902324
 21
334.4112994159473
 31
0.0
  0
ARC
  5
AFF
330
1A
100
AcDbEntity
  8
1
 62
     8
100
AcDbCircle
 10
193.9096185208866
 20
326.4112994159463
 30
0.0
 40
8.0
100
AcDbArc
 50
44.99999999999679
 51
90.00000000000005
  0
LINE
  5
B00
330
1A
100
AcDbEntity
  8
1
100
AcDbLine
 10
142.223370386338
 20
329.4112994159346
 30
0.0
 11
162.223370386337
 21
329.4112994159354
 31
0.0
  0
LINE
  5
B01
330
1A
100
AcDbEntity
  8
1
100
AcDbLine
 10
140.223370386338
 20
326.4112994159344
 30
0.0
 11
142.223370386337
 21
329.4112994159346
 31
0.0
  0
ARC
  5
B02
330
1A
100
AcDbEntity
  8
1
100
AcDbCircle
 10
135.2233268858411
 20
342.4112994159481
 30
0.0
 40
8.0
100
AcDbArc
 50
180.0
 51
270.0
  0
LINE
  5
B03
330
1A
100
AcDbEntity
  8
1
100
AcDbLine
 10
127.2233268858412
 20
353.9112065768589
 30
0.0
 11
127.2233268858412
 21
342.4112994159481
 31
0.0
  0
LINE
  5
B04
330
1A
100
AcDbEntity
  8
1
100
AcDbLine
 10
146.7289238858033
 20
334.4112994159345
 30
0.0
 11
157.717816886868
 21
334.4112994159345
 31
0.0
  0
ARC
  5
B05
330
1A
100
AcDbEntity
  8
1
 62
     8
100
AcDbCircle
 10
148.9733703863342
 20
325.0241472806861
 30
0.0
 40
9.387152135249495
100
AcDbArc
 50
69.74384199958357
 51
90.0
  0
LINE
  5
B06
330
1A
100
AcDbEntity
  8
1
 62
     8
100
AcDbLine
 10
152.2233703863342
 20
333.8307428323346
 30
0.0
 11
152.2233703863342
 21
329.9918559995353
 31
0.0
  0
LINE
  5
B07
330
1A
100
AcDbEntity
  8
1
100
AcDbLine
 10
158.7233703863343
 20
333.8307428323346
 30
0.0
 11
158.7233703863351
 21
329.9918559995353
 31
0.0
  0
ARC
  5
B08
330
1A
100
AcDbEntity
  8
1
 62
     8
100
AcDbCircle
 10
155.4733703863343
 20
325.0241472806861
 30
0.0
 40
9.387152135249495
100
AcDbArc
 50
69.743841999393
 51
110.2561580004167
  0
LINE
  5
B09
330
1A
100
AcDbEntity
  8
1
100
AcDbLine
 10
145.7233703863334
 20
333.8307428323346
 30
0.0
 11
145.7233703863342
 21
329.9918559995353
 31
0.0
  0
ARC
  5
B0A
330
1A
100
AcDbEntity
  8
1
 62
     8
100
AcDbCircle
 10
155.4733703863343
 20
338.7984515511839
 30
0.0
 40
9.387152135249495
100
AcDbArc
 50
249.7438419995835
 51
290.2561579988248
  0
LINE
  5
B0B
330
1A
100
AcDbEntity
  8
1
100
AcDbLine
 10
146.7289238857997
 20
329.4112994159336
 30
0.0
 11
157.7178168868671
 21
329.4112994159354
 31
0.0
  0
ARC
  5
B0C
330
1A
100
AcDbEntity
  8
1
 62
     8
100
AcDbCircle
 10
148.9733703863342
 20
338.7984515511839
 30
0.0
 40
9.387152135249495
100
AcDbArc
 50
249.7438419976055
 51
290.2561580004163
  0
LINE
  5
B0D
330
1A
100
AcDbEntity
  8
1
100
AcDbLine
 10
158.7233703863343
 20
333.8307428323346
 30
0.0
 11
157.7178168868707
 21
334.4112994159337
 31
0.0
  0
LINE
  5
B0E
330
1A
100
AcDbEntity
  8
1
100
AcDbLine
 10
145.7233703863342
 20
333.8307428323346
 30
0.0
 11
146.7289238857977
 21
334.4112994159337
 31
0.0
  0
LINE
  5
B0F
330
1A
100
AcDbEntity
  8
1
100
AcDbLine
 10
158.7233703863343
 20
329.9918559995345
 30
0.0
 11
157.7178168868707
 21
329.4112994159354
 31
0.0
  0
LINE
  5
B10
330
1A
100
AcDbEntity
  8
1
100
AcDbLine
 10
145.7233703863342
 20
329.9918559995345
 30
0.0
 11
146.7289238857977
 21
329.4112994159354
 31
0.0
  0
ARC
  5
B11
330
1A
100
AcDbEntity
  8
1
 62
     8
100
AcDbCircle
 10
215.5370355188555
 20
327.4112994159462
 30
0.0
 40
8.0
100
AcDbArc
 50
225.0000000000063
 51
270.0
  0
LINE
  5
B14
330
1A
100
AcDbEntity
  8
1
100
AcDbLine
 10
201.2101734589023
 20
475.4934442772049
 30
-0.0000000000000142
 11
219.7233267999454
 21
475.0062560313881
 31
-0.0000000000000142
  0
ARC
  5
B15
330
1A
100
AcDbEntity
  8
1
100
AcDbCircle
 10
224.1233267999459
 20
478.8062560313885
 30
-0.0000000000000142
 40
2.0
100
AcDbArc
 50
180.0
 51
198.1948723388025
  0
ARC
  5
B16
330
1A
100
AcDbEntity
  8
1
100
AcDbCircle
 10
201.2233267999463
 20
475.9932712368811
 30
-0.0000000000000142
 40
0.5
100
AcDbArc
 50
180.0
 51
268.492564241225
  0
ARC
  5
B17
330
1A
100
AcDbEntity
  8
1
100
AcDbCircle
 10
200.7233267999445
 20
477.5062560313874
 30
-0.0000000000000142
 40
0.5
100
AcDbArc
 50
180.0
 51
270.0
  0
ARC
  5
B19
330
1A
100
AcDbEntity
  8
1
100
AcDbCircle
 10
128.7233270002392
 20
402.4112065768518
 30
0.0
 40
11.5
100
AcDbArc
 50
90.00000000000609
 51
180.0000000000076
  0
LINE
  5
B1A
330
1A
100
AcDbEntity
  8
1
 62
     8
100
AcDbLine
 10
232.2233267999463
 20
566.4112065768384
 30
-0.0000000000000142
 11
197.384059834716
 21
566.4112065768388
 31
-0.0000000000000142
  0
ARC
  5
B1B
330
1A
100
AcDbEntity
  8
1
 62
     8
100
AcDbCircle
 10
232.2233267999463
 20
568.4112065768382
 30
-0.0000000000000142
 40
2.0
100
AcDbArc
 50
270.0
 51
0.0
  0
LINE
  5
B1C
330
1A
100
AcDbEntity
  8
1
 48
0.25
100
AcDbLine
 10
199.8066659850069
 20
570.4112478497799
 30
0.0000000000000426
 11
164.8066659850014
 21
570.4112819060251
 31
0.0000000000000995
  0
LINE
  5
B1D
330
1A
100
AcDbEntity
  8
1
100
AcDbLine
 10
176.2233267999463
 20
567.9112065768386
 30
-0.0000000000000142
 11
176.2233267999463
 21
570.4112707972081
 31
-0.0000000000000142
  0
ARC
  5
B1E
330
1A
100
AcDbEntity
  8
1
100
AcDbCircle
 10
177.7233267999463
 20
567.9112065768382
 30
-0.0000000000000142
 40
1.5
100
AcDbArc
 50
180.0
 51
270.0
  0
LINE
  5
B1F
330
1A
100
AcDbEntity
  8
1
100
AcDbLine
 10
222.1233267999459
 20
519.8062560313883
 30
-0.0000000000000142
 11
202.2233267999444
 21
519.8062560313883
 31
-0.0000000000000142
  0
ARC
  5
B20
330
1A
100
AcDbEntity
  8
1
 62
     8
100
AcDbCircle
 10
200.7233267999454
 20
522.5062560313878
 30
-0.0000000000000142
 40
0.5
100
AcDbArc
 50
90.0
 51
180.0
  0
ARC
  5
B21
330
1A
100
AcDbEntity
  8
1
100
AcDbCircle
 10
201.2233267999454
 20
524.0192408258947
 30
-0.0000000000000142
 40
0.5
100
AcDbArc
 50
91.50743575877495
 51
180.0
  0
LINE
  5
B22
330
1A
100
AcDbEntity
  8
1
100
AcDbLine
 10
201.2101734589013
 20
524.5190677855712
 30
-0.0000000000000142
 11
201.732540371896
 21
524.5328142832818
 31
-0.0000000000000142
  0
LINE
  5
B23
330
1A
100
AcDbEntity
  8
1
 62
     8
100
AcDbLine
 10
247.2233267999454
 20
506.8062560313883
 30
-0.0000000000000142
 11
247.2233267999476
 21
573.4112017116823
 31
-0.0000000000000142
  0
LINE
  5
B24
330
1A
100
AcDbEntity
  8
1
 62
     8
100
AcDbLine
 10
245.7233267999454
 20
506.8062560313883
 30
-0.0000000000000142
 11
245.7233267999475
 21
573.4112031712359
 31
-0.0000000000000142
  0
LINE
  5
B25
330
1A
100
AcDbEntity
  8
1
 62
     8
100
AcDbLine
 10
242.9733267999454
 20
506.8062560313883
 30
-0.0000000000000142
 11
242.9733267999476
 21
573.4112058470835
 31
-0.0000000000000142
  0
LINE
  5
B26
330
1A
100
AcDbEntity
  8
1
 62
     8
100
AcDbLine
 10
241.4733267999463
 20
506.8062560313883
 30
-0.0000000000000142
 11
241.4733267999463
 21
573.4112073066369
 31
-0.0000000000000142
  0
LINE
  5
B27
330
1A
100
AcDbEntity
  8
1
 62
     8
100
AcDbLine
 10
238.7233267999463
 20
506.8062560313883
 30
-0.0000000000000142
 11
238.7233267999463
 21
573.4112099824847
 31
-0.0000000000000142
  0
LINE
  5
B28
330
1A
100
AcDbEntity
  8
1
 62
     8
100
AcDbLine
 10
237.2233267999454
 20
506.8062560313883
 30
-0.0000000000000142
 11
237.2233267999472
 21
573.4112114420383
 31
-0.0000000000000142
  0
LINE
  5
B29
330
1A
100
AcDbEntity
  8
1
 62
     8
100
AcDbLine
 10
215.2840598347143
 20
566.4112065768384
 30
-0.0000000000000142
 11
220.1233267999459
 21
519.8062560313883
 31
-0.0000000000000142
  0
LINE
  5
B2A
330
1A
100
AcDbEntity
  8
1
100
AcDbLine
 10
197.384059834716
 20
566.4112065768384
 30
-0.0000000000000142
 11
202.2233267999444
 21
519.8062560313883
 31
-0.0000000000000142
  0
LINE
  5
B48
330
1A
100
AcDbEntity
  8
1
100
AcDbLine
 10
926.9458753973523
 20
619.5044326812749
 30
0.0
 11
923.1954975263263
 21
610.0955899521558
 31
0.0
  0
LINE
  5
B4B
330
1A
100
AcDbEntity
  8
1
100
AcDbLine
 10
924.0951981799726
 20
606.6236225373467
 30
0.0
 11
923.1748192287978
 21
609.4118622857767
 31
0.0
  0
ARC
  5
B4C
330
1A
100
AcDbEntity
  8
1
100
AcDbCircle
 10
924.12442153978
 20
609.7253195412012
 30
0.0
 40
1.0
100
AcDbArc
 50
158.2677048101814
 51
198.2677048101134
  0
LINE
  5
B4E
330
1A
100
AcDbEntity
  8
1
 62
     8
100
AcDbLine
 10
925.1976012050427
 20
607.097655838208
 30
0.0
 11
925.5926289556121
 21
606.1789866508479
 31
0.0
  0
LINE
  5
B50
330
1A
100
AcDbEntity
  8
1
100
AcDbLine
 10
924.4902259305106
 20
605.704953350053
 30
0.0
 11
929.0066798349307
 21
597.3056498504665
 31
0.0
  0
LINE
  5
B52
330
1A
100
AcDbEntity
  8
1
100
AcDbLine
 10
932.9154905146332
 20
595.4957359401213
 30
0.0
 11
929.5171538609274
 21
596.8503176832017
 31
0.0
  0
ARC
  5
B53
330
1A
100
AcDbEntity
  8
1
100
AcDbCircle
 10
929.8874242718827
 20
597.7792416966567
 30
0.0
 40
1.0
100
AcDbArc
 50
208.2677048100686
 51
248.2677048101214
  0
ARC
  5
B54
330
1A
100
AcDbEntity
  8
1
100
AcDbCircle
 10
933.285760925588
 20
596.4246599535758
 30
0.0
 40
1.0
100
AcDbArc
 50
248.2677048101241
 51
293.2677048100661
  0
LINE
  5
B55
330
1A
100
AcDbEntity
  8
1
100
AcDbLine
 10
938.8122785648802
 20
597.7125314181075
 30
0.0
 11
953.1059592262018
 21
574.9691216238548
 31
0.0
  0
ARC
  5
B56
330
1A
100
AcDbEntity
  8
1
 62
     8
100
AcDbCircle
 10
941.522213544979
 20
626.0910814684048
 30
0.0
 40
1.0
100
AcDbArc
 50
23.26770481015119
 51
203.2677048101511
  0
LINE
  5
B57
330
1A
100
AcDbEntity
  8
1
 62
     8
100
AcDbLine
 10
942.4408827325583
 20
626.4861092190657
 30
0.0
 11
940.6035443573996
 21
625.6960537177437
 31
0.0
  0
ARC
  5
B58
330
1A
100
AcDbEntity
  8
1
 62
     8
100
AcDbCircle
 10
947.9528978580356
 20
628.8562757230314
 30
0.0
 40
1.0
100
AcDbArc
 50
23.26770481015119
 51
203.2677048101511
  0
LINE
  5
B59
330
1A
100
AcDbEntity
  8
1
 62
     8
100
AcDbLine
 10
948.871567045615
 20
629.2513034736924
 30
0.0
 11
947.0342286704553
 21
628.4612479723705
 31
0.0
  0
ARC
  5
B5A
330
1A
100
AcDbEntity
  8
1
100
AcDbCircle
 10
927.8747994108062
 20
619.1341622703203
 30
0.0
 40
1.0
100
AcDbArc
 50
113.2677048101516
 51
158.2677048101741
  0
LINE
  5
B5B
330
1A
100
AcDbEntity
  8
1
100
AcDbLine
 10
940.8425668199743
 20
625.7988333766525
 30
0.0
 11
927.479771660146
 21
620.052831457899
 31
0.0
  0
ARC
  5
B5C
330
1A
100
AcDbEntity
  8
1
 62
     8
100
AcDbCircle
 10
954.3835821710914
 20
631.6214699776577
 30
0.0
 40
1.0
100
AcDbArc
 50
23.26770481015119
 51
203.2677048101511
  0
LINE
  5
B5D
330
1A
100
AcDbEntity
  8
1
 62
     8
100
AcDbLine
 10
955.3022513586707
 20
632.0164977283192
 30
0.0
 11
953.4649129835118
 21
631.2264422269972
 31
0.0
  0
ARC
  5
BF9
330
1A
100
AcDbEntity
  8
1
100
AcDbCircle
 10
1024.21176624232
 20
664.913182489598
 30
0.0
 40
45.0
100
AcDbArc
 50
235.4986574455561
 51
351.0367521745761
  0
LINE
  5
BFA
330
1A
100
AcDbEntity
  8
1
100
AcDbLine
 10
981.1075112276119
 20
518.290256168827
 30
0.0
 11
979.9379162845635
 21
518.290256168827
 31
0.0
  0
LINE
  5
BFB
330
1A
100
AcDbEntity
  8
1
100
AcDbLine
 10
979.9379162845623
 20
518.290256168827
 30
0.0
 11
979.1475811906019
 21
519.0402561688268
 31
0.0
  0
LINE
  5
BFC
330
1A
100
AcDbEntity
  8
1
 62
     8
100
AcDbLine
 10
1014.461682502344
 20
531.2902561688273
 30
0.0
 11
990.4616825023458
 21
531.2902561688273
 31
0.0
  0
LINE
  5
BFD
330
1A
100
AcDbEntity
  8
1
100
AcDbLine
 10
1067.607775897021
 20
676.2896176408194
 30
0.0
 11
1071.082268192648
 21
669.8280626431515
 31
0.0
  0
LINE
  5
BFE
330
1A
100
AcDbEntity
  8
1
100
AcDbLine
 10
1062.681760948233
 20
678.1896868520397
 30
0.0
 11
1042.392229464529
 21
669.4651883140067
 31
0.0
  0
LINE
  5
BFF
330
1A
100
AcDbEntity
  8
1
100
AcDbLine
 10
1072.019310763983
 20
654.9915552637376
 30
0.0
 11
1066.439939558126
 21
588.6150358856192
 31
0.0
  0
LINE
  5
C00
330
1A
100
AcDbEntity
  8
1
 62
     8
100
AcDbLine
 10
1034.553429904996
 20
567.2902561688314
 30
0.0
 11
1034.443128723945
 21
565.1855842563409
 31
0.0
  0
ARC
  5
C01
330
1A
100
AcDbEntity
  8
1
 62
     8
100
AcDbCircle
 10
1032.445869654435
 20
565.290256168827
 30
0.0
 40
2.0
100
AcDbArc
 50
270.0
 51
357.0000000000003
  0
LINE
  5
C02
330
1A
100
AcDbEntity
  8
1
100
AcDbLine
 10
1043.637182502344
 20
570.2902561688541
 30
0.0
 11
1043.63718250235
 21
567.290256168847
 31
0.0
  0
LINE
  5
C03
330
1A
100
AcDbEntity
  8
1
 62
     8
100
AcDbLine
 10
1051.765171879903
 20
575.29025616885
 30
0.0000000000000107
 11
1051.765171879903
 21
606.2902561688497
 31
0.0000000000000105
  0
ARC
  5
C04
330
1A
100
AcDbEntity
  8
1
100
AcDbCircle
 10
1046.510222124037
 20
590.2902561688527
 30
0.0
 40
20.0
100
AcDbArc
 50
270.0000000000007
 51
355.1952178742094
  0
LINE
  5
C05
330
1A
100
AcDbEntity
  8
1
100
AcDbLine
 10
1071.477295943309
 20
668.9093934555721
 30
0.0
 11
1074.466611018132
 21
659.8534202592453
 31
0.0
  0
ARC
  5
C06
330
1A
100
AcDbEntity
  8
1
100
AcDbCircle
 10
1073.517008707151
 20
659.5399630038238
 30
0.0
 40
1.0
100
AcDbArc
 50
338.2677048100301
 51
18.26770481006096
  0
LINE
  5
C07
330
1A
100
AcDbEntity
  8
1
100
AcDbLine
 10
1072.019310763983
 20
654.9915552637376
 30
0.0
 11
1072.557454714734
 21
655.2229571625575
 31
0.0
  0
ARC
  5
C08
330
1A
100
AcDbEntity
  8
1
100
AcDbCircle
 10
1072.162426964075
 20
656.14162635014
 30
0.0
 40
1.0
100
AcDbArc
 50
293.2677048100608
 51
338.2677048100326
  0
LINE
  5
C09
330
1A
100
AcDbEntity
  8
1
100
AcDbLine
 10
1074.445932720605
 20
659.1696925928653
 30
0.0
 11
1073.091350977527
 21
655.7713559391832
 31
0.0
  0
LINE
  5
C0B
330
1A
100
AcDbEntity
  8
1
 62
     8
100
AcDbLine
 10
1070.439199761342
 20
669.551543217689
 30
0.0
 11
1070.834227512004
 21
668.6328740301088
 31
0.0
  0
LINE
  5
C0C
330
1A
100
AcDbEntity
  8
1
 62
     8
100
AcDbLine
 10
1041.289826439433
 20
668.9911550132137
 30
0.0
 11
1045.635131696686
 21
658.8857939498375
 31
0.0
  0
LINE
  5
C0D
330
1A
100
AcDbEntity
  8
1
 62
     8
100
AcDbLine
 10
1042.392229464529
 20
669.4651883140067
 30
0.0
 11
1047.132562472442
 21
658.4411580630952
 31
0.0
  0
LINE
  5
C14
330
1A
100
AcDbEntity
  8
1
 62
     8
100
AcDbLine
 10
1042.787257215189
 20
668.5465191264292
 30
0.0
 11
1041.684854190091
 21
668.0724858256354
 31
0.0
  0
LINE
  5
C16
330
1A
100
AcDbEntity
  8
1
 62
     8
100
AcDbLine
 10
1071.082268192648
 20
669.8280626431515
 30
0.0
 11
1046.737534721798
 21
659.3598272506369
 31
0.0
  0
LINE
  5
C17
330
1A
100
AcDbEntity
  8
1
100
AcDbLine
 10
1068.662247920043
 20
657.9021427223072
 30
0.0
 11
1074.309187444246
 21
660.3303267177157
 31
0.0
  0
LINE
  5
C18
330
1A
100
AcDbEntity
  8
1
100
AcDbLine
 10
1067.635265142221
 20
653.106415646379
 30
0.0
 11
1071.986666859487
 21
654.9775183848042
 31
0.0
  0
LINE
  5
C1A
330
1A
100
AcDbEntity
  8
1
100
AcDbLine
 10
1063.447059109849
 20
678.1999416779143
 30
0.0
 11
1067.097301871024
 21
676.7449498080822
 31
0.0
  0
ARC
  5
C1B
330
1A
100
AcDbEntity
  8
1
100
AcDbCircle
 10
1063.076788698894
 20
677.2710176644614
 30
0.0
 40
1.0
100
AcDbArc
 50
68.26770481015238
 51
113.2677048101522
  0
ARC
  5
C1C
330
1A
100
AcDbEntity
  8
1
100
AcDbCircle
 10
1066.727031460069
 20
675.8160257946292
 30
0.0
 40
1.0
100
AcDbArc
 50
28.26770481015932
 51
68.26770481015238
  0
LINE
  5
C1D
330
1A
100
AcDbEntity
  8
1
100
AcDbLine
 10
976.6189058401939
 20
567.2902561688451
 30
0.0
 11
979.1475811906011
 21
519.0402561688279
 31
0.0
  0
LINE
  5
C1E
330
1A
100
AcDbEntity
  8
1
 62
     8
100
AcDbLine
 10
977.3699350996933
 20
567.2902561688447
 30
0.0
 11
979.9379162845616
 21
518.2902561688273
 31
0.0
  0
LINE
  5
C1F
330
1A
100
AcDbEntity
  8
1
 62
     8
100
AcDbLine
 10
1016.138731439401
 20
563.2902561688268
 30
0.0
 11
1014.461682502344
 21
531.2902561688273
 31
0.0
  0
LINE
  5
C20
330
1A
100
AcDbEntity
  8
1
 62
     8
100
AcDbLine
 10
988.7846335652882
 20
563.2902561688268
 30
0.0
 11
990.4616825023458
 21
531.2902561688273
 31
0.0
  0
LINE
  5
C21
330
1A
100
AcDbEntity
  8
1
100
AcDbLine
 10
1024.637182502349
 20
567.2902561688151
 30
0.0
 11
1023.347182502327
 21
570.2902561688497
 31
0.0
  0
LINE
  5
C22
330
1A
100
AcDbEntity
  8
1
100
AcDbLine
 10
969.6189440607277
 20
567.2902561688442
 30
0.0
 11
996.3583797455394
 21
567.290256168847
 31
0.0
  0
LINE
  5
C23
330
1A
100
AcDbEntity
  8
1
100
AcDbLine
 10
961.5726898321755
 20
570.2902561688487
 30
0.0
 11
969.6189440607222
 21
570.2902561688492
 31
0.0
  0
LINE
  5
C24
330
1A
100
AcDbEntity
  8
1
100
AcDbLine
 10
969.6189440607277
 20
567.2902561688442
 30
0.0
 11
968.3289440607195
 21
570.2902561688487
 31
0.0
  0
ARC
  5
C25
330
1A
100
AcDbEntity
  8
1
 62
     8
100
AcDbCircle
 10
979.4774953502555
 20
565.290256168827
 30
0.0
 40
2.0
100
AcDbArc
 50
183.0
 51
270.0
  0
LINE
  5
C26
330
1A
100
AcDbEntity
  8
1
100
AcDbLine
 10
996.3583797455394
 20
567.2902561687674
 30
0.0
 11
996.358379745534
 21
570.2902561688432
 31
0.0
  0
LINE
  5
C27
330
1A
100
AcDbEntity
  8
1
 62
     8
100
AcDbLine
 10
1014.461682502344
 20
554.2902561688273
 30
0.0
 11
990.4616825023458
 21
554.2902561688273
 31
0.0
  0
LINE
  5
C28
330
1A
100
AcDbEntity
  8
1
 62
     8
100
AcDbLine
 10
969.7651718799036
 20
606.2902561688506
 30
-0.0000000000000002
 11
969.7651718799036
 21
575.2902561688506
 31
0.0000000000000107
  0
ARC
  5
C29
330
1A
100
AcDbEntity
  8
1
 62
     8
100
AcDbCircle
 10
960.8142664841471
 20
634.3866642322844
 30
0.0
 40
1.0
100
AcDbArc
 50
23.26770481015119
 51
203.2677048101511
  0
LINE
  5
C2A
330
1A
100
AcDbEntity
  8
1
 62
     8
100
AcDbLine
 10
961.7329356717263
 20
634.7816919829456
 30
0.0
 11
959.8955972965672
 21
633.9916364816235
 31
0.0
  0
ARC
  5
C2B
330
1A
100
AcDbEntity
  8
1
 62
     8
100
AcDbCircle
 10
967.2449507972027
 20
637.1518584869107
 30
0.0
 40
1.0
100
AcDbArc
 50
23.26770481015119
 51
203.2677048101511
  0
LINE
  5
C2C
330
1A
100
AcDbEntity
  8
1
 62
     8
100
AcDbLine
 10
968.1636199847817
 20
637.5468862375717
 30
0.0
 11
966.326281609623
 21
636.7568307362502
 31
0.0
  0
LINE
  5
C2E
330
1A
100
AcDbEntity
  8
1
 62
     8
100
AcDbLine
 10
993.8863572370047
 20
648.607663256078
 30
0.0
 11
992.049018861846
 21
647.8176077547558
 31
0.0
  0
ARC
  5
C2F
330
1A
100
AcDbEntity
  8
1
 62
     8
100
AcDbCircle
 10
992.9676880494254
 20
648.212635505417
 30
0.0
 40
1.0
100
AcDbArc
 50
23.26770481015119
 51
203.2677048101511
  0
ARC
  5
C31
330
1A
100
AcDbEntity
  8
1
 62
     8
100
AcDbCircle
 10
973.6756351102583
 20
639.917052741537
 30
0.0
 40
1.0
100
AcDbArc
 50
23.26770481015119
 51
203.2677048101511
  0
LINE
  5
C32
330
1A
100
AcDbEntity
  8
1
 62
     8
100
AcDbLine
 10
974.5943042978376
 20
640.3120804921987
 30
0.0
 11
972.7569659226785
 21
639.5220249908766
 31
0.0
  0
ARC
  5
C33
330
1A
100
AcDbEntity
  8
1
 62
     8
100
AcDbCircle
 10
980.1063194233137
 20
642.6822469961638
 30
0.0
 40
1.0
100
AcDbArc
 50
23.26770481015119
 51
203.2677048101511
  0
LINE
  5
C34
330
1A
100
AcDbEntity
  8
1
 62
     8
100
AcDbLine
 10
981.0249886108932
 20
643.0772747468251
 30
0.0
 11
979.1876502357343
 21
642.2872192455034
 31
0.0
  0
ARC
  5
C35
330
1A
100
AcDbEntity
  8
1
 62
     8
100
AcDbCircle
 10
986.5370037363696
 20
645.4474412507902
 30
0.0
 40
1.0
100
AcDbArc
 50
23.26770481015119
 51
203.2677048101511
  0
LINE
  5
C36
330
1A
100
AcDbEntity
  8
1
 62
     8
100
AcDbLine
 10
987.4556729239488
 20
645.8424690014517
 30
0.0
 11
985.6183345487902
 21
645.0524135001296
 31
0.0
  0
LINE
  5
C38
330
1A
100
AcDbEntity
  8
1
 62
     8
100
AcDbLine
 10
969.7651718799036
 20
606.2902561688506
 30
0.0
 11
1051.765171879903
 21
606.2902561688497
 31
0.0
  0
LINE
  5
C39
330
1A
100
AcDbEntity
  8
1
100
AcDbLine
 10
1024.637182502349
 20
567.2902561688151
 30
0.0
 11
1043.63718250235
 21
567.290256168847
 31
0.0
  0
LINE
  5
C3A
330
1A
100
AcDbEntity
  8
1
100
AcDbLine
 10
1035.461682502345
 20
570.290256168827
 30
0.0
 11
976.4616825023461
 21
570.290256168827
 31
0.0
  0
LINE
  5
C3B
330
1A
100
AcDbEntity
  8
1
100
AcDbLine
 10
969.6189440607232
 20
570.2902561688487
 30
0.0
 11
1046.510222124039
 21
570.2902561688497
 31
0.0
  0
LINE
  5
C3C
330
1A
100
AcDbEntity
  8
1
 62
     8
100
AcDbLine
 10
1032.445869654435
 20
563.2902561688268
 30
0.0
 11
979.4774953502555
 21
563.2902561688268
 31
0.0
  0
LINE
  5
C3D
330
1A
100
AcDbEntity
  8
1
 62
     8
100
AcDbLine
 10
969.6189440607197
 20
575.2902561688506
 30
0.0
 11
1051.765171879903
 21
575.29025616885
 31
0.0
  0
LINE
  5
C3E
330
1A
100
AcDbEntity
  8
1
 62
     8
100
AcDbLine
 10
1014.278553173235
 20
531.4112546248716
 30
0.0
 11
991.0122620831987
 21
531.4112546248733
 31
0.0
  0
DIMENSION
  5
EB5
330
1A
100
AcDbEntity
  8
MEASURE
100
AcDbDimension
  2
*D5
 10
811.7485708346713
 20
256.0123692402721
 30
0.0
 11
721.7486144210514
 21
265.5123692402721
 31
0.0
 70
    32
  3
AD-STANDARD
100
AcDbAlignedDimension
 13
631.7486580074317
 23
313.4112994159431
 33
0.0
 14
811.7485708346713
 24
313.4112994159431
 34
0.0
100
AcDbRotatedDimension
1001
ACAD
1000
DSTYLE
1002
{
1070
   287
1070
     1
1070
   287
1070
     1
1070
    40
1040
5.0
1070
   140
1040
2.799999999999998
1070
   271
1070
     3
1070
   272
1070
     8
1070
   289
1070
     1
1002
}
  0
DIMENSION
  5
EF9
330
1A
100
AcDbEntity
  8
MEASURE
100
AcDbDimension
  2
*D6
 10
596.7486146213341
 20
256.0123692402721
 30
0.0
 11
614.2486363143829
 21
265.5123692402721
 31
0.0
 70
    32
  3
AD-STANDARD
100
AcDbAlignedDimension
 13
631.7486580074317
 23
313.4112994159431
 33
0.0
 14
596.7486146213341
 24
353.9112065768648
 34
0.0
100
AcDbRotatedDimension
1001
ACAD
1000
DSTYLE
1002
{
1070
   287
1070
     1
1070
   287
1070
     1
1070
    40
1040
5.0
1070
   140
1040
2.799999999999998
1070
   271
1070
     3
1070
   272
1070
     8
1070
   289
1070
     1
1002
}
  0
DIMENSION
  5
F20
330
1A
100
AcDbEntity
  8
MEASURE
100
AcDbDimension
  2
*D7
 10
332.2232832135773
 20
256.0123692402721
 30
0.0
 11
242.2233267999576
 21
265.5123692402721
 31
0.0
 70
    32
  3
AD-STANDARD
100
AcDbAlignedDimension
 13
152.2233703863379
 23
313.4112994159355
 33
0.0
 14
332.2232832135773
 24
313.4112994159353
 34
0.0
 50
180.0
100
AcDbRotatedDimension
1001
ACAD
1000
DSTYLE
1002
{
1070
   287
1070
     1
1070
   287
1070
     1
1070
    40
1040
5.0
1070
   140
1040
2.799999999999998
1070
   271
1070
     3
1070
   272
1070
     8
1070
   289
1070
     1
1002
}
  0
DIMENSION
  5
F2D
330
1A
100
AcDbEntity
  8
MEASURE
100
AcDbDimension
  2
*D8
 10
1012.748570834671
 20
256.0123692402721
 30
0.0
 11
912.2485708346712
 21
265.5123692402721
 31
0.0
 70
    32
  3
AD-STANDARD
100
AcDbAlignedDimension
 13
811.7485708346713
 23
313.4112994159431
 33
0.0
 14
1012.748570834671
 24
313.4112994159431
 34
0.0
100
AcDbRotatedDimension
1001
ACAD
1000
DSTYLE
1002
{
1070
   287
1070
     1
1070
   287
1070
     1
1070
    40
1040
5.0
1070
   140
1040
2.799999999999998
1070
   271
1070
     3
1070
   272
1070
     8
1070
   289
1070
     1
1002
}
  0
DIMENSION
  5
F47
330
1A
100
AcDbEntity
  8
MEASURE
100
AcDbDimension
  2
*D9
 10
846.748614220769
 20
463.8546987658201
 30
0.0
 11
721.7486144210511
 21
473.3546987658201
 31
0.0
 70
    32
  3
AD-STANDARD
100
AcDbAlignedDimension
 13
596.7486146213332
 23
402.4112065768579
 33
0.0
 14
846.748614220769
 24
402.4112065768746
 34
0.0
100
AcDbRotatedDimension
1001
ACAD
1000
DSTYLE
1002
{
1070
   287
1070
     1
1070
   287
1070
     1
1070
    40
1040
5.0
1070
   140
1040
2.799999999999998
1070
   271
1070
     3
1070
   272
1070
     8
1070
   289
1070
     1
1002
}
  0
DIMENSION
  5
FEE
330
1A
100
AcDbEntity
  8
MEASURE
100
AcDbDimension
  2
*D10
 10
367.2233265996796
 20
206.0053965633569
 30
0.0
 11
242.2233267999599
 21
215.5053965633569
 31
0.0
 70
    32
  3
AD-STANDARD
100
AcDbAlignedDimension
 13
117.2233270002402
 23
353.9112065768589
 33
0.0
 14
367.2233265996796
 24
353.9112065768824
 34
0.0
100
AcDbRotatedDimension
1001
ACAD
1000
DSTYLE
1002
{
1070
   287
1070
     1
1070
   287
1070
     1
1070
    40
1040
5.0
1070
   140
1040
2.799999999999998
1070
   271
1070
     3
1070
   272
1070
     8
1070
   289
1070
     1
1002
}
  0
POLYLINE
  5
1193
330
1A
100
AcDbEntity
  8
DEFPOINTS
100
AcDb2dPolyline
 66
     1
 10
0.0
 20
0.0
 30
0.0
 70
     1
  0
VERTEX
  5
15A6
330
1193
100
AcDbEntity
  8
DEFPOINTS
100
AcDbVertex
100
AcDb2dVertex
 10
0.0
 20
0.0
 30
0.0
  0
VERTEX
  5
15A7
330
1193
100
AcDbEntity
  8
DEFPOINTS
100
AcDbVertex
100
AcDb2dVertex
 10
1260.0
 20
0.0
 30
0.0
  0
VERTEX
  5
15A8
330
1193
100
AcDbEntity
  8
DEFPOINTS
100
AcDbVertex
100
AcDb2dVertex
 10
1260.0
 20
891.0
 30
0.0
  0
VERTEX
  5
15A9
330
1193
100
AcDbEntity
  8
DEFPOINTS
100
AcDbVertex
100
AcDb2dVertex
 10
0.0
 20
891.0
 30
0.0
  0
SEQEND
  5
15AA
330
1193
100
AcDbEntity
  8
DEFPOINTS
  0
LINE
  5
1351
330
1A
100
AcDbEntity
  8
1
 62
     8
100
AcDbLine
 10
287.0625937651793
 20
566.4112065768384
 30
-0.0000000000000142
 11
252.2233267999463
 21
566.4112065768384
 31
-0.0000000000000142
  0
LINE
  5
1352
330
1A
100
AcDbEntity
  8
1
100
AcDbLine
 10
197.384059834716
 20
566.4112065768385
 30
-0.0000000000000142
 11
177.7233267999463
 21
566.4112065768384
 31
-0.0000000000000142
  0
LINE
  5
1353
330
1A
100
AcDbEntity
  8
1
 62
     8
100
AcDbLine
 10
339.8020348437045
 20
612.4693168362231
 30
-32.11671144568857
 11
144.6449932927768
 21
612.4694968114731
 31
-32.11671144568857
  0
VIEWPORT
  5
119D
330
1196
100
AcDbEntity
 67
     1
  8
0
100
AcDbViewport
 10
203.8983106729403
 20
154.495722220366
 30
0.0
 40
498.6210444558505
 41
409.1776818421207
 68
     1
 69
     1
1001
ACAD
1000
MVIEW
1002
{
1070
    16
1010
0.0
1020
0.0
1030
0.0
1010
0.0
1020
0.0
1030
1.0
1040
0.0
1040
409.1776818421207
1040
203.8983106729403
1040
154.495722220366
1040
50.0
1040
0.0
1040
0.0
1070
     0
1070
   100
1070
     1
1070
     1
1070
     0
1070
     0
1070
     0
1070
     0
1040
0.0
1040
0.0
1040
0.0
1040
10.0
1040
10.0
1040
10.0
1040
10.0
1070
     0
1002
{
1002
}
1002
}
  0
VIEWPORT
  5
119F
330
1196
100
AcDbEntity
 67
     1
  8
DEFPOINTS
100
AcDbViewport
 10
191.6735233386183
 20
142.4185599990373
 30
0.0
 40
378.113818501091
 41
280.5518272110679
 68
     2
 69
     2
1001
ACAD
1000
MVIEW
1002
{
1070
    16
1010
0.0
1020
0.0
1030
0.0
1010
0.0
1020
0.0
1030
1.0
1040
0.0
1040
841.655485247778
1040
634.945987192539
1040
458.9546335057351
1040
50.0
1040
0.0
1040
0.0
1070
     0
1070
   100
1070
     1
1070
     0
1070
     0
1070
     0
1070
     0
1070
     1
1040
0.0
1040
0.0
1040
0.0
1040
1.0
1040
1.0
1040
0.0
1040
0.0
1070
     0
1002
{
1002
}
1002
}
  0
MTEXT
  5
11A0
330
1196
100
AcDbEntity
 67
     1
  8
NOTE
100
AcDbMText
 10
333.0414595384859
 20
22.24064914846962
 30
0.0
 40
3.5
 41
54.3853
 71
     1
 72
     1
  1
HV/W-G
  7
AD-STANDARD
1001
ACAD
1000
MTEXTBEGIN
1070
    73
1070
     1
1070
    44
1040
1.0
1070
    74
1070
     0
1000
MTEXTEND
1000
MTEXTBEGIN
1070
    73
1070
     1
1070
    44
1040
1.0
1070
    74
1070
     0
1000
MTEXTEND
  0
ENDSEC
  0
SECTION
  2
OBJECTS
  0
DICTIONARY
  5
C
330
0
100
AcDbDictionary
  3
ACAD_GROUP
350
D
  3
ACAD_LAYOUT
350
1109
  3
ACAD_MLINESTYLE
350
E
  3
ACAD_PLOTSETTINGS
350
110A
  3
CONTENTDICTIONARY
350
234
1001
ACAD
1000
TREAT_AS_HARD
1070
     0
  0
DICTIONARY
  5
121D
330
1A
100
AcDbDictionary
  3
ACAD_LAYOUTSELFREF
350
14E7
1001
ACAD
1000
TREAT_AS_HARD
1070
     1
  0
DICTIONARY
  5
1279
330
1196
100
AcDbDictionary
  3
ACAD_LAYOUTSELFREF
350
15AB
1001
ACAD
1000
TREAT_AS_HARD
1070
     1
  0
DICTIONARY
  5
D
102
{ACAD_REACTORS
330
C
102
}
330
C
100
AcDbDictionary
1001
ACAD
1000
TREAT_AS_HARD
1070
     0
  0
DICTIONARY
  5
1109
102
{ACAD_REACTORS
330
C
102
}
330
C
100
AcDbDictionary
1001
ACAD
1000
TREAT_AS_HARD
1070
     0
  0
DICTIONARY
  5
E
102
{ACAD_REACTORS
330
C
102
}
330
C
100
AcDbDictionary
  3
STANDARD
350
13
1001
ACAD
1000
TREAT_AS_HARD
1070
     0
  0
DICTIONARY
  5
110A
102
{ACAD_REACTORS
330
C
102
}
330
C
100
AcDbDictionary
1001
ACAD
1000
TREAT_AS_HARD
1070
     0
  0
DICTIONARY
  5
234
102
{ACAD_REACTORS
330
C
102
}
330
C
100
AcDbDictionary
1001
ACAD
1000
TREAT_AS_HARD
1070
     0
  0
XRECORD
  5
14E7
102
{ACAD_REACTORS
330
121D
102
}
330
121D
100
AcDbXrecord
340
1A
  0
XRECORD
  5
15AB
102
{ACAD_REACTORS
330
1279
102
}
330
1279
100
AcDbXrecord
340
1196
  0
MLINESTYLE
  5
13
102
{ACAD_REACTORS
330
E
102
}
330
E
100
AcDbMlineStyle
  2
STANDARD
 70
     0
  3

 62
     0
 51
90.0
 52
90.0
 71
     2
 49
0.5
 62
   256
  6
BYLAYER
 49
-0.5
 62
   256
  6
BYLAYER
  0
ENDSEC
  0
EOF
