  0
SECTION
  2
HEADER
  9
$ACADVER
  1
AC1015
  9
$ACADMAINTVER
 70
    13
  9
$DWGCODEPAGE
  3
ANSI_932
  9
$INSBASE
 10
0.0
 20
0.0
 30
0.0
  9
$EXTMIN
 10
0.0
 20
0.0
 30
0.0
  9
$EXTMAX
 10
1260.0
 20
891.0
 30
0.0
  9
$LIMMIN
 10
0.0
 20
0.0
  9
$LIMMAX
 10
10000.0
 20
10000.0
  9
$ORTHOMODE
 70
     1
  9
$REGENMODE
 70
     1
  9
$FILLMODE
 70
     1
  9
$QTEXTMODE
 70
     0
  9
$MIRRTEXT
 70
     1
  9
$LTSCALE
 40
33.67003367003366
  9
$ATTMODE
 70
     1
  9
$TEXTSIZE
 40
2.5
  9
$TRACEWID
 40
1.0
  9
$TEXTSTYLE
  7
AD-STANDARD
  9
$CLAYER
  8
NOTE
  9
$CELTYPE
  6
BYLAYER
  9
$CECOLOR
 62
   256
  9
$CELTSCALE
 40
1.0
  9
$DISPSILH
 70
     0
  9
$DIMSCALE
 40
3.0
  9
$DIMASZ
 40
2.5
  9
$DIMEXO
 40
1.0
  9
$DIMDLI
 40
0.38
  9
$DIMRND
 40
0.0
  9
$DIMDLE
 40
0.0
  9
$DIMEXE
 40
2.0
  9
$DIMTP
 40
0.0
  9
$DIMTM
 40
0.0
  9
$DIMTXT
 40
3.0
  9
$DIMCEN
 40
0.0
  9
$DIMTSZ
 40
0.0
  9
$DIMTOL
 70
     0
  9
$DIMLIM
 70
     0
  9
$DIMTIH
 70
     0
  9
$DIMTOH
 70
     0
  9
$DIMSE1
 70
     0
  9
$DIMSE2
 70
     0
  9
$DIMTAD
 70
     1
  9
$DIMZIN
 70
     8
  9
$DIMBLK
  1

  9
$DIMASO
 70
     1
  9
$DIMSHO
 70
     1
  9
$DIMPOST
  1

  9
$DIMAPOST
  1

  9
$DIMALT
 70
     0
  9
$DIMALTD
 70
     2
  9
$DIMALTF
 40
25.4
  9
$DIMLFAC
 40
1.0
  9
$DIMTOFL
 70
     1
  9
$DIMTVP
 40
0.0
  9
$DIMTIX
 70
     0
  9
$DIMSOXD
 70
     0
  9
$DIMSAH
 70
     0
  9
$DIMBLK1
  1

  9
$DIMBLK2
  1

  9
$DIMSTYLE
  2
AD-STANDARD
  9
$DIMCLRD
 70
   256
  9
$DIMCLRE
 70
   256
  9
$DIMCLRT
 70
     2
  9
$DIMTFAC
 40
1.0
  9
$DIMGAP
 40
0.5
  9
$DIMJUST
 70
     0
  9
$DIMSD1
 70
     0
  9
$DIMSD2
 70
     0
  9
$DIMTOLJ
 70
     1
  9
$DIMTZIN
 70
     8
  9
$DIMALTZ
 70
     0
  9
$DIMALTTZ
 70
     0
  9
$DIMUPT
 70
     0
  9
$DIMDEC
 70
     4
  9
$DIMTDEC
 70
     4
  9
$DIMALTU
 70
     2
  9
$DIMALTTD
 70
     2
  9
$DIMTXSTY
  7
AD-STANDARD
  9
$DIMAUNIT
 70
     0
  9
$DIMADEC
 70
     0
  9
$DIMALTRND
 40
0.0
  9
$DIMAZIN
 70
     0
  9
$DIMDSEP
 70
    46
  9
$DIMATFIT
 70
     3
  9
$DIMFRAC
 70
     0
  9
$DIMLDRBLK
  1

  9
$DIMLUNIT
 70
     2
  9
$DIMLWD
 70
    -2
  9
$DIMLWE
 70
    -2
  9
$DIMTMOVE
 70
     0
  9
$LUNITS
 70
     2
  9
$LUPREC
 70
     4
  9
$SKETCHINC
 40
1.0
  9
$FILLETRAD
 40
1.0
  9
$AUNITS
 70
     0
  9
$AUPREC
 70
     0
  9
$MENU
  1
.
  9
$ELEVATION
 40
0.0
  9
$PELEVATION
 40
0.0
  9
$THICKNESS
 40
0.0
  9
$LIMCHECK
 70
     0
  9
$CHAMFERA
 40
336.7003367003366
  9
$CHAMFERB
 40
336.7003367003366
  9
$CHAMFERC
 40
673.4006734006732
  9
$CHAMFERD
 40
0.0
  9
$SKPOLY
 70
     0
  9
$TDCREATE
 40
2450791.699991667
  9
$TDUCREATE
 40
2450791.324991667
  9
$TDUPDATE
 40
2454280.747488634
  9
$TDUUPDATE
 40
2454280.372488634
  9
$TDINDWG
 40
0.0377171181
  9
$TDUSRTIMER
 40
0.0377171181
  9
$USRTIMER
 70
     1
  9
$ANGBASE
 50
0.0
  9
$ANGDIR
 70
     0
  9
$PDMODE
 70
     0
  9
$PDSIZE
 40
0.0
  9
$PLINEWID
 40
0.0
  9
$SPLFRAME
 70
     0
  9
$SPLINETYPE
 70
     6
  9
$SPLINESEGS
 70
     8
  9
$HANDSEED
  5
933
  9
$SURFTAB1
 70
     6
  9
$SURFTAB2
 70
     6
  9
$SURFTYPE
 70
     6
  9
$SURFU
 70
     6
  9
$SURFV
 70
     6
  9
$UCSBASE
  2

  9
$UCSNAME
  2

  9
$UCSORG
 10
0.0
 20
0.0
 30
0.0
  9
$UCSXDIR
 10
1.0
 20
0.0
 30
0.0
  9
$UCSYDIR
 10
0.0
 20
1.0
 30
0.0
  9
$UCSORTHOREF
  2

  9
$UCSORTHOVIEW
 70
     0
  9
$UCSORGTOP
 10
0.0
 20
0.0
 30
0.0
  9
$UCSORGBOTTOM
 10
0.0
 20
0.0
 30
0.0
  9
$UCSORGLEFT
 10
0.0
 20
0.0
 30
0.0
  9
$UCSORGRIGHT
 10
0.0
 20
0.0
 30
0.0
  9
$UCSORGFRONT
 10
0.0
 20
0.0
 30
0.0
  9
$UCSORGBACK
 10
0.0
 20
0.0
 30
0.0
  9
$PUCSBASE
  2

  9
$PUCSNAME
  2

  9
$PUCSORG
 10
0.0
 20
0.0
 30
0.0
  9
$PUCSXDIR
 10
1.0
 20
0.0
 30
0.0
  9
$PUCSYDIR
 10
0.0
 20
1.0
 30
0.0
  9
$PUCSORTHOREF
  2

  9
$PUCSORTHOVIEW
 70
     0
  9
$PUCSORGTOP
 10
0.0
 20
0.0
 30
0.0
  9
$PUCSORGBOTTOM
 10
0.0
 20
0.0
 30
0.0
  9
$PUCSORGLEFT
 10
0.0
 20
0.0
 30
0.0
  9
$PUCSORGRIGHT
 10
0.0
 20
0.0
 30
0.0
  9
$PUCSORGFRONT
 10
0.0
 20
0.0
 30
0.0
  9
$PUCSORGBACK
 10
0.0
 20
0.0
 30
0.0
  9
$USERI1
 70
     0
  9
$USERI2
 70
     0
  9
$USERI3
 70
     0
  9
$USERI4
 70
     0
  9
$USERI5
 70
     0
  9
$USERR1
 40
0.0
  9
$USERR2
 40
0.0
  9
$USERR3
 40
0.0
  9
$USERR4
 40
0.0
  9
$USERR5
 40
0.0
  9
$WORLDVIEW
 70
     1
  9
$SHADEDGE
 70
     3
  9
$SHADEDIF
 70
    70
  9
$TILEMODE
 70
     0
  9
$MAXACTVP
 70
    16
  9
$PINSBASE
 10
0.0
 20
0.0
 30
0.0
  9
$PLIMCHECK
 70
     0
  9
$PEXTMIN
 10
55.43307881654212
 20
43.19089344419455
 30
0.0
  9
$PEXTMAX
 10
465.8362752509624
 20
329.1306577495843
 30
0.0
  9
$PLIMMIN
 10
51.01362621392472
 20
39.12987636365771
  9
$PLIMMAX
 10
471.1719514092372
 20
336.1617061976421
  9
$UNITMODE
 70
     0
  9
$VISRETAIN
 70
     0
  9
$PLINEGEN
 70
     0
  9
$PSLTSCALE
 70
     1
  9
$TREEDEPTH
 70
  3020
  9
$CMLSTYLE
  2
STANDARD
  9
$CMLJUST
 70
     0
  9
$CMLSCALE
 40
1.0
  9
$PROXYGRAPHICS
 70
     1
  9
$MEASUREMENT
 70
     1
  9
$CELWEIGHT
370
    -1
  9
$ENDCAPS
280
     0
  9
$JOINSTYLE
280
     0
  9
$LWDISPLAY
290
     0
  9
$INSUNITS
 70
     0
  9
$HYPERLINKBASE
  1

  9
$STYLESHEET
  1

  9
$XEDIT
290
     1
  9
$CEPSNTYPE
380
     0
  9
$PSTYLEMODE
290
     1
  9
$FINGERPRINTGUID
  2
{6E276141-7216-4AB9-9099-D8AC2DAFD0D9}
  9
$VERSIONGUID
  2
{356ADF0A-B572-4C74-9852-0A1BEF04B6C0}
  9
$EXTNAMES
290
     1
  9
$PSVPSCALE
 40
0.0
  9
$OLESTARTUP
290
     0
  0
ENDSEC
  0
SECTION
  2
CLASSES
  0
CLASS
  1
LWPOLYLINE
  2
AcDbPolyline
  3
AutoCAD 2000
 90
    32768
280
     0
281
     1
  0
CLASS
  1
ACDBDICTIONARYWDFLT
  2
AcDbDictionaryWithDefault
  3
AutoCAD 2000
 90
        0
280
     0
281
     0
  0
CLASS
  1
ACDBPLACEHOLDER
  2
AcDbPlaceHolder
  3
AutoCAD 2000
 90
        0
280
     0
281
     0
  0
CLASS
  1
LAYOUT
  2
AcDbLayout
  3
AutoCAD 2000
 90
        0
280
     0
281
     0
  0
CLASS
  1
PLOTSETTINGS
  2
AcDbPlotSettings
  3
AutoCAD 2000
 90
        0
280
     0
281
     0
  0
CLASS
  1
DICTIONARYVAR
  2
AcDbDictionaryVar
  3
AutoCAD 2000
 90
        0
280
     0
281
     0
  0
CLASS
  1
LONG_TRANSACTION
  2
AcDbLongTransaction
  3
AutoCAD 2000
 90
    32768
280
     0
281
     0
  0
CLASS
  1
LWPOLYLINE
  2
AcDbPolyline
  3
AutoCAD 2000
 90
    32768
280
     0
281
     1
  0
CLASS
  1
HATCH
  2
AcDbHatch
  3
AutoCAD 2000
 90
    32768
280
     0
281
     1
  0
CLASS
  1
XRECORD
  2
AcDbXrecord
  3
AutoCAD 2000
 90
    32768
280
     0
281
     0
  0
ENDSEC
  0
SECTION
  2
TABLES
  0
TABLE
  2
VPORT
  5
8
330
0
100
AcDbSymbolTable
 70
     3
  0
VPORT
  5
932
330
8
100
AcDbSymbolTableRecord
100
AcDbViewportTableRecord
  2
*Active
 70
     0
 10
0.0
 20
0.0
 11
1.0
 21
1.0
 12
764.1386792887503
 22
516.5346405108159
 13
0.0
 23
0.0
 14
168.0
 24
168.0
 15
0.0
 25
0.0
 16
0.0
 26
0.0
 36
1.0
 17
0.0
 27
0.0
 37
0.0
 40
1455.092367972001
 41
1.21859296482412
 42
50.0
 43
0.0
 44
0.0
 50
0.0
 51
0.0
 71
     0
 72
   100
 73
     1
 74
     0
 75
     0
 76
     0
 77
     0
 78
     1
281
     0
 65
     1
110
0.0
120
0.0
130
0.0
111
1.0
121
0.0
131
0.0
112
0.0
122
1.0
132
0.0
 79
     0
146
0.0
  0
ENDTAB
  0
TABLE
  2
LTYPE
  5
5
330
0
100
AcDbSymbolTable
 70
     3
  0
LTYPE
  5
14
330
5
100
AcDbSymbolTableRecord
100
AcDbLinetypeTableRecord
  2
BYBLOCK
 70
     0
  3

 72
    65
 73
     0
 40
0.0
  0
LTYPE
  5
15
330
5
100
AcDbSymbolTableRecord
100
AcDbLinetypeTableRecord
  2
BYLAYER
 70
     0
  3

 72
    65
 73
     0
 40
0.0
  0
LTYPE
  5
16
330
5
100
AcDbSymbolTableRecord
100
AcDbLinetypeTableRecord
  2
CONTINUOUS
 70
     0
  3
Solid line
 72
    65
 73
     0
 40
0.0
  0
LTYPE
  5
6E
330
5
100
AcDbSymbolTableRecord
100
AcDbLinetypeTableRecord
  2
CENTER
 70
     0
  3
____ _ ____ _ ____ _ ____ _ ____ _ ____ _ ____ 
 72
    65
 73
     4
 40
2.0
 49
1.25
 74
     0
 49
-0.25
 74
     0
 49
0.25
 74
     0
 49
-0.25
 74
     0
  0
LTYPE
  5
6F
330
5
100
AcDbSymbolTableRecord
100
AcDbLinetypeTableRecord
  2
HIDDEN
 70
     0
  3
__ __ __ __ __ __ __ __ __ __ __ __ __ __ __ __
 72
    65
 73
     2
 40
0.375
 49
0.25
 74
     0
 49
-0.125
 74
     0
  0
ENDTAB
  0
TABLE
  2
LAYER
  5
2
330
0
100
AcDbSymbolTable
 70
     8
  0
LAYER
  5
F
330
2
100
AcDbSymbolTableRecord
100
AcDbLayerTableRecord
  2
0
 70
     0
 62
     7
  6
CONTINUOUS
370
    -3
390
75A
  0
LAYER
  5
71
330
2
100
AcDbSymbolTableRecord
100
AcDbLayerTableRecord
  2
MEASURE
 70
     0
 62
     8
  6
CONTINUOUS
370
    -3
390
75A
  0
LAYER
  5
72
330
2
100
AcDbSymbolTableRecord
100
AcDbLayerTableRecord
  2
DEFPOINTS
 70
     0
 62
     7
  6
CONTINUOUS
290
     0
370
    -3
390
75A
  0
LAYER
  5
1C0
330
2
100
AcDbSymbolTableRecord
100
AcDbLayerTableRecord
  2
1
 70
     0
 62
     7
  6
CONTINUOUS
370
    -3
390
75A
  0
LAYER
  5
745
330
2
100
AcDbSymbolTableRecord
100
AcDbLayerTableRecord
  2
NOTE
 70
     0
 62
     2
  6
CONTINUOUS
370
    -3
390
75A
  0
ENDTAB
  0
TABLE
  2
STYLE
  5
3
330
0
100
AcDbSymbolTable
 70
     5
  0
STYLE
  5
10
330
3
100
AcDbSymbolTableRecord
100
AcDbTextStyleTableRecord
  2
STANDARD
 70
     0
 40
0.0
 41
0.8
 50
0.0
 71
     0
 42
84.17508417508415
  3
C:\ACLTWIN2\Romans.shx
  4
C:\ACLTWIN2\Bigfont.shx
  0
STYLE
  5
63
330
3
100
AcDbSymbolTableRecord
100
AcDbTextStyleTableRecord
  2
AD-STANDARD
 70
     0
 40
0.0
 41
0.8
 50
0.0
 71
     0
 42
2.5
  3
C:\ACLTWIN2\Romans.shx
  4
C:\ACLTWIN2\Bigfont.shx
  0
STYLE
  5
7A
330
3
100
AcDbSymbolTableRecord
100
AcDbTextStyleTableRecord
  2
BIGFONT
 70
     0
 40
3.5
 41
0.8
 50
15.0
 71
     0
 42
3.5
  3
ROMANS.SHX
  4
BIGFONT.SHX
  0
STYLE
  5
7B
330
3
100
AcDbSymbolTableRecord
100
AcDbTextStyleTableRecord
  2
ROMAND
 70
     0
 40
5.0
 41
1.0
 50
0.0
 71
     0
 42
4.5
  3
romand
  4

  0
STYLE
  5
7C
330
3
100
AcDbSymbolTableRecord
100
AcDbTextStyleTableRecord
  2
FORM
 70
     0
 40
3.5
 41
0.8
 50
0.0
 71
     0
 42
5.0
  3
ROMANS.SHX
  4
BIGFONT.SHX
  0
ENDTAB
  0
TABLE
  2
VIEW
  5
6
330
0
100
AcDbSymbolTable
 70
     0
  0
ENDTAB
  0
TABLE
  2
UCS
  5
7
330
0
100
AcDbSymbolTable
 70
     0
  0
ENDTAB
  0
TABLE
  2
APPID
  5
9
330
0
100
AcDbSymbolTable
 70
     3
  0
APPID
  5
11
330
9
100
AcDbSymbolTableRecord
100
AcDbRegAppTableRecord
  2
ACAD
 70
     0
  0
APPID
  5
756
330
9
100
AcDbSymbolTableRecord
100
AcDbRegAppTableRecord
  2
CONTENTTABDATA
 70
     0
  0
APPID
  5
757
330
9
100
AcDbSymbolTableRecord
100
AcDbRegAppTableRecord
  2
CONTENTCURRENTTAB
 70
     0
  0
ENDTAB
  0
TABLE
  2
DIMSTYLE
  5
A
330
0
100
AcDbSymbolTable
 70
     2
100
AcDbDimStyleTable
 71
     0
  0
DIMSTYLE
105
1D
330
A
100
AcDbSymbolTableRecord
100
AcDbDimStyleTableRecord
  2
STANDARD
 70
     0
340
10
  0
DIMSTYLE
105
68
102
{ACAD_REACTORS
330
6E8
330
6F5
330
702
330
70F
330
71C
102
}
330
A
100
AcDbSymbolTableRecord
100
AcDbDimStyleTableRecord
  2
AD-STANDARD
 70
     0
 41
2.5
 42
1.0
 44
2.0
 73
     0
 74
     0
 77
     1
 78
     8
140
3.5
141
-2.0
147
0.5
172
     1
176
     9
177
     9
178
     2
284
     8
340
63
  0
ENDTAB
  0
TABLE
  2
BLOCK_RECORD
  5
1
330
0
100
AcDbSymbolTable
 70
     9
  0
BLOCK_RECORD
  5
1A
102
{ACAD_XDICTIONARY
360
835
102
}
330
1
100
AcDbSymbolTableRecord
100
AcDbBlockTableRecord
  2
*MODEL_SPACE
340
843
  0
BLOCK_RECORD
  5
804
102
{ACAD_XDICTIONARY
360
837
102
}
330
1
100
AcDbSymbolTableRecord
100
AcDbBlockTableRecord
  2
*PAPER_SPACE
340
844
  0
BLOCK_RECORD
  5
6DC
330
1
100
AcDbSymbolTableRecord
100
AcDbBlockTableRecord
  2
*D2
340
0
  0
BLOCK_RECORD
  5
6E9
330
1
100
AcDbSymbolTableRecord
100
AcDbBlockTableRecord
  2
*D3
340
0
  0
BLOCK_RECORD
  5
6F6
330
1
100
AcDbSymbolTableRecord
100
AcDbBlockTableRecord
  2
*D4
340
0
  0
BLOCK_RECORD
  5
703
330
1
100
AcDbSymbolTableRecord
100
AcDbBlockTableRecord
  2
*D5
340
0
  0
BLOCK_RECORD
  5
710
330
1
100
AcDbSymbolTableRecord
100
AcDbBlockTableRecord
  2
*D6
340
0
  0
ENDTAB
  0
ENDSEC
  0
SECTION
  2
BLOCKS
  0
BLOCK
  5
1B
330
1A
100
AcDbEntity
  8
0
100
AcDbBlockBegin
  2
*MODEL_SPACE
 70
     0
 10
0.0
 20
0.0
 30
0.0
  3
*MODEL_SPACE
  1

  0
ENDBLK
  5
1C
330
1A
100
AcDbEntity
  8
0
100
AcDbBlockEnd
  0
BLOCK
  5
806
330
804
100
AcDbEntity
 67
     1
  8
0
100
AcDbBlockBegin
  2
*PAPER_SPACE
 70
     0
 10
0.0
 20
0.0
 30
0.0
  3
*PAPER_SPACE
  1

  0
ENDBLK
  5
807
330
804
100
AcDbEntity
 67
     1
  8
0
100
AcDbBlockEnd
  0
BLOCK
  5
6DD
330
6DC
100
AcDbEntity
  8
0
100
AcDbBlockBegin
  2
*D2
 70
     1
 10
0.0
 20
0.0
 30
0.0
  3
*D2
  1

  0
LINE
  5
917
330
6DC
100
AcDbEntity
  8
MEASURE
370
    -2
100
AcDbLine
 10
524.6200177492299
 20
438.078515735324
 30
0.0
 11
466.373220321069
 21
438.078515735324
 31
0.0
  0
LINE
  5
918
330
6DC
100
AcDbEntity
  8
MEASURE
370
    -2
100
AcDbLine
 10
524.6200177492299
 20
682.0785157353237
 30
0.0
 11
466.3732203210691
 21
682.0785157353237
 31
0.0
  0
LINE
  5
919
330
6DC
100
AcDbEntity
  8
MEASURE
370
    -2
100
AcDbLine
 10
472.373220321069
 20
445.578515735324
 30
0.0
 11
472.373220321069
 21
674.5785157353237
 31
0.0
  0
SOLID
  5
91A
330
6DC
100
AcDbEntity
  8
MEASURE
100
AcDbTrace
 10
471.123220321069
 20
445.578515735324
 30
0.0
 11
473.623220321069
 21
445.578515735324
 31
0.0
 12
472.373220321069
 22
438.078515735324
 32
0.0
 13
472.373220321069
 23
438.078515735324
 33
0.0
  0
SOLID
  5
91B
330
6DC
100
AcDbEntity
  8
MEASURE
100
AcDbTrace
 10
471.123220321069
 20
674.5785157353237
 30
0.0
 11
473.6232203210691
 21
674.5785157353237
 31
0.0
 12
472.373220321069
 22
682.0785157353237
 32
0.0
 13
472.373220321069
 23
682.0785157353237
 33
0.0
  0
MTEXT
  5
91C
330
6DC
100
AcDbEntity
  8
MEASURE
 62
     2
100
AcDbMText
 10
466.3732203210689
 20
560.0785157353239
 30
0.0
 40
9.0
 41
0.0
 71
     5
 72
     1
  1
\A1;244
  7
AD-STANDARD
 11
0.0000000000000001
 21
1.0
 31
0.0
 73
     1
 44
1.0
  0
POINT
  5
91D
330
6DC
100
AcDbEntity
  8
DEFPOINTS
 62
     0
100
AcDbPoint
 10
527.6200177492298
 20
438.078515735324
 30
0.0
  0
POINT
  5
91E
330
6DC
100
AcDbEntity
  8
DEFPOINTS
 62
     0
100
AcDbPoint
 10
527.6200177492298
 20
682.0785157353237
 30
0.0
  0
POINT
  5
91F
330
6DC
100
AcDbEntity
  8
DEFPOINTS
 62
     0
100
AcDbPoint
 10
472.373220321069
 20
682.0785157353237
 30
0.0
  0
ENDBLK
  5
6E7
330
6DC
100
AcDbEntity
  8
0
100
AcDbBlockEnd
  0
BLOCK
  5
6EA
330
6E9
100
AcDbEntity
  8
0
100
AcDbBlockBegin
  2
*D3
 70
     1
 10
0.0
 20
0.0
 30
0.0
  3
*D3
  1

  0
LINE
  5
8F3
330
6E9
100
AcDbEntity
  8
MEASURE
370
    -2
100
AcDbLine
 10
524.6200177492134
 20
176.8777925041003
 30
0.0
 11
466.7588896027531
 21
176.8777925041003
 31
0.0
  0
LINE
  5
8F4
330
6E9
100
AcDbEntity
  8
MEASURE
370
    -2
100
AcDbLine
 10
516.2571451766378
 20
313.8777925041012
 30
0.0
 11
466.7588896027531
 21
313.8777925041012
 31
0.0
  0
LINE
  5
8F5
330
6E9
100
AcDbEntity
  8
MEASURE
370
    -2
100
AcDbLine
 10
472.7588896027531
 20
184.3777925041003
 30
0.0
 11
472.7588896027531
 21
306.3777925041012
 31
0.0
  0
SOLID
  5
8F6
330
6E9
100
AcDbEntity
  8
MEASURE
100
AcDbTrace
 10
471.5088896027531
 20
184.3777925041003
 30
0.0
 11
474.0088896027531
 21
184.3777925041003
 31
0.0
 12
472.7588896027531
 22
176.8777925041003
 32
0.0
 13
472.7588896027531
 23
176.8777925041003
 33
0.0
  0
SOLID
  5
8F7
330
6E9
100
AcDbEntity
  8
MEASURE
100
AcDbTrace
 10
471.5088896027531
 20
306.3777925041012
 30
0.0
 11
474.0088896027531
 21
306.3777925041012
 31
0.0
 12
472.7588896027531
 22
313.8777925041012
 32
0.0
 13
472.7588896027531
 23
313.8777925041012
 33
0.0
  0
MTEXT
  5
8F8
330
6E9
100
AcDbEntity
  8
MEASURE
 62
     2
100
AcDbMText
 10
466.758889602753
 20
245.3777925041008
 30
0.0
 40
9.0
 41
0.0
 71
     5
 72
     1
  1
\A1;137
  7
AD-STANDARD
 11
0.0000000000000001
 21
1.0
 31
0.0
 73
     1
 44
1.0
  0
POINT
  5
8F9
330
6E9
100
AcDbEntity
  8
DEFPOINTS
 62
     0
100
AcDbPoint
 10
527.6200177492134
 20
176.8777925041003
 30
0.0
  0
POINT
  5
8FA
330
6E9
100
AcDbEntity
  8
DEFPOINTS
 62
     0
100
AcDbPoint
 10
519.2571451766379
 20
313.8777925041012
 30
0.0
  0
POINT
  5
8FB
330
6E9
100
AcDbEntity
  8
DEFPOINTS
 62
     0
100
AcDbPoint
 10
472.7588896027531
 20
313.8777925041012
 30
0.0
  0
ENDBLK
  5
6F4
330
6E9
100
AcDbEntity
  8
0
100
AcDbBlockEnd
  0
BLOCK
  5
6F7
330
6F6
100
AcDbEntity
  8
0
100
AcDbBlockBegin
  2
*D4
 70
     1
 10
0.0
 20
0.0
 30
0.0
  3
*D4
  1

  0
LINE
  5
8EA
330
6F6
100
AcDbEntity
  8
MEASURE
370
    -2
100
AcDbLine
 10
512.6200177492518
 20
298.8777925041012
 30
0.0
 11
512.6200177492518
 21
344.4440666998284
 31
0.0
  0
LINE
  5
8EB
330
6F6
100
AcDbEntity
  8
MEASURE
370
    -2
100
AcDbLine
 10
702.6200177492535
 20
298.8777925041011
 30
0.0
 11
702.6200177492535
 21
344.4440666998284
 31
0.0
  0
LINE
  5
8EC
330
6F6
100
AcDbEntity
  8
MEASURE
370
    -2
100
AcDbLine
 10
520.1200177492518
 20
338.4440666998284
 30
0.0
 11
695.1200177492535
 21
338.4440666998284
 31
0.0
  0
SOLID
  5
8ED
330
6F6
100
AcDbEntity
  8
MEASURE
100
AcDbTrace
 10
520.1200177492518
 20
339.6940666998284
 30
0.0
 11
520.1200177492518
 21
337.1940666998284
 31
0.0
 12
512.6200177492518
 22
338.4440666998284
 32
0.0
 13
512.6200177492518
 23
338.4440666998284
 33
0.0
  0
SOLID
  5
8EE
330
6F6
100
AcDbEntity
  8
MEASURE
100
AcDbTrace
 10
695.1200177492535
 20
339.6940666998284
 30
0.0
 11
695.1200177492535
 21
337.1940666998284
 31
0.0
 12
702.6200177492535
 22
338.4440666998284
 32
0.0
 13
702.6200177492535
 23
338.4440666998284
 33
0.0
  0
MTEXT
  5
8EF
330
6F6
100
AcDbEntity
  8
MEASURE
 62
     2
100
AcDbMText
 10
607.6200177492526
 20
344.4440666998284
 30
0.0
 40
9.0
 41
0.0
 71
     5
 72
     1
  1
\A1;190
  7
AD-STANDARD
 73
     1
 44
1.0
  0
POINT
  5
8F0
330
6F6
100
AcDbEntity
  8
DEFPOINTS
 62
     0
100
AcDbPoint
 10
512.6200177492518
 20
295.8777925041012
 30
0.0
  0
POINT
  5
8F1
330
6F6
100
AcDbEntity
  8
DEFPOINTS
 62
     0
100
AcDbPoint
 10
702.6200177492535
 20
295.8777925041011
 30
0.0
  0
POINT
  5
8F2
330
6F6
100
AcDbEntity
  8
DEFPOINTS
 62
     0
100
AcDbPoint
 10
702.6200177492535
 20
338.4440666998284
 30
0.0
  0
ENDBLK
  5
701
330
6F6
100
AcDbEntity
  8
0
100
AcDbBlockEnd
  0
BLOCK
  5
704
330
703
100
AcDbEntity
  8
0
100
AcDbBlockBegin
  2
*D5
 70
     1
 10
0.0
 20
0.0
 30
0.0
  3
*D5
  1

  0
LINE
  5
920
330
703
100
AcDbEntity
  8
MEASURE
370
    -2
100
AcDbLine
 10
864.530052366884
 20
298.8777925040972
 30
0.0
 11
864.530052366884
 21
336.4270058634326
 31
0.0
  0
LINE
  5
921
330
703
100
AcDbEntity
  8
MEASURE
370
    -2
100
AcDbLine
 10
1094.530052366884
 20
298.8777925041007
 30
0.0
 11
1094.530052366884
 21
336.4270058634326
 31
0.0
  0
LINE
  5
922
330
703
100
AcDbEntity
  8
MEASURE
370
    -2
100
AcDbLine
 10
872.0300523668841
 20
330.4270058634326
 30
0.0
 11
1087.030052366884
 21
330.4270058634326
 31
0.0
  0
SOLID
  5
923
330
703
100
AcDbEntity
  8
MEASURE
100
AcDbTrace
 10
872.0300523668841
 20
331.6770058634326
 30
0.0
 11
872.0300523668841
 21
329.1770058634326
 31
0.0
 12
864.530052366884
 22
330.4270058634326
 32
0.0
 13
864.530052366884
 23
330.4270058634326
 33
0.0
  0
SOLID
  5
924
330
703
100
AcDbEntity
  8
MEASURE
100
AcDbTrace
 10
1087.030052366884
 20
331.6770058634326
 30
0.0
 11
1087.030052366884
 21
329.1770058634326
 31
0.0
 12
1094.530052366884
 22
330.4270058634326
 32
0.0
 13
1094.530052366884
 23
330.4270058634326
 33
0.0
  0
MTEXT
  5
925
330
703
100
AcDbEntity
  8
MEASURE
 62
     2
100
AcDbMText
 10
979.5300523668842
 20
336.4270058634326
 30
0.0
 40
9.0
 41
0.0
 71
     5
 72
     1
  1
\A1;230
  7
AD-STANDARD
 73
     1
 44
1.0
  0
POINT
  5
926
330
703
100
AcDbEntity
  8
DEFPOINTS
 62
     0
100
AcDbPoint
 10
864.530052366884
 20
295.8777925040972
 30
0.0
  0
POINT
  5
927
330
703
100
AcDbEntity
  8
DEFPOINTS
 62
     0
100
AcDbPoint
 10
1094.530052366884
 20
295.8777925041007
 30
0.0
  0
POINT
  5
928
330
703
100
AcDbEntity
  8
DEFPOINTS
 62
     0
100
AcDbPoint
 10
1094.530052366884
 20
330.4270058634326
 30
0.0
  0
ENDBLK
  5
70E
330
703
100
AcDbEntity
  8
0
100
AcDbBlockEnd
  0
BLOCK
  5
733
330
710
100
AcDbEntity
  8
0
100
AcDbBlockBegin
  2
*D6
 70
     1
 10
0.0
 20
0.0
 30
0.0
  3
*D6
  1

  0
LINE
  5
90E
330
710
100
AcDbEntity
  8
MEASURE
370
    -2
100
AcDbLine
 10
499.6200177492125
 20
675.0785157353233
 30
0.0
 11
499.6200177492125
 21
714.0663542968185
 31
0.0
  0
LINE
  5
90F
330
710
100
AcDbEntity
  8
MEASURE
370
    -2
100
AcDbLine
 10
731.8200177492907
 20
675.0785157353233
 30
0.0
 11
731.8200177492907
 21
714.0663542968185
 31
0.0
  0
LINE
  5
910
330
710
100
AcDbEntity
  8
MEASURE
370
    -2
100
AcDbLine
 10
507.1200177492126
 20
708.0663542968185
 30
0.0
 11
724.3200177492907
 21
708.0663542968185
 31
0.0
  0
SOLID
  5
911
330
710
100
AcDbEntity
  8
MEASURE
100
AcDbTrace
 10
507.1200177492126
 20
709.3163542968185
 30
0.0
 11
507.1200177492126
 21
706.8163542968185
 31
0.0
 12
499.6200177492125
 22
708.0663542968185
 32
0.0
 13
499.6200177492125
 23
708.0663542968185
 33
0.0
  0
SOLID
  5
912
330
710
100
AcDbEntity
  8
MEASURE
100
AcDbTrace
 10
724.3200177492907
 20
709.3163542968185
 30
0.0
 11
724.3200177492907
 21
706.8163542968185
 31
0.0
 12
731.8200177492907
 22
708.0663542968185
 32
0.0
 13
731.8200177492907
 23
708.0663542968185
 33
0.0
  0
MTEXT
  5
913
330
710
100
AcDbEntity
  8
MEASURE
 62
     2
100
AcDbMText
 10
615.7200177492516
 20
714.0663542968185
 30
0.0
 40
9.0
 41
0.0
 71
     5
 72
     1
  1
\A1;232
  7
AD-STANDARD
 73
     1
 44
1.0
  0
POINT
  5
914
330
710
100
AcDbEntity
  8
DEFPOINTS
 62
     0
100
AcDbPoint
 10
499.6200177492125
 20
672.0785157353233
 30
0.0
  0
POINT
  5
915
330
710
100
AcDbEntity
  8
DEFPOINTS
 62
     0
100
AcDbPoint
 10
731.8200177492907
 20
672.0785157353233
 30
0.0
  0
POINT
  5
916
330
710
100
AcDbEntity
  8
DEFPOINTS
 62
     0
100
AcDbPoint
 10
731.8200177492907
 20
708.0663542968185
 30
0.0
  0
ENDBLK
  5
73D
330
710
100
AcDbEntity
  8
0
100
AcDbBlockEnd
  0
ENDSEC
  0
SECTION
  2
ENTITIES
  0
ARC
  5
443
330
1A
100
AcDbEntity
  8
1
100
AcDbCircle
 10
1005.28005236688
 20
246.9897672386327
 30
0.0
 40
1.0
100
AcDbArc
 50
0.0
 51
89.99999999999998
  0
ARC
  5
444
330
1A
100
AcDbEntity
  8
1
100
AcDbCircle
 10
1005.28005236688
 20
241.4897672386327
 30
0.0
 40
1.0
100
AcDbArc
 50
270.0
 51
0.0
  0
ARC
  5
445
330
1A
100
AcDbEntity
  8
1
100
AcDbCircle
 10
1005.28005236688
 20
237.9897672386327
 30
0.0
 40
1.0
100
AcDbArc
 50
0.0000000000009923
 51
90.00000000000047
  0
ARC
  5
446
330
1A
100
AcDbEntity
  8
1
100
AcDbCircle
 10
1005.28005236688
 20
212.9897672386318
 30
0.0
 40
1.0
100
AcDbArc
 50
270.0
 51
0.0000000000009033
  0
ARC
  5
447
330
1A
100
AcDbEntity
  8
1
100
AcDbCircle
 10
914.2800523668809
 20
212.9897672386327
 30
0.0
 40
1.0
100
AcDbArc
 50
180.0000000000019
 51
270.0
  0
ARC
  5
448
330
1A
100
AcDbEntity
  8
1
100
AcDbCircle
 10
914.28005236688
 20
237.9897672386318
 30
0.0
 40
1.0
100
AcDbArc
 50
89.99999999999998
 51
180.0000000000009
  0
ARC
  5
449
330
1A
100
AcDbEntity
  8
1
100
AcDbCircle
 10
914.2800523668805
 20
241.4897672386327
 30
0.0
 40
1.0
100
AcDbArc
 50
180.0
 51
270.0
  0
ARC
  5
44A
330
1A
100
AcDbEntity
  8
1
100
AcDbCircle
 10
914.2800523668805
 20
246.9897672386327
 30
0.0
 40
1.0
100
AcDbArc
 50
89.99999999999998
 51
180.0
  0
LINE
  5
44B
330
1A
100
AcDbEntity
  8
1
100
AcDbLine
 10
913.2800523668802
 20
237.9897672386318
 30
0.0
 11
913.2800523668809
 21
212.9897672386326
 31
0.0
  0
LINE
  5
44C
330
1A
100
AcDbEntity
  8
1
100
AcDbLine
 10
1006.28005236688
 20
237.9897672386326
 30
0.0
 11
1006.280052366881
 21
212.9897672386318
 31
0.0
  0
LINE
  5
44D
330
1A
100
AcDbEntity
  8
1
100
AcDbLine
 10
1005.280052366881
 20
211.9897672386318
 30
0.0
 11
914.2800523668809
 21
211.9897672386326
 31
0.0
  0
LINE
  5
44E
330
1A
100
AcDbEntity
  8
1
100
AcDbLine
 10
1005.28005236688
 20
238.9897672386326
 30
0.0
 11
914.2800523668801
 21
238.9897672386319
 31
0.0
  0
LINE
  5
44F
330
1A
100
AcDbEntity
  8
1
100
AcDbLine
 10
1005.28005236688
 20
240.4897672386326
 30
0.0
 11
914.2800523668805
 21
240.4897672386326
 31
0.0
  0
LINE
  5
450
330
1A
100
AcDbEntity
  8
1
100
AcDbLine
 10
1005.28005236688
 20
247.9897672386326
 30
0.0
 11
914.2800523668805
 21
247.9897672386326
 31
0.0
  0
LINE
  5
451
330
1A
100
AcDbEntity
  8
1
100
AcDbLine
 10
913.2800523668805
 20
246.9897672386327
 30
0.0
 11
913.2800523668805
 21
241.4897672386326
 31
0.0
  0
LINE
  5
452
330
1A
100
AcDbEntity
  8
1
100
AcDbLine
 10
1006.28005236688
 20
246.9897672386327
 30
0.0
 11
1006.28005236688
 21
241.4897672386326
 31
0.0
  0
LINE
  5
453
330
1A
100
AcDbEntity
  8
1
100
AcDbLine
 10
880.530052366884
 20
285.8777925040961
 30
0.0
 11
880.530052366884
 21
295.8777925040981
 31
0.0
  0
LINE
  5
454
330
1A
100
AcDbEntity
  8
1
100
AcDbLine
 10
1078.530052366884
 20
285.8777925041025
 30
0.0
 11
1078.530052366884
 21
295.8777925041007
 31
0.0
  0
ARC
  5
455
330
1A
100
AcDbEntity
  8
1
100
AcDbCircle
 10
1087.892924939499
 20
307.8777925041025
 30
0.0
 40
6.0
100
AcDbArc
 50
3.000000000001416
 51
90.00000000000154
  0
ARC
  5
456
330
1A
100
AcDbEntity
  8
1
100
AcDbCircle
 10
871.1671797942679
 20
307.8777925040971
 30
0.0
 40
6.0
100
AcDbArc
 50
90.00000000000154
 51
177.0000000000014
  0
LINE
  5
457
330
1A
100
AcDbEntity
  8
1
100
AcDbLine
 10
1093.884702148027
 20
308.1918082415607
 30
0.0
 11
1094.530052366884
 21
295.8777925041007
 31
0.0
  0
LINE
  5
458
330
1A
100
AcDbEntity
  8
1
100
AcDbLine
 10
865.1754025857396
 20
308.1918082415536
 30
0.0
 11
864.530052366884
 21
295.8777925040972
 31
0.0
  0
LINE
  5
459
330
1A
100
AcDbEntity
  8
1
100
AcDbLine
 10
880.530052366884
 20
285.8777925040945
 30
0.0
 11
1078.530052366884
 21
285.8777925040988
 31
0.0
  0
LINE
  5
45A
330
1A
100
AcDbEntity
  8
1
100
AcDbLine
 10
864.530052366884
 20
295.8777925040972
 30
0.0
 11
1094.530052366884
 21
295.8777925041007
 31
0.0
  0
LINE
  5
45B
330
1A
100
AcDbEntity
  8
1
100
AcDbLine
 10
871.1671797942679
 20
313.8777925040954
 30
0.0
 11
1087.892924939499
 21
313.8777925041025
 31
0.0
  0
LINE
  5
45C
330
1A
100
AcDbEntity
  8
1
100
AcDbLine
 10
345.99918809127
 20
313.8777925040949
 30
0.0
 11
129.2734429460385
 21
313.8777925040968
 31
0.0
  0
LINE
  5
45D
330
1A
100
AcDbEntity
  8
1
100
AcDbLine
 10
352.6363155186543
 20
295.8777925040966
 30
0.0
 11
122.6363155186543
 21
295.8777925040949
 31
0.0
  0
LINE
  5
45E
330
1A
100
AcDbEntity
  8
1
100
AcDbLine
 10
336.6363155186543
 20
285.8777925040931
 30
0.0
 11
138.6363155186543
 21
285.8777925040931
 31
0.0
  0
LINE
  5
45F
330
1A
100
AcDbEntity
  8
1
100
AcDbLine
 10
351.9909652997982
 20
308.1918082415532
 30
0.0
 11
352.6363155186543
 21
295.8777925040966
 31
0.0
  0
LINE
  5
460
330
1A
100
AcDbEntity
  8
1
100
AcDbLine
 10
123.2816657375104
 20
308.1918082415551
 30
0.0
 11
122.6363155186543
 21
295.8777925040949
 31
0.0
  0
ARC
  5
461
330
1A
100
AcDbEntity
  8
1
100
AcDbCircle
 10
345.99918809127
 20
307.8777925040966
 30
0.0
 40
6.0
100
AcDbArc
 50
2.999999999999909
 51
89.99999999999976
  0
ARC
  5
462
330
1A
100
AcDbEntity
  8
1
100
AcDbCircle
 10
129.2734429460385
 20
307.8777925040967
 30
0.0
 40
6.0
100
AcDbArc
 50
89.99999999999976
 51
176.9999999999998
  0
LINE
  5
463
330
1A
100
AcDbEntity
  8
1
100
AcDbLine
 10
138.6363155186543
 20
285.8777925040966
 30
0.0
 11
138.6363155186543
 21
295.8777925040949
 31
0.0
  0
LINE
  5
464
330
1A
100
AcDbEntity
  8
1
100
AcDbLine
 10
336.6363155186543
 20
285.877792504095
 30
0.0
 11
336.6363155186543
 21
295.8777925040966
 31
0.0
  0
LINE
  5
465
330
1A
100
AcDbEntity
  8
1
100
AcDbLine
 10
536.6200177492536
 20
295.8777925041012
 30
0.0
 11
536.6200177492536
 21
285.8777925041014
 31
0.0
  0
LINE
  5
466
330
1A
100
AcDbEntity
  8
1
100
AcDbLine
 10
536.6200177492536
 20
285.8777925041014
 30
0.0
 11
678.6200177492535
 21
285.8777925041014
 31
0.0
  0
LINE
  5
467
330
1A
100
AcDbEntity
  8
1
100
AcDbLine
 10
678.6200177492535
 20
295.8777925041011
 30
0.0
 11
678.6200177492535
 21
285.8777925041014
 31
0.0
  0
LINE
  5
468
330
1A
100
AcDbEntity
  8
1
100
AcDbLine
 10
701.9746675303975
 20
308.1918082415585
 30
0.0
 11
702.6200177492535
 21
295.8777925041011
 31
0.0
  0
ARC
  5
469
330
1A
100
AcDbEntity
  8
1
100
AcDbCircle
 10
695.9828903218692
 20
307.8777925041011
 30
0.0
 40
6.0
100
AcDbArc
 50
2.999999999999829
 51
89.99999999999984
  0
LINE
  5
46A
330
1A
100
AcDbEntity
  8
1
100
AcDbLine
 10
677.6200177492462
 20
313.8777925041011
 30
0.0
 11
695.9828903218692
 21
313.8777925041011
 31
0.0
  0
ARC
  5
46B
330
1A
100
AcDbEntity
  8
1
100
AcDbCircle
 10
607.6200177492499
 20
1211.151440841106
 30
0.0
 40
900.0
100
AcDbArc
 50
265.5391563021261
 51
274.4608436978735
  0
ARC
  5
46C
330
1A
100
AcDbEntity
  8
1
100
AcDbCircle
 10
519.2571451766379
 20
307.8777925041011
 30
0.0
 40
6.0
100
AcDbArc
 50
89.99999999999984
 51
177.0000000000002
  0
LINE
  5
46D
330
1A
100
AcDbEntity
  8
1
100
AcDbLine
 10
512.6200177492518
 20
295.8777925041012
 30
0.0
 11
702.6200177492535
 21
295.8777925041011
 31
0.0
  0
LINE
  5
46E
330
1A
100
AcDbEntity
  8
1
100
AcDbLine
 10
513.2653679681096
 20
308.1918082415596
 30
0.0
 11
512.6200177492518
 21
295.8777925041012
 31
0.0
  0
LINE
  5
46F
330
1A
100
AcDbEntity
  8
1
100
AcDbLine
 10
519.2571451766379
 20
313.8777925041012
 30
0.0
 11
537.6200177492536
 21
313.8777925041012
 31
0.0
  0
LINE
  5
47B
330
1A
100
AcDbEntity
  8
1
100
AcDbLine
 10
512.6200177492553
 20
460.0785157353233
 30
0.0
 11
512.6200177492536
 21
660.0785157353234
 31
0.0
  0
LINE
  5
47C
330
1A
100
AcDbEntity
  8
1
100
AcDbLine
 10
702.6200177492553
 20
460.0785157353233
 30
0.0
 11
702.6200177492553
 21
660.0785157353234
 31
0.0
  0
LINE
  5
47D
330
1A
100
AcDbEntity
  8
1
100
AcDbLine
 10
527.6200177492553
 20
445.0785157353235
 30
0.0
 11
687.6200177492553
 21
445.0785157353234
 31
0.0
  0
LINE
  5
47E
330
1A
100
AcDbEntity
  8
1
100
AcDbLine
 10
527.6200177492536
 20
675.0785157353234
 30
0.0
 11
687.6200177492553
 21
675.0785157353234
 31
0.0
  0
ARC
  5
47F
330
1A
100
AcDbEntity
  8
1
100
AcDbCircle
 10
527.6200177492553
 20
460.0785157353233
 30
0.0
 40
15.0
100
AcDbArc
 50
180.0
 51
270.0
  0
ARC
  5
480
330
1A
100
AcDbEntity
  8
1
100
AcDbCircle
 10
527.6200177492537
 20
660.0785157353234
 30
0.0
 40
15.0
100
AcDbArc
 50
90.0
 51
180.0
  0
ARC
  5
481
330
1A
100
AcDbEntity
  8
1
100
AcDbCircle
 10
687.6200177492553
 20
660.0785157353234
 30
0.0
 40
15.0
100
AcDbArc
 50
0.0
 51
90.0
  0
ARC
  5
482
330
1A
100
AcDbEntity
  8
1
100
AcDbCircle
 10
687.6200177492553
 20
460.0785157353233
 30
0.0
 40
15.0
100
AcDbArc
 50
270.0
 51
0.0
  0
LINE
  5
483
330
1A
100
AcDbEntity
  8
1
100
AcDbLine
 10
537.6200177492553
 20
446.0218557624179
 30
0.0
 11
537.6200177492553
 21
674.1351757082289
 31
0.0
  0
LINE
  5
484
330
1A
100
AcDbEntity
  8
1
100
AcDbLine
 10
677.6200177492553
 20
446.0218557624179
 30
0.0
 11
677.6200177492553
 21
674.1351757082289
 31
0.0
  0
LINE
  5
485
330
1A
100
AcDbEntity
  8
1
100
AcDbLine
 10
513.5633577763526
 20
659.1351757082288
 30
0.0
 11
513.5633577763526
 21
461.021855762418
 31
0.0
  0
LINE
  5
486
330
1A
100
AcDbEntity
  8
1
100
AcDbLine
 10
701.6766777221617
 20
659.1351757082288
 30
0.0
 11
701.676677722158
 21
461.0218557624179
 31
0.0
  0
LINE
  5
487
330
1A
100
AcDbEntity
  8
1
100
AcDbLine
 10
528.5633577763526
 20
446.0218557624179
 30
0.0
 11
686.676677722158
 21
446.0218557624179
 31
0.0
  0
LINE
  5
488
330
1A
100
AcDbEntity
  8
1
100
AcDbLine
 10
528.5633577763526
 20
674.1351757082289
 30
0.0
 11
686.6766777221616
 21
674.1351757082289
 31
0.0
  0
ARC
  5
489
330
1A
100
AcDbEntity
  8
1
100
AcDbCircle
 10
528.5633577763526
 20
461.021855762418
 30
0.0
 40
15.0
100
AcDbArc
 50
180.0
 51
270.0
  0
ARC
  5
48A
330
1A
100
AcDbEntity
  8
1
100
AcDbCircle
 10
528.5633577763526
 20
659.1351757082288
 30
0.0
 40
15.0
100
AcDbArc
 50
90.00000000000007
 51
180.0000000000002
  0
ARC
  5
48B
330
1A
100
AcDbEntity
  8
1
100
AcDbCircle
 10
686.6766777221616
 20
659.1351757082288
 30
0.0
 40
15.0
100
AcDbArc
 50
359.999999999999
 51
90.00000000000007
  0
ARC
  5
48C
330
1A
100
AcDbEntity
  8
1
100
AcDbCircle
 10
686.676677722158
 20
461.0218557624179
 30
0.0
 40
15.0
100
AcDbArc
 50
270.0
 51
359.9999999999993
  0
LINE
  5
48D
330
1A
100
AcDbEntity
  8
1
100
AcDbLine
 10
235.6363155186543
 20
274.8777925040996
 30
0.0
 11
235.6363155186543
 21
285.8777925040931
 31
0.0
  0
LINE
  5
48E
330
1A
100
AcDbEntity
  8
1
100
AcDbLine
 10
239.6363155186543
 20
274.8777925040996
 30
0.0
 11
239.6363155186543
 21
285.8777925040931
 31
0.0
  0
LINE
  5
48F
330
1A
100
AcDbEntity
  8
1
100
AcDbLine
 10
239.6363155186547
 20
274.8777925040996
 30
0.0
 11
235.6363155186543
 21
274.8777925040996
 31
0.0
  0
ARC
  5
490
330
1A
100
AcDbEntity
  8
1
100
AcDbCircle
 10
1096.730052366894
 20
178.8777925041062
 30
0.0
 40
2.0
100
AcDbArc
 50
180.0000000000049
 51
270.0000000000028
  0
ARC
  5
491
330
1A
100
AcDbEntity
  8
1
100
AcDbCircle
 10
1099.330052366895
 20
178.8777925041062
 30
0.0
 40
2.0
100
AcDbArc
 50
270.000000000003
 51
0.0000000000050253
  0
LINE
  5
492
330
1A
100
AcDbEntity
  8
1
100
AcDbLine
 10
1094.730052366894
 20
180.877792504107
 30
0.0
 11
1094.730052366894
 21
178.877792504106
 31
0.0
  0
LINE
  5
493
330
1A
100
AcDbEntity
  8
1
100
AcDbLine
 10
1101.330052366895
 20
180.877792504107
 30
0.0
 11
1101.330052366895
 21
178.877792504106
 31
0.0
  0
LINE
  5
494
330
1A
100
AcDbEntity
  8
1
100
AcDbLine
 10
1099.330052366895
 20
176.877792504106
 30
0.0
 11
1096.730052366894
 21
176.877792504106
 31
0.0
  0
LINE
  5
495
330
1A
100
AcDbEntity
  8
1
100
AcDbLine
 10
859.730052366878
 20
176.8777925041008
 30
0.0
 11
862.3300523668788
 21
176.8777925041008
 31
0.0
  0
LINE
  5
496
330
1A
100
AcDbEntity
  8
1
100
AcDbLine
 10
857.7300523668775
 20
180.8777925041017
 30
0.0
 11
857.730052366878
 21
178.8777925041008
 31
0.0
  0
LINE
  5
497
330
1A
100
AcDbEntity
  8
1
100
AcDbLine
 10
864.3300523668784
 20
180.8777925041017
 30
0.0
 11
864.3300523668788
 21
178.8777925041008
 31
0.0
  0
ARC
  5
498
330
1A
100
AcDbEntity
  8
1
100
AcDbCircle
 10
859.730052366878
 20
178.8777925041008
 30
0.0
 40
2.0
100
AcDbArc
 50
179.9999999999975
 51
269.9999999999996
  0
ARC
  5
499
330
1A
100
AcDbEntity
  8
1
100
AcDbCircle
 10
862.3300523668786
 20
178.8777925041008
 30
0.0
 40
2.0
100
AcDbArc
 50
269.9999999999997
 51
359.9999999999976
  0
LINE
  5
49A
330
1A
100
AcDbEntity
  8
1
100
AcDbLine
 10
117.8363155186456
 20
176.8777925041004
 30
0.0
 11
120.4363155186463
 21
176.8777925041004
 31
0.0
  0
LINE
  5
49B
330
1A
100
AcDbEntity
  8
1
100
AcDbLine
 10
115.8363155186456
 20
180.8777925041013
 30
0.0
 11
115.8363155186456
 21
178.8777925041004
 31
0.0
  0
LINE
  5
49C
330
1A
100
AcDbEntity
  8
1
100
AcDbLine
 10
122.4363155186464
 20
180.8777925041013
 30
0.0
 11
122.4363155186464
 21
178.8777925041004
 31
0.0
  0
ARC
  5
49D
330
1A
100
AcDbEntity
  8
1
100
AcDbCircle
 10
117.8363155186455
 20
178.8777925041004
 30
0.0
 40
2.0
100
AcDbArc
 50
179.9999999999963
 51
269.9999999999982
  0
ARC
  5
49E
330
1A
100
AcDbEntity
  8
1
100
AcDbCircle
 10
120.4363155186463
 20
178.8777925041004
 30
0.0
 40
2.0
100
AcDbArc
 50
269.9999999999984
 51
359.9999999999961
  0
ARC
  5
49F
330
1A
100
AcDbEntity
  8
1
100
AcDbCircle
 10
354.8363155186622
 20
178.8777925041004
 30
0.0
 40
2.0
100
AcDbArc
 50
180.0000000000037
 51
270.0000000000015
  0
ARC
  5
4A0
330
1A
100
AcDbEntity
  8
1
100
AcDbCircle
 10
357.4363155186631
 20
178.8777925041004
 30
0.0
 40
2.0
100
AcDbArc
 50
270.0000000000017
 51
0.0000000000036771
  0
LINE
  5
4A1
330
1A
100
AcDbEntity
  8
1
100
AcDbLine
 10
352.8363155186622
 20
180.8777925041013
 30
0.0
 11
352.8363155186622
 21
178.8777925041004
 31
0.0
  0
LINE
  5
4A2
330
1A
100
AcDbEntity
  8
1
100
AcDbLine
 10
359.4363155186631
 20
180.8777925041013
 30
0.0
 11
359.4363155186631
 21
178.8777925041004
 31
0.0
  0
LINE
  5
4A3
330
1A
100
AcDbEntity
  8
1
100
AcDbLine
 10
357.4363155186631
 20
176.8777925041004
 30
0.0
 11
354.8363155186622
 21
176.8777925041004
 31
0.0
  0
ARC
  5
4A4
330
1A
100
AcDbEntity
  8
1
100
AcDbCircle
 10
693.8200177492151
 20
179.5492655737843
 30
0.0
 40
2.0
100
AcDbArc
 50
180.0000000000002
 51
261.2731438896734
  0
ARC
  5
4A5
330
1A
100
AcDbEntity
  8
1
100
AcDbCircle
 10
702.6200177492134
 20
236.8777925041008
 30
0.0
 40
60.0
100
AcDbArc
 50
261.2731438896773
 51
278.7268561103248
  0
LINE
  5
4A6
330
1A
100
AcDbEntity
  8
1
100
AcDbLine
 10
691.8200177492142
 20
179.5492655737843
 30
0.0
 11
691.8200177492133
 21
180.8777925041012
 31
0.0
  0
ARC
  5
4A7
330
1A
100
AcDbEntity
  8
1
100
AcDbCircle
 10
711.4200177492136
 20
179.5492655737843
 30
0.0
 40
2.0
100
AcDbArc
 50
278.726856110327
 51
0.0000000000001599
  0
LINE
  5
4A8
330
1A
100
AcDbEntity
  8
1
100
AcDbLine
 10
713.4200177492137
 20
179.5492655737843
 30
0.0
 11
713.4200177492137
 21
180.8777925041012
 31
0.0
  0
LINE
  5
4A9
330
1A
100
AcDbEntity
  8
1
100
AcDbLine
 10
516.8200177492143
 20
179.5492655737839
 30
0.0
 11
516.8200177492134
 21
180.8777925041008
 31
0.0
  0
LINE
  5
4AA
330
1A
100
AcDbEntity
  8
1
100
AcDbLine
 10
538.4200177492138
 20
179.5492655737839
 30
0.0
 11
538.4200177492138
 21
180.8777925041008
 31
0.0
  0
ARC
  5
4AB
330
1A
100
AcDbEntity
  8
1
100
AcDbCircle
 10
527.6200177492134
 20
236.8777925041003
 30
0.0
 40
60.0
100
AcDbArc
 50
261.2731438896773
 51
278.7268561103248
  0
ARC
  5
4AC
330
1A
100
AcDbEntity
  8
1
100
AcDbCircle
 10
518.8200177492152
 20
179.5492655737839
 30
0.0
 40
2.0
100
AcDbArc
 50
180.0000000000002
 51
261.2731438896734
  0
ARC
  5
4AD
330
1A
100
AcDbEntity
  8
1
100
AcDbCircle
 10
536.4200177492136
 20
179.5492655737839
 30
0.0
 40
2.0
100
AcDbArc
 50
278.726856110327
 51
0.0000000000001599
  0
SPLINE
  5
5C1
330
1A
100
AcDbEntity
  8
1
100
AcDbSpline
210
0.0
220
0.0
230
1.0
 70
     8
 71
     3
 72
    18
 73
    14
 74
     0
 42
0.0000000001
 43
0.0000000001
 40
-1.570796326794896
 40
-1.570796326794896
 40
-1.570796326794896
 40
-1.570796326794896
 40
-1.308996938995747
 40
-1.308996938995747
 40
-1.047197551196596
 40
-1.047197551196596
 40
-0.7853981633974483
 40
-0.7853981633974483
 40
-0.523598775598299
 40
-0.523598775598299
 40
-0.2617993877991496
 40
-0.2617993877991496
 40
0.0
 40
0.0
 40
0.0
 40
0.0
 10
724.0603139809961
 20
631.3285157353237
 30
0.0
 10
724.0603139809961
 20
632.1927573567741
 30
0.0
 10
724.0090171591337
 20
633.1005104524164
 30
0.0
 10
723.7779359757014
 20
634.9369515471133
 30
0.0
 10
723.5979539582975
 20
635.8649248858695
 30
0.0
 10
723.0968039989448
 20
637.6526386724995
 30
0.0
 10
722.7760029783764
 20
638.5114093192915
 30
0.0
 10
721.9934015594787
 20
640.0766121570877
 30
0.0
 10
721.5321297725084
 20
640.783546013038
 30
0.0
 10
720.4642243385576
 20
641.9810101011243
 30
0.0
 10
719.8537017747703
 20
642.4733932310423
 30
0.0
 10
718.5057975039008
 20
643.1518256947143
 30
0.0
 10
717.7674207621828
 20
643.3285157353237
 30
0.0
 10
717.0603139809961
 20
643.3285157353237
 30
0.0
  0
LINE
  5
5C2
330
1A
100
AcDbEntity
  8
1
100
AcDbLine
 10
702.6200177492553
 20
643.3285157353237
 30
0.0
 11
717.0603139809961
 21
643.3285157353237
 31
0.0
  0
LINE
  5
5C3
330
1A
100
AcDbEntity
  8
1
100
AcDbLine
 10
724.0603139809953
 20
631.3285191641798
 30
0.0
 11
724.0603139809961
 21
488.8285157353237
 31
0.0
  0
SPLINE
  5
5C4
330
1A
100
AcDbEntity
  8
1
100
AcDbSpline
210
0.0
220
0.0
230
1.0
 70
     8
 71
     3
 72
    18
 73
    14
 74
     0
 42
0.0000000001
 43
0.0000000001
 40
0.0
 40
0.0
 40
0.0
 40
0.0
 40
0.2617993877991494
 40
0.2617993877991494
 40
0.5235987755982988
 40
0.5235987755982988
 40
0.7853981633974483
 40
0.7853981633974483
 40
1.047197551196596
 40
1.047197551196596
 40
1.308996938995745
 40
1.308996938995745
 40
1.570796326794896
 40
1.570796326794896
 40
1.570796326794896
 40
1.570796326794896
 10
717.0603139809961
 20
476.8285157353237
 30
0.0
 10
717.7674207621828
 20
476.8285157353237
 30
0.0
 10
718.5057975039015
 20
477.0052057759325
 30
0.0
 10
719.8537017747711
 20
477.6836382396044
 30
0.0
 10
720.4642243385567
 20
478.1760213695233
 30
0.0
 10
721.5321297725075
 20
479.3734854576096
 30
0.0
 10
721.9934015594787
 20
480.080419313561
 30
0.0
 10
722.7760029783764
 20
481.6456221513571
 30
0.0
 10
723.0968039989445
 20
482.5043927981491
 30
0.0
 10
723.5979539582975
 20
484.2921065847789
 30
0.0
 10
723.7779359757003
 20
485.2200799235338
 30
0.0
 10
724.0090171591325
 20
487.0565210182308
 30
0.0
 10
724.0603139809961
 20
487.9642741138741
 30
0.0
 10
724.0603139809961
 20
488.8285157353237
 30
0.0
  0
LINE
  5
5C5
330
1A
100
AcDbEntity
  8
1
100
AcDbLine
 10
702.6200177492553
 20
476.8285157353237
 30
0.0
 11
717.0603139809961
 21
476.8285157353237
 31
0.0
  0
ARC
  5
5CB
330
1A
100
AcDbEntity
  8
1
100
AcDbCircle
 10
1050.78005236688
 20
217.6329091978145
 30
0.0
 40
12.0
100
AcDbArc
 50
270.0
 51
0.0
  0
LINE
  5
5CC
330
1A
100
AcDbEntity
  8
1
100
AcDbLine
 10
1062.78005236688
 20
239.4897672386325
 30
0.0
 11
1062.78005236688
 21
217.6329091978144
 31
0.0
  0
ARC
  5
5CD
330
1A
100
AcDbEntity
  8
1
100
AcDbCircle
 10
1050.78005236688
 20
239.4897672386327
 30
0.0
 40
12.0
100
AcDbArc
 50
0.0
 51
89.99999999999998
  0
LINE
  5
5CE
330
1A
100
AcDbEntity
  8
1
100
AcDbLine
 10
1050.78005236688
 20
251.4897672386326
 30
0.0
 11
908.2800523668808
 21
251.4897672386326
 31
0.0
  0
LINE
  5
5CF
330
1A
100
AcDbEntity
  8
1
100
AcDbLine
 10
1050.780052366881
 20
205.6329091978172
 30
0.0
 11
908.2800523668808
 21
205.6329091978136
 31
0.0
  0
ARC
  5
5D0
330
1A
100
AcDbEntity
  8
1
100
AcDbCircle
 10
908.2800523668808
 20
217.6329091978136
 30
0.0
 40
12.0
100
AcDbArc
 50
180.0
 51
270.0
  0
LINE
  5
5D1
330
1A
100
AcDbEntity
  8
1
100
AcDbLine
 10
896.2800523668809
 20
239.4897672386326
 30
0.0
 11
896.2800523668809
 21
217.6329091978136
 31
0.0
  0
ARC
  5
5D2
330
1A
100
AcDbEntity
  8
1
100
AcDbCircle
 10
908.2800523668808
 20
239.4897672386327
 30
0.0
 40
12.0
100
AcDbArc
 50
89.99999999999998
 51
180.0
  0
LINE
  5
5E3
330
1A
100
AcDbEntity
  8
1
100
AcDbLine
 10
500.6200177492518
 20
180.8777925041012
 30
0.0
 11
546.7915906245042
 21
180.8777925041008
 31
0.0
  0
LINE
  5
5E4
330
1A
100
AcDbEntity
  8
1
100
AcDbLine
 10
499.6200177492517
 20
181.8777925041012
 30
0.0
 11
499.6200177492517
 21
190.8777925040931
 31
0.0
  0
LINE
  5
5E5
330
1A
100
AcDbEntity
  8
1
100
AcDbLine
 10
517.6694840641273
 20
265.8777925041017
 30
0.0
 11
698.5173147742742
 21
265.8777925041011
 31
0.0
  0
LINE
  5
5E6
330
1A
100
AcDbEntity
  8
1
100
AcDbLine
 10
731.8200177492506
 20
181.8777925041026
 30
0.0
 11
731.8200177492524
 21
190.8777925041063
 31
0.0
  0
LINE
  5
5E7
330
1A
100
AcDbEntity
  8
1
100
AcDbLine
 10
499.6200177492517
 20
190.8777925041012
 30
0.0
 11
516.3063092502468
 21
190.8777925041012
 31
0.0
  0
ARC
  5
5E8
330
1A
100
AcDbEntity
  8
1
100
AcDbCircle
 10
730.8200177492506
 20
181.8777925041026
 30
0.0
 40
1.0
100
AcDbArc
 50
270.0000000000002
 51
0.0000000000001599
  0
LINE
  5
5E9
330
1A
100
AcDbEntity
  8
1
100
AcDbLine
 10
542.6200177492518
 20
280.8777925041017
 30
0.0
 11
672.6200177492508
 21
280.8777925041017
 31
0.0
  0
LINE
  5
5EA
330
1A
100
AcDbEntity
  8
1
100
AcDbLine
 10
731.8200177492506
 20
190.8777925041026
 30
0.0
 11
704.1085029592129
 21
262.0546284374366
 31
0.0
  0
ARC
  5
5EB
330
1A
100
AcDbEntity
  8
1
100
AcDbCircle
 10
698.5173147742742
 20
259.8777925041011
 30
0.0
 40
6.0
100
AcDbArc
 50
21.27262173590231
 51
90.0
  0
LINE
  5
5EC
330
1A
100
AcDbEntity
  8
1
100
AcDbLine
 10
672.6200177492517
 20
280.8777925041022
 30
0.0
 11
672.6200177492517
 21
285.8777925041014
 31
0.0
  0
LINE
  5
5ED
330
1A
100
AcDbEntity
  8
1
100
AcDbLine
 10
532.5023899966144
 20
265.8777925041017
 30
0.0
 11
542.6200177492518
 21
280.8777925041026
 31
0.0
  0
LINE
  5
5EE
330
1A
100
AcDbEntity
  8
1
100
AcDbLine
 10
511.7576359417297
 20
260.9025128453172
 30
0.0
 11
499.6200177492517
 21
190.8777925041012
 31
0.0
  0
ARC
  5
5EF
330
1A
100
AcDbEntity
  8
1
100
AcDbCircle
 10
517.6694840641273
 20
259.8777925041017
 30
0.0
 40
6.0
100
AcDbArc
 50
90.0
 51
170.1664360357932
  0
LINE
  5
5F0
330
1A
100
AcDbEntity
  8
1
100
AcDbLine
 10
682.7450177492508
 20
265.8777925041011
 30
0.0
 11
672.6200177492508
 21
280.8777925041017
 31
0.0
  0
LINE
  5
5F1
330
1A
100
AcDbEntity
  8
1
100
AcDbLine
 10
542.6200177492518
 20
280.8777925041023
 30
0.0
 11
542.6200177492527
 21
285.8777925041017
 31
0.0
  0
LINE
  5
5F2
330
1A
100
AcDbEntity
  8
1
100
AcDbLine
 10
556.6910855611165
 20
187.8777925041012
 30
0.0
 11
607.6200177492507
 21
187.8777925041012
 31
0.0
  0
LINE
  5
5F3
330
1A
100
AcDbEntity
  8
1
100
AcDbLine
 10
553.1555516551841
 20
186.4133264100341
 30
0.0
 11
548.2058041868774
 21
181.4635789417279
 31
0.0
  0
LINE
  5
5F4
330
1A
100
AcDbEntity
  8
1
100
AcDbLine
 10
662.0844838433193
 20
186.4133264100341
 30
0.0
 11
667.0342313116241
 21
181.4635789417288
 31
0.0
  0
LINE
  5
5F5
330
1A
100
AcDbEntity
  8
1
100
AcDbLine
 10
668.4484448739974
 20
180.8777925041017
 30
0.0
 11
730.8200177492506
 21
180.8777925041026
 31
0.0
  0
ARC
  5
5F6
330
1A
100
AcDbEntity
  8
1
100
AcDbCircle
 10
546.7915906245042
 20
182.8777925041008
 30
0.0
 40
2.0
100
AcDbArc
 50
270.0000000000002
 51
315.0000000000002
  0
ARC
  5
5F7
330
1A
100
AcDbEntity
  8
1
100
AcDbCircle
 10
668.4484448739974
 20
182.8777925041016
 30
0.0
 40
2.0
100
AcDbArc
 50
225.0000000000002
 51
270.0000000000004
  0
LINE
  5
5F8
330
1A
100
AcDbEntity
  8
1
100
AcDbLine
 10
607.6200177492507
 20
187.8777925041012
 30
0.0
 11
658.5489499373859
 21
187.8777925041017
 31
0.0
  0
ARC
  5
5F9
330
1A
100
AcDbEntity
  8
1
100
AcDbCircle
 10
556.6910855611165
 20
182.8777925041012
 30
0.0
 40
5.0
100
AcDbArc
 50
90.00000000000021
 51
134.9999999999961
  0
ARC
  5
5FA
330
1A
100
AcDbEntity
  8
1
100
AcDbCircle
 10
658.5489499373859
 20
182.8777925041016
 30
0.0
 40
5.0
100
AcDbArc
 50
44.99999999999616
 51
90.00000000000044
  0
LINE
  5
5FB
330
1A
100
AcDbEntity
  8
1
100
AcDbLine
 10
516.3063092502468
 20
191.864084005097
 30
0.0
 11
516.3063092502468
 21
180.8777925041017
 31
0.0
  0
LINE
  5
5FC
330
1A
100
AcDbEntity
  8
1
100
AcDbLine
 10
538.9337262482147
 20
191.864084005097
 30
0.0
 11
538.9337262482156
 21
180.8777925041012
 31
0.0
  0
ARC
  5
5FD
330
1A
100
AcDbEntity
  8
1
100
AcDbCircle
 10
527.6212807215796
 20
191.8652412816017
 30
0.0
 40
11.31255129299925
100
AcDbArc
 50
359.752239837342
 51
179.9726480086502
  0
ARC
  5
5FE
330
1A
100
AcDbEntity
  8
1
100
AcDbCircle
 10
702.6200177492516
 20
191.8640840050984
 30
0.0
 40
11.31370849900341
100
AcDbArc
 50
0.0000000000044764
 51
180.0000000000023
  0
LINE
  5
5FF
330
1A
100
AcDbEntity
  8
1
100
AcDbLine
 10
713.9337262482156
 20
191.8640840050979
 30
0.0
 11
713.9337262482165
 21
180.8777925041022
 31
0.0
  0
LINE
  5
600
330
1A
100
AcDbEntity
  8
1
100
AcDbLine
 10
691.3063092502477
 20
191.8640840050979
 30
0.0
 11
691.3063092502477
 21
180.8777925041026
 31
0.0
  0
LINE
  5
601
330
1A
100
AcDbEntity
  8
1
100
AcDbLine
 10
713.9337262482147
 20
190.8777925041026
 30
0.0
 11
731.8200177492514
 21
190.8777925041026
 31
0.0
  0
LINE
  5
602
330
1A
100
AcDbEntity
  8
1
100
AcDbLine
 10
538.9337262482156
 20
190.8777925041012
 30
0.0
 11
691.3063092502477
 21
190.8777925041026
 31
0.0
  0
LINE
  5
605
330
1A
100
AcDbEntity
  8
1
100
AcDbLine
 10
227.3863155186537
 20
200.8777925040985
 30
0.0
 11
210.5766409904242
 21
200.8777925040967
 31
0.0
  0
ARC
  5
606
330
1A
100
AcDbEntity
  8
1
100
AcDbCircle
 10
237.6363155186544
 20
252.9090425040986
 30
0.0
 40
53.03125000000179
100
AcDbArc
 50
258.8556043920727
 51
281.1443956079271
  0
LINE
  5
607
330
1A
100
AcDbEntity
  8
1
100
AcDbLine
 10
227.3863155186537
 20
200.8777925040967
 30
0.0
 11
227.3863155186537
 21
201.8777925040959
 31
0.0
  0
LINE
  5
608
330
1A
100
AcDbEntity
  8
1
100
AcDbLine
 10
247.8863155186543
 20
200.8777925040967
 30
0.0
 11
247.8863155186543
 21
201.8777925040959
 31
0.0
  0
LINE
  5
609
330
1A
100
AcDbEntity
  8
1
100
AcDbLine
 10
247.8863155186543
 20
201.8777925040967
 30
0.0
 11
227.3863155186534
 21
201.8777925040967
 31
0.0
  0
LINE
  5
60A
330
1A
100
AcDbEntity
  8
1
100
AcDbLine
 10
249.6363155186537
 20
198.8777925040967
 30
0.0
 11
210.6363155186534
 21
198.8777925040958
 31
0.0
  0
ARC
  5
60B
330
1A
100
AcDbEntity
  8
1
100
AcDbCircle
 10
207.6666114886291
 20
264.8777925040931
 30
0.0
 40
1.0
100
AcDbArc
 50
1.762391023660523
 51
90.00000000000047
  0
ARC
  5
60C
330
1A
100
AcDbEntity
  8
1
100
AcDbCircle
 10
252.6060195486778
 20
264.8777925040941
 30
0.0
 40
1.0
100
AcDbArc
 50
90.0
 51
178.2376089763394
  0
LINE
  5
60D
330
1A
100
AcDbEntity
  8
1
100
AcDbLine
 10
208.6661384517058
 20
264.9085471798799
 30
0.0
 11
210.6363155186534
 21
198.8777925040958
 31
0.0
  0
LINE
  5
60E
330
1A
100
AcDbEntity
  8
1
100
AcDbLine
 10
249.6363155186537
 20
198.8777925040967
 30
0.0
 11
251.606492585601
 21
264.9085471798808
 31
0.0
  0
LINE
  5
60F
330
1A
100
AcDbEntity
  8
1
100
AcDbLine
 10
249.6959900468834
 20
200.8777925040967
 30
0.0
 11
247.8863155186543
 21
200.8777925040985
 31
0.0
  0
LINE
  5
610
330
1A
100
AcDbEntity
  8
1
100
AcDbLine
 10
359.636315518662
 20
180.8777925041015
 30
0.0
 11
120.6363155186626
 21
180.877792504094
 31
0.0
  0
LINE
  5
611
330
1A
100
AcDbEntity
  8
1
100
AcDbLine
 10
359.6363155186616
 20
190.8777925041013
 30
0.0
 11
359.636315518662
 21
180.8777925041013
 31
0.0
  0
LINE
  5
612
330
1A
100
AcDbEntity
  8
1
100
AcDbLine
 10
115.6363155186626
 20
190.877792504094
 30
0.0
 11
115.6363155186626
 21
180.877792504094
 31
0.0
  0
LINE
  5
613
330
1A
100
AcDbEntity
  8
1
100
AcDbLine
 10
355.636315518662
 20
190.8777925041004
 30
0.0
 11
119.6363155186626
 21
190.877792504094
 31
0.0
  0
LINE
  5
614
330
1A
100
AcDbEntity
  8
1
100
AcDbLine
 10
119.6363155186626
 20
190.8777925040985
 30
0.0
 11
119.6363155186626
 21
181.8777925040941
 31
0.0
  0
LINE
  5
615
330
1A
100
AcDbEntity
  8
1
100
AcDbLine
 10
355.636315518662
 20
190.8777925041013
 30
0.0
 11
355.636315518662
 21
181.8777925041011
 31
0.0
  0
LINE
  5
616
330
1A
100
AcDbEntity
  8
1
100
AcDbLine
 10
355.636315518662
 20
190.8777925041013
 30
0.0
 11
351.0097079144508
 21
260.2769065672437
 31
0.0
  0
LINE
  5
617
330
1A
100
AcDbEntity
  8
1
100
AcDbLine
 10
124.2629231228695
 20
260.2769065672373
 30
0.0
 11
119.6363155186629
 21
190.877792504094
 31
0.0
  0
ARC
  5
618
330
1A
100
AcDbEntity
  8
1
100
AcDbCircle
 10
345.0229969673107
 20
259.8777925041013
 30
0.0
 40
6.0
100
AcDbArc
 50
3.814074834292009
 51
90.00000000000175
  0
ARC
  5
619
330
1A
100
AcDbEntity
  8
1
100
AcDbCircle
 10
130.249634070009
 20
259.877792504095
 30
0.0
 40
6.0
100
AcDbArc
 50
90.00000000000161
 51
176.1859251657113
  0
ARC
  5
61A
330
1A
100
AcDbEntity
  8
1
100
AcDbCircle
 10
133.6363155186625
 20
190.8777925040941
 30
0.0
 40
18.0
100
AcDbArc
 50
141.7479429172995
 51
180.0000000000017
  0
ARC
  5
61B
330
1A
100
AcDbEntity
  8
1
100
AcDbCircle
 10
115.5745373467313
 20
205.1176018170019
 30
0.0
 40
5.0
100
AcDbArc
 50
321.7479429172994
 51
356.1859251657037
  0
ARC
  5
61C
330
1A
100
AcDbEntity
  8
1
100
AcDbCircle
 10
341.6363155186616
 20
190.8777925041013
 30
0.0
 40
18.0
100
AcDbArc
 50
0.0000000000016787
 51
38.25205708270384
  0
ARC
  5
61D
330
1A
100
AcDbEntity
  8
1
100
AcDbCircle
 10
359.6980936905917
 20
205.117601817009
 30
0.0
 40
5.0
100
AcDbArc
 50
183.8140748342997
 51
218.252057082704
  0
LINE
  5
61E
330
1A
100
AcDbEntity
  8
1
100
AcDbLine
 10
330.6363155186592
 20
280.8777925041003
 30
0.0
 11
239.6363155186543
 21
280.8777925041003
 31
0.0
  0
LINE
  5
61F
330
1A
100
AcDbEntity
  8
1
100
AcDbLine
 10
330.6363155186588
 20
285.8777925040941
 30
0.0
 11
330.6363155186597
 21
280.8777925041022
 31
0.0
  0
LINE
  5
620
330
1A
100
AcDbEntity
  8
1
100
AcDbLine
 10
330.6363155186597
 20
280.8777925041013
 30
0.0
 11
331.6363155186597
 21
265.8777925041013
 31
0.0
  0
LINE
  5
621
330
1A
100
AcDbEntity
  8
1
100
AcDbLine
 10
144.6363155186588
 20
280.8777925040959
 30
0.0
 11
143.6363155186596
 21
265.8777925040958
 31
0.0
  0
LINE
  5
622
330
1A
100
AcDbEntity
  8
1
100
AcDbLine
 10
144.6363155186584
 20
285.8777925040931
 30
0.0
 11
144.6363155186588
 21
280.8777925040968
 31
0.0
  0
LINE
  5
623
330
1A
100
AcDbEntity
  8
1
100
AcDbLine
 10
144.6363155186593
 20
280.8777925040949
 30
0.0
 11
235.6363155186543
 21
280.8777925040985
 31
0.0
  0
LINE
  5
624
330
1A
100
AcDbEntity
  8
1
100
AcDbLine
 10
130.2496340700091
 20
265.8777925040931
 30
0.0
 11
345.0229969673107
 21
265.8777925040941
 31
0.0
  0
LINE
  5
625
330
1A
100
AcDbEntity
  8
1
100
AcDbLine
 10
120.6363155186626
 20
180.877792504094
 30
0.0
 11
115.6363155186626
 21
180.877792504094
 31
0.0
  0
ARC
  5
626
330
1A
100
AcDbEntity
  8
1
100
AcDbCircle
 10
512.6200177492218
 20
560.0785157353239
 30
0.0
 40
8.25
100
AcDbArc
 50
89.99999999977267
 51
270.0000000002273
  0
LINE
  5
627
330
1A
100
AcDbEntity
  8
1
100
AcDbLine
 10
512.6200177492189
 20
589.0785157353239
 30
0.0
 11
502.3533510825854
 21
587.0785157353237
 31
0.0
  0
LINE
  5
628
330
1A
100
AcDbEntity
  8
1
100
AcDbLine
 10
512.6200177492207
 20
546.0785157353239
 30
0.0
 11
502.3533510825843
 21
548.0785157353239
 31
0.0
  0
ARC
  5
629
330
1A
100
AcDbEntity
  8
1
100
AcDbCircle
 10
502.3533510825854
 20
588.0785157353239
 30
0.0
 40
1.0
100
AcDbArc
 50
180.0
 51
270.0
  0
ARC
  5
62A
330
1A
100
AcDbEntity
  8
1
100
AcDbCircle
 10
502.3533510825843
 20
547.0785157353239
 30
0.0
 40
1.0
100
AcDbArc
 50
90.0
 51
180.0
  0
LINE
  5
62B
330
1A
100
AcDbEntity
  8
1
100
AcDbLine
 10
501.3533510825863
 20
588.0785157353237
 30
0.0
 11
501.353351082588
 21
547.0785157353239
 31
0.0
  0
LINE
  5
62C
330
1A
100
AcDbEntity
  8
1
100
AcDbLine
 10
512.6200177492207
 20
548.0785157353239
 30
0.0
 11
502.3533510825843
 21
548.0785157353239
 31
0.0
  0
LINE
  5
62D
330
1A
100
AcDbEntity
  8
1
100
AcDbLine
 10
502.3533510825854
 20
587.0785157353237
 30
0.0
 11
512.6200177492207
 21
587.0785157353243
 31
0.0
  0
ARC
  5
62E
330
1A
100
AcDbEntity
  8
1
100
AcDbCircle
 10
512.6200177492218
 20
560.0785157353239
 30
0.0
 40
10.25
100
AcDbArc
 50
89.99999999981694
 51
270.0000000001829
  0
ARC
  5
62F
330
1A
100
AcDbEntity
  8
1
100
AcDbCircle
 10
512.6200177492207
 20
578.0785157353238
 30
0.0
 40
5.0
100
AcDbArc
 50
89.99999999961431
 51
270.0000000003856
  0
ARC
  5
630
330
1A
100
AcDbEntity
  8
1
100
AcDbCircle
 10
1021.280052366882
 20
246.4897672386336
 30
0.0
 40
3.0
100
AcDbArc
 50
89.99999999999998
 51
180.0000000000004
  0
ARC
  5
631
330
1A
100
AcDbEntity
  8
1
100
AcDbCircle
 10
1021.280052366882
 20
210.6329091978154
 30
0.0
 40
3.0
100
AcDbArc
 50
180.0
 51
270.0
  0
ARC
  5
632
330
1A
100
AcDbEntity
  8
1
100
AcDbCircle
 10
1012.78005236688
 20
210.6329091978163
 30
0.0
 40
3.0
100
AcDbArc
 50
270.0000000000004
 51
0.0
  0
ARC
  5
633
330
1A
100
AcDbEntity
  8
1
100
AcDbCircle
 10
1012.78005236688
 20
246.4897672386327
 30
0.0
 40
3.0
100
AcDbArc
 50
0.0
 51
89.99999999999998
  0
LINE
  5
634
330
1A
100
AcDbEntity
  8
1
100
AcDbLine
 10
1012.78005236688
 20
207.6329091978162
 30
0.0
 11
908.2800523668808
 21
207.6329091978136
 31
0.0
  0
LINE
  5
635
330
1A
100
AcDbEntity
  8
1
100
AcDbLine
 10
1012.78005236688
 20
249.4897672386326
 30
0.0
 11
908.2800523668808
 21
249.4897672386326
 31
0.0
  0
ARC
  5
636
330
1A
100
AcDbEntity
  8
1
100
AcDbCircle
 10
1050.78005236688
 20
217.6329091978145
 30
0.0
 40
10.0
100
AcDbArc
 50
270.0
 51
0.0
  0
ARC
  5
637
330
1A
100
AcDbEntity
  8
1
100
AcDbCircle
 10
1050.78005236688
 20
239.4897672386327
 30
0.0
 40
10.0
100
AcDbArc
 50
0.0
 51
89.99999999999998
  0
ARC
  5
638
330
1A
100
AcDbEntity
  8
1
100
AcDbCircle
 10
908.2800523668808
 20
239.4897672386327
 30
0.0
 40
10.0
100
AcDbArc
 50
89.99999999999998
 51
180.0
  0
ARC
  5
639
330
1A
100
AcDbEntity
  8
1
100
AcDbCircle
 10
908.2800523668808
 20
217.6329091978136
 30
0.0
 40
10.0
100
AcDbArc
 50
180.0
 51
270.0
  0
LINE
  5
63A
330
1A
100
AcDbEntity
  8
1
100
AcDbLine
 10
1060.780052366881
 20
239.4897672386325
 30
0.0
 11
1060.780052366881
 21
217.6329091978144
 31
0.0
  0
LINE
  5
63B
330
1A
100
AcDbEntity
  8
1
100
AcDbLine
 10
1018.280052366882
 20
246.4897672386336
 30
0.0
 11
1018.280052366882
 21
210.6329091978154
 31
0.0
  0
LINE
  5
63C
330
1A
100
AcDbEntity
  8
1
100
AcDbLine
 10
1015.78005236688
 20
246.4897672386326
 30
0.0
 11
1015.780052366881
 21
210.6329091978162
 31
0.0
  0
LINE
  5
63D
330
1A
100
AcDbEntity
  8
1
100
AcDbLine
 10
898.280052366881
 20
239.4897672386326
 30
0.0
 11
898.280052366881
 21
217.6329091978136
 31
0.0
  0
LINE
  5
63E
330
1A
100
AcDbEntity
  8
1
100
AcDbLine
 10
1050.78005236688
 20
249.4897672386326
 30
0.0
 11
1021.280052366882
 21
249.4897672386335
 31
0.0
  0
LINE
  5
63F
330
1A
100
AcDbEntity
  8
1
100
AcDbLine
 10
1050.78005236688
 20
207.6329091978145
 30
0.0
 11
1021.280052366882
 21
207.6329091978154
 31
0.0
  0
LINE
  5
640
330
1A
100
AcDbEntity
  8
1
100
AcDbLine
 10
1096.53005236688
 20
180.8777925040998
 30
0.0
 11
1101.53005236688
 21
180.8777925040998
 31
0.0
  0
LINE
  5
641
330
1A
100
AcDbEntity
  8
1
100
AcDbLine
 10
1086.916733815532
 20
265.8777925041006
 30
0.0
 11
1070.530052366881
 21
265.8777925040998
 31
0.0
  0
LINE
  5
642
330
1A
100
AcDbEntity
  8
1
100
AcDbLine
 10
1072.53005236688
 20
280.8777925040998
 30
0.0
 11
979.5300523668815
 21
280.8777925041007
 31
0.0
  0
LINE
  5
643
330
1A
100
AcDbEntity
  8
1
100
AcDbLine
 10
1072.530052366881
 20
285.8777925040978
 30
0.0
 11
1072.530052366881
 21
280.8777925041016
 31
0.0
  0
LINE
  5
644
330
1A
100
AcDbEntity
  8
1
100
AcDbLine
 10
1072.530052366881
 20
280.8777925041006
 30
0.0
 11
1073.530052366881
 21
265.8777925041006
 31
0.0
  0
LINE
  5
645
330
1A
100
AcDbEntity
  8
1
100
AcDbLine
 10
1070.530052366881
 20
265.8777925040998
 30
0.0
 11
1070.530052366881
 21
215.8777925040997
 31
0.0
  0
LINE
  5
646
330
1A
100
AcDbEntity
  8
1
100
AcDbLine
 10
1056.006120993392
 20
200.8777925041008
 30
0.0
 11
979.5300523668815
 21
200.8777925041008
 31
0.0
  0
ARC
  5
647
330
1A
100
AcDbEntity
  8
1
100
AcDbCircle
 10
1075.530052366881
 20
262.8777925040997
 30
0.0
 40
3.0
100
AcDbArc
 50
90.00000000000319
 51
180.0
  0
LINE
  5
648
330
1A
100
AcDbEntity
  8
1
100
AcDbLine
 10
1072.53005236688
 20
262.8777925040997
 30
0.0
 11
1070.998322708487
 21
215.3941730939361
 31
0.0
  0
ARC
  5
649
330
1A
100
AcDbEntity
  8
1
100
AcDbCircle
 10
1055.53005236688
 20
215.8777925040997
 30
0.0
 40
15.0
100
AcDbArc
 50
269.9999999999997
 51
0.0
  0
ARC
  5
64A
330
1A
100
AcDbEntity
  8
1
100
AcDbCircle
 10
1056.006120993391
 20
215.8777925041006
 30
0.0
 40
15.0
100
AcDbArc
 50
270.0
 51
358.1523897340053
  0
ARC
  5
64B
330
1A
100
AcDbEntity
  8
1
100
AcDbCircle
 10
903.0539837403695
 20
215.8777925041007
 30
0.0
 40
15.0
100
AcDbArc
 50
181.8476102659945
 51
270.0
  0
ARC
  5
64C
330
1A
100
AcDbEntity
  8
1
100
AcDbCircle
 10
903.5300523668807
 20
215.8777925040997
 30
0.0
 40
15.0
100
AcDbArc
 50
180.0
 51
270.0000000000001
  0
LINE
  5
64D
330
1A
100
AcDbEntity
  8
1
100
AcDbLine
 10
886.5300523668809
 20
262.8777925040998
 30
0.0
 11
888.0617820252739
 21
215.3941730939362
 31
0.0
  0
ARC
  5
64E
330
1A
100
AcDbEntity
  8
1
100
AcDbCircle
 10
883.5300523668809
 20
262.8777925040997
 30
0.0
 40
3.0
100
AcDbArc
 50
0.0
 51
89.9999999999968
  0
LINE
  5
64F
330
1A
100
AcDbEntity
  8
1
100
AcDbLine
 10
903.0539837403697
 20
200.8777925041008
 30
0.0
 11
979.5300523668805
 21
200.8777925041008
 31
0.0
  0
LINE
  5
650
330
1A
100
AcDbEntity
  8
1
100
AcDbLine
 10
888.530052366881
 20
265.8777925040999
 30
0.0
 11
888.530052366881
 21
215.8777925040998
 31
0.0
  0
LINE
  5
651
330
1A
100
AcDbEntity
  8
1
100
AcDbLine
 10
886.5300523668805
 20
280.8777925041007
 30
0.0
 11
885.5300523668809
 21
265.8777925041007
 31
0.0
  0
LINE
  5
652
330
1A
100
AcDbEntity
  8
1
100
AcDbLine
 10
886.5300523668809
 20
285.8777925040945
 30
0.0
 11
886.5300523668805
 21
280.8777925041017
 31
0.0
  0
LINE
  5
653
330
1A
100
AcDbEntity
  8
1
100
AcDbLine
 10
886.5300523668809
 20
280.8777925040999
 30
0.0
 11
979.5300523668805
 21
280.8777925041007
 31
0.0
  0
ARC
  5
654
330
1A
100
AcDbEntity
  8
1
100
AcDbCircle
 10
719.0603139809952
 20
593.3285157353234
 30
0.0
 40
3.0
100
AcDbArc
 50
0.0000000000004796
 51
90.0
  0
ARC
  5
655
330
1A
100
AcDbEntity
  8
1
100
AcDbCircle
 10
719.0603139809952
 20
601.8285157353243
 30
0.0
 40
3.0
100
AcDbArc
 50
270.0
 51
359.9999999999983
  0
LINE
  5
656
330
1A
100
AcDbEntity
  8
1
100
AcDbLine
 10
722.0603139809953
 20
593.3285157353234
 30
0.0
 11
722.0603139809961
 21
488.8285157353237
 31
0.0
  0
ELLIPSE
  5
657
330
1A
100
AcDbEntity
  8
1
100
AcDbEllipse
 10
717.0603139809961
 20
631.3285157353237
 30
0.0
 11
0.0000000000000006
 21
10.0
 31
0.0
210
0.0
220
0.0
230
1.0
 40
0.5
 41
-1.570796326794896
 42
0.0
  0
ELLIPSE
  5
658
330
1A
100
AcDbEntity
  8
1
100
AcDbEllipse
 10
717.0603139809961
 20
488.8285157353237
 30
0.0
 11
-0.0000000000000006
 21
-10.0
 31
0.0
210
0.0
220
0.0
230
1.0
 40
0.5
 41
0.0
 42
1.570796326794896
  0
LINE
  5
659
330
1A
100
AcDbEntity
  8
1
100
AcDbLine
 10
702.6200177492553
 20
641.3285157353239
 30
0.0
 11
717.0603139809961
 21
641.3285157353239
 31
0.0
  0
LINE
  5
65A
330
1A
100
AcDbEntity
  8
1
100
AcDbLine
 10
702.6200177492563
 20
598.8285157353243
 30
0.0
 11
719.0603139809954
 21
598.8285157353243
 31
0.0
  0
LINE
  5
65B
330
1A
100
AcDbEntity
  8
1
100
AcDbLine
 10
702.6200177492563
 20
596.3285157353234
 30
0.0
 11
719.0603139809954
 21
596.3285157353234
 31
0.0
  0
LINE
  5
65C
330
1A
100
AcDbEntity
  8
1
100
AcDbLine
 10
702.6200177492553
 20
478.8285157353239
 30
0.0
 11
717.0603139809961
 21
478.8285157353239
 31
0.0
  0
LINE
  5
65D
330
1A
100
AcDbEntity
  8
1
100
AcDbLine
 10
722.0603139809961
 20
631.3285157353237
 30
0.0
 11
722.0603139809953
 21
601.8285157353243
 31
0.0
  0
LINE
  5
65E
330
1A
100
AcDbEntity
  8
1
100
AcDbLine
 10
702.6200177492819
 20
655.7917799565784
 30
0.0
 11
702.6200177492837
 21
658.0785157353234
 31
0.0
  0
LINE
  5
65F
330
1A
100
AcDbEntity
  8
1
100
AcDbLine
 10
726.6200177492509
 20
560.0785157353243
 30
0.0
 11
726.6200177492509
 21
636.0785157353237
 31
0.0
  0
LINE
  5
660
330
1A
100
AcDbEntity
  8
1
100
AcDbLine
 10
702.6200177492837
 20
653.0785157353237
 30
0.0
 11
719.0503035867467
 21
651.7093252488665
 31
0.0
  0
ELLIPSE
  5
661
330
1A
100
AcDbEntity
  8
1
100
AcDbEllipse
 10
718.3200177492508
 20
636.0785157353237
 30
0.0
 11
0.000000000000001
 21
15.6916666666675
 31
0.0
210
0.0
220
0.0
230
-1.0
 40
0.5289431757833074
 41
0.0
 42
1.570796326794896
  0
SPLINE
  5
662
330
1A
100
AcDbEntity
  8
1
100
AcDbSpline
210
0.0
220
0.0
230
1.0
 70
     8
 71
     3
 72
    18
 73
    14
 74
     0
 42
0.0000000001
 43
0.0000000001
 40
0.0
 40
0.0
 40
0.0
 40
0.0
 40
0.2617993877991494
 40
0.2617993877991494
 40
0.5235987755982988
 40
0.5235987755982988
 40
0.7853981633974483
 40
0.7853981633974483
 40
1.047197551196596
 40
1.047197551196596
 40
1.308996938995745
 40
1.308996938995745
 40
1.570796326794896
 40
1.570796326794896
 40
1.570796326794896
 40
1.570796326794896
 10
718.3200177492508
 20
652.7701824019914
 30
0.0
 10
719.1206639348474
 20
652.7701824019914
 30
0.0
 10
719.9602882026847
 20
652.5864637154882
 30
0.0
 10
721.5902809459764
 20
651.8109415257384
 30
0.0
 10
722.3799790147777
 20
651.2219959926119
 30
0.0
 10
723.8329116752309
 20
649.68194119601
 30
0.0
 10
724.497161961074
 20
648.7303518325778
 30
0.0
 10
725.6487643851076
 20
646.5531757638473
 30
0.0
 10
726.1354630764053
 20
645.3283554727804
 30
0.0
 10
726.9015551938061
 20
642.745070785706
 30
0.0
 10
727.1808187864878
 20
641.3883661410527
 30
0.0
 10
727.5397798847568
 20
638.69173968638
 30
0.0
 10
727.6200177492508
 20
637.3529272036101
 30
0.0
 10
727.6200177492508
 20
636.0785157353237
 30
0.0
  0
LINE
  5
663
330
1A
100
AcDbEntity
  8
1
100
AcDbLine
 10
718.3200177492507
 20
652.7701824019914
 30
0.0
 11
702.6200177492819
 21
655.7917799565784
 31
0.0
  0
LINE
  5
664
330
1A
100
AcDbEntity
  8
1
100
AcDbLine
 10
727.6200177492508
 20
636.0785157353237
 30
0.0
 11
727.6200177492508
 21
560.0785157353239
 31
0.0
  0
LINE
  5
665
330
1A
100
AcDbEntity
  8
1
100
AcDbLine
 10
512.6200177492189
 20
589.0785157353233
 30
0.0
 11
512.6200177492145
 21
658.0785157353229
 31
0.0
  0
LINE
  5
666
330
1A
100
AcDbEntity
  8
1
100
AcDbLine
 10
499.6200177492125
 20
672.0785157353233
 30
0.0
 11
512.6200177492145
 21
658.0785157353229
 31
0.0
  0
LINE
  5
667
330
1A
100
AcDbEntity
  8
1
100
AcDbLine
 10
505.6200177492127
 20
678.0785157353237
 30
0.0
 11
522.6100869565232
 21
674.2171363700268
 31
0.0
  0
LINE
  5
668
330
1A
100
AcDbEntity
  8
1
100
AcDbLine
 10
693.5533804038093
 20
673.8551338838219
 30
0.0
 11
725.8200177492907
 21
678.0785157353237
 31
0.0
  0
LINE
  5
669
330
1A
100
AcDbEntity
  8
1
100
AcDbLine
 10
702.6200177492837
 20
658.0785157353234
 30
0.0
 11
731.8200177492907
 21
672.0785157353233
 31
0.0
  0
LINE
  5
66A
330
1A
100
AcDbEntity
  8
1
100
AcDbLine
 10
499.6200177492125
 20
448.0785157353244
 30
0.0
 11
512.6200177492145
 21
462.0785157353248
 31
0.0
  0
LINE
  5
66B
330
1A
100
AcDbEntity
  8
1
100
AcDbLine
 10
505.6200177492127
 20
442.0785157353238
 30
0.0
 11
522.6100869565232
 21
445.9398951006209
 31
0.0
  0
LINE
  5
66C
330
1A
100
AcDbEntity
  8
1
100
AcDbLine
 10
512.6200177492207
 20
546.0785157353239
 30
0.0
 11
512.6200177492145
 21
462.0785157353248
 31
0.0
  0
LINE
  5
66D
330
1A
100
AcDbEntity
  8
1
100
AcDbLine
 10
727.6200177492508
 20
484.0785157353237
 30
0.0
 11
727.6200177492508
 21
560.0785157353239
 31
0.0
  0
LINE
  5
66E
330
1A
100
AcDbEntity
  8
1
100
AcDbLine
 10
718.3200177492506
 20
467.3868490686563
 30
0.0
 11
702.6200177492817
 21
464.3652515140693
 31
0.0
  0
SPLINE
  5
66F
330
1A
100
AcDbEntity
  8
1
100
AcDbSpline
210
0.0
220
0.0
230
1.0
 70
     8
 71
     3
 72
    18
 73
    14
 74
     0
 42
0.0000000001
 43
0.0000000001
 40
0.0
 40
0.0
 40
0.0
 40
0.0
 40
0.2617993877991494
 40
0.2617993877991494
 40
0.5235987755982988
 40
0.5235987755982988
 40
0.7853981633974483
 40
0.7853981633974483
 40
1.047197551196596
 40
1.047197551196596
 40
1.308996938995745
 40
1.308996938995745
 40
1.570796326794896
 40
1.570796326794896
 40
1.570796326794896
 40
1.570796326794896
 10
718.3200177492506
 20
467.3868490686563
 30
0.0
 10
719.1206639348472
 20
467.3868490686563
 30
0.0
 10
719.9602882026844
 20
467.5705677551595
 30
0.0
 10
721.5902809459764
 20
468.3460899449091
 30
0.0
 10
722.3799790147776
 20
468.9350354780358
 30
0.0
 10
723.8329116752309
 20
470.4750902746376
 30
0.0
 10
724.497161961074
 20
471.4266796380696
 30
0.0
 10
725.6487643851076
 20
473.6038557068004
 30
0.0
 10
726.1354630764051
 20
474.8286759978673
 30
0.0
 10
726.9015551938061
 20
477.4119606849416
 30
0.0
 10
727.1808187864878
 20
478.7686653295949
 30
0.0
 10
727.5397798847568
 20
481.4652917842677
 30
0.0
 10
727.6200177492508
 20
482.8041042670374
 30
0.0
 10
727.6200177492508
 20
484.0785157353237
 30
0.0
  0
ELLIPSE
  5
670
330
1A
100
AcDbEntity
  8
1
100
AcDbEllipse
 10
718.3200177492506
 20
484.0785157353237
 30
0.0
 11
-0.000000000000001
 21
-15.6916666666675
 31
0.0
210
0.0
220
0.0
230
1.0
 40
0.5289431757833074
 41
0.0
 42
1.570796326794896
  0
LINE
  5
671
330
1A
100
AcDbEntity
  8
1
100
AcDbLine
 10
702.6200177492836
 20
467.0785157353237
 30
0.0
 11
719.0503035867465
 21
468.4477062217809
 31
0.0
  0
LINE
  5
672
330
1A
100
AcDbEntity
  8
1
100
AcDbLine
 10
702.6200177492836
 20
462.0785157353243
 30
0.0
 11
731.8200177492906
 21
448.0785157353243
 31
0.0
  0
LINE
  5
673
330
1A
100
AcDbEntity
  8
1
100
AcDbLine
 10
693.5533804038112
 20
446.3018975868253
 30
0.0
 11
725.8200177492906
 21
442.0785157353237
 31
0.0
  0
LINE
  5
674
330
1A
100
AcDbEntity
  8
1
100
AcDbLine
 10
726.6200177492509
 20
560.0785157353233
 30
0.0
 11
726.6200177492508
 21
484.0785157353237
 31
0.0
  0
ARC
  5
675
330
1A
100
AcDbEntity
  8
1
100
AcDbCircle
 10
857.4682741949507
 20
205.1176018170076
 30
0.0
 40
5.0
100
AcDbArc
 50
321.7479429172976
 51
356.1859251657019
  0
ARC
  5
676
330
1A
100
AcDbEntity
  8
1
100
AcDbCircle
 10
875.5300523668813
 20
190.8777925040997
 30
0.0
 40
18.0
100
AcDbArc
 50
141.7479429172978
 51
180.0
  0
LINE
  5
677
330
1A
100
AcDbEntity
  8
1
100
AcDbLine
 10
715.5814991460863
 20
442.0785157353237
 30
0.0
 11
725.8200177492906
 21
442.0785157353237
 31
0.0
  0
LINE
  5
678
330
1A
100
AcDbEntity
  8
1
100
AcDbLine
 10
540.5814991460455
 20
442.0785157353238
 30
0.0
 11
689.6585363524552
 21
442.0785157353237
 31
0.0
  0
ARC
  5
679
330
1A
100
AcDbEntity
  8
1
100
AcDbCircle
 10
702.6200177492718
 20
339.6805317470743
 30
0.0
 40
103.2150528017004
100
AcDbArc
 50
84.44017172912543
 51
95.55982827087454
  0
ARC
  5
67A
330
1A
100
AcDbEntity
  8
1
100
AcDbCircle
 10
715.5814991460863
 20
437.0785157353237
 30
0.0
 40
5.0
100
AcDbArc
 50
90.0
 51
124.3011527567901
  0
ARC
  5
67B
330
1A
100
AcDbEntity
  8
1
100
AcDbCircle
 10
689.6585363524552
 20
437.0785157353237
 30
0.0
 40
5.0
100
AcDbArc
 50
55.69884724320981
 51
90.0
  0
ARC
  5
67C
330
1A
100
AcDbEntity
  8
1
100
AcDbCircle
 10
702.6200177492707
 20
456.0785157353239
 30
0.0
 40
18.0
100
AcDbArc
 50
235.6988472432084
 51
304.3011527567915
  0
ARC
  5
67D
330
1A
100
AcDbEntity
  8
1
100
AcDbCircle
 10
527.6200177492298
 20
456.0785157353239
 30
0.0
 40
18.0
100
AcDbArc
 50
235.6988472432084
 51
304.3011527567915
  0
ARC
  5
67E
330
1A
100
AcDbEntity
  8
1
100
AcDbCircle
 10
514.6585363524143
 20
437.0785157353238
 30
0.0
 40
5.0
100
AcDbArc
 50
55.69884724320981
 51
90.0
  0
ARC
  5
67F
330
1A
100
AcDbEntity
  8
1
100
AcDbCircle
 10
540.5814991460455
 20
437.0785157353237
 30
0.0
 40
5.0
100
AcDbArc
 50
90.0
 51
124.3011527567901
  0
ARC
  5
680
330
1A
100
AcDbEntity
  8
1
100
AcDbCircle
 10
527.6200177492309
 20
339.6805317470743
 30
0.0
 40
103.2150528017004
100
AcDbArc
 50
84.44017172912543
 51
95.55982827087454
  0
LINE
  5
681
330
1A
100
AcDbEntity
  8
1
100
AcDbLine
 10
715.5814991460863
 20
678.0785157353243
 30
0.0
 11
725.8200177492707
 21
678.0785157353237
 31
0.0
  0
ARC
  5
682
330
1A
100
AcDbEntity
  8
1
100
AcDbCircle
 10
702.6200177492707
 20
664.0785157353241
 30
0.0
 40
18.0
100
AcDbArc
 50
55.69884724320837
 51
124.3011527567914
  0
ARC
  5
683
330
1A
100
AcDbEntity
  8
1
100
AcDbCircle
 10
689.6585363524552
 20
683.0785157353239
 30
0.0
 40
5.0
100
AcDbArc
 50
270.0
 51
304.30115275679
  0
ARC
  5
684
330
1A
100
AcDbEntity
  8
1
100
AcDbCircle
 10
715.5814991460863
 20
683.0785157353239
 30
0.0
 40
5.0
100
AcDbArc
 50
235.6988472432098
 51
270.0
  0
ARC
  5
685
330
1A
100
AcDbEntity
  8
1
100
AcDbCircle
 10
702.6200177492718
 20
780.4764997235734
 30
0.0
 40
103.2150528017004
100
AcDbArc
 50
264.4401717291254
 51
275.5598282708745
  0
ARC
  5
686
330
1A
100
AcDbEntity
  8
1
100
AcDbCircle
 10
1101.591830538811
 20
205.1176018170075
 30
0.0
 40
5.0
100
AcDbArc
 50
183.8140748342979
 51
218.2520570827022
  0
ARC
  5
687
330
1A
100
AcDbEntity
  8
1
100
AcDbCircle
 10
527.6200177492309
 20
780.4764997235734
 30
0.0
 40
103.2150528017004
100
AcDbArc
 50
264.4401717291254
 51
275.5598282708745
  0
LINE
  5
688
330
1A
100
AcDbEntity
  8
1
100
AcDbLine
 10
540.5814991460455
 20
678.0785157353237
 30
0.0
 11
689.6585363524552
 21
678.0785157353243
 31
0.0
  0
ARC
  5
689
330
1A
100
AcDbEntity
  8
1
100
AcDbCircle
 10
540.5814991460456
 20
683.0785157353239
 30
0.0
 40
5.0
100
AcDbArc
 50
235.6988472432098
 51
270.0
  0
ARC
  5
68A
330
1A
100
AcDbEntity
  8
1
100
AcDbCircle
 10
514.6585363524143
 20
683.0785157353239
 30
0.0
 40
5.0
100
AcDbArc
 50
270.0
 51
304.30115275679
  0
ARC
  5
68F
330
1A
100
AcDbEntity
  8
1
100
AcDbCircle
 10
1083.53005236688
 20
190.8777925040997
 30
0.0
 40
18.0
100
AcDbArc
 50
0.0
 51
38.2520570827022
  0
ARC
  5
693
330
1A
100
AcDbEntity
  8
1
100
AcDbCircle
 10
527.6200177492298
 20
664.0785157353241
 30
0.0
 40
18.0
100
AcDbArc
 50
55.69884724320837
 51
124.3011527567914
  0
ARC
  5
694
330
1A
100
AcDbEntity
  8
1
100
AcDbCircle
 10
725.8200177492706
 20
672.078515735324
 30
0.0
 40
6.0
100
AcDbArc
 50
0.0000000000052758
 51
90.0
  0
ARC
  5
695
330
1A
100
AcDbEntity
  8
1
100
AcDbCircle
 10
725.8200177492906
 20
448.0785157353238
 30
0.0
 40
6.0
100
AcDbArc
 50
270.0
 51
0.0000000000055156
  0
ARC
  5
696
330
1A
100
AcDbEntity
  8
1
100
AcDbCircle
 10
505.6200177492127
 20
448.0785157353238
 30
0.0
 40
6.0
100
AcDbArc
 50
179.9999999999953
 51
270.0
  0
ARC
  5
697
330
1A
100
AcDbEntity
  8
1
100
AcDbCircle
 10
505.6200177492308
 20
672.078515735324
 30
0.0
 40
6.0
100
AcDbArc
 50
90.0
 51
179.9999999999952
  0
LINE
  5
698
330
1A
100
AcDbEntity
  8
1
100
AcDbLine
 10
505.6200177492307
 20
678.0785157353237
 30
0.0
 11
514.6585363524143
 21
678.0785157353237
 31
0.0
  0
LINE
  5
699
330
1A
100
AcDbEntity
  8
1
100
AcDbLine
 10
505.6200177492127
 20
442.0785157353238
 30
0.0
 11
514.6585363524143
 21
442.0785157353238
 31
0.0
  0
LINE
  5
69A
330
1A
100
AcDbEntity
  8
1
100
AcDbLine
 10
499.6200177492307
 20
672.0785157353243
 30
0.0
 11
499.6200177492125
 21
448.0785157353244
 31
0.0
  0
LINE
  5
69B
330
1A
100
AcDbEntity
  8
1
100
AcDbLine
 10
731.8200177492707
 20
672.0785157353243
 30
0.0
 11
731.8200177492906
 21
448.0785157353243
 31
0.0
  0
LINE
  5
69C
330
1A
100
AcDbEntity
  8
1
100
AcDbLine
 10
702.6200177492817
 20
464.3652515140693
 30
0.0
 11
702.6200177492836
 21
462.0785157353243
 31
0.0
  0
ARC
  5
6B5
330
1A
100
AcDbEntity
  8
1
100
AcDbCircle
 10
1086.916733815531
 20
259.8777925041006
 30
0.0
 40
6.0
100
AcDbArc
 50
3.8140748342903
 51
90.00000000000019
  0
ARC
  5
6B6
330
1A
100
AcDbEntity
  8
1
100
AcDbCircle
 10
872.1433709182299
 20
259.8777925040999
 30
0.0
 40
6.0
100
AcDbArc
 50
89.99999999999998
 51
176.1859251657096
  0
LINE
  5
6B7
330
1A
100
AcDbEntity
  8
1
100
AcDbLine
 10
1092.903444762671
 20
260.2769065672431
 30
0.0
 11
1097.53005236688
 21
190.8777925040997
 31
0.0
  0
LINE
  5
6B8
330
1A
100
AcDbEntity
  8
1
100
AcDbLine
 10
861.5300523668809
 20
190.8777925040998
 30
0.0
 11
866.1566599710898
 21
260.2769065672422
 31
0.0
  0
LINE
  5
6B9
330
1A
100
AcDbEntity
  8
1
100
AcDbLine
 10
861.5300523668809
 20
190.8777925040998
 30
0.0
 11
861.5300523668809
 21
181.8777925040999
 31
0.0
  0
LINE
  5
6BA
330
1A
100
AcDbEntity
  8
1
100
AcDbLine
 10
1097.53005236688
 20
190.8777925041043
 30
0.0
 11
1097.53005236688
 21
181.8777925040998
 31
0.0
  0
LINE
  5
6BB
330
1A
100
AcDbEntity
  8
1
100
AcDbLine
 10
861.5300523668809
 20
190.8777925040989
 30
0.0
 11
1097.53005236688
 21
190.8777925040997
 31
0.0
  0
LINE
  5
6BC
330
1A
100
AcDbEntity
  8
1
100
AcDbLine
 10
1101.53005236688
 20
190.8777925040997
 30
0.0
 11
1101.53005236688
 21
180.8777925040998
 31
0.0
  0
LINE
  5
6BD
330
1A
100
AcDbEntity
  8
1
100
AcDbLine
 10
857.5300523668815
 20
190.8777925040998
 30
0.0
 11
857.530052366881
 21
180.8777925040999
 31
0.0
  0
LINE
  5
6BE
330
1A
100
AcDbEntity
  8
1
100
AcDbLine
 10
872.1433709182301
 20
265.8777925041007
 30
0.0
 11
888.530052366881
 21
265.8777925040999
 31
0.0
  0
LINE
  5
6BF
330
1A
100
AcDbEntity
  8
1
100
AcDbLine
 10
857.530052366881
 20
180.8777925040999
 30
0.0
 11
1096.53005236688
 21
180.8777925040998
 31
0.0
  0
ARC
  5
6D7
330
1A
100
AcDbEntity
  8
1
100
AcDbCircle
 10
500.6200177492518
 20
181.8777925041012
 30
0.0
 40
1.0
100
AcDbArc
 50
180.0
 51
269.9999999999993
  0
ARC
  5
6D8
330
1A
100
AcDbEntity
  8
1
100
AcDbCircle
 10
354.6363155186619
 20
181.8777925041011
 30
0.0
 40
1.0
100
AcDbArc
 50
270.0000000000017
 51
0.0
  0
ARC
  5
6D9
330
1A
100
AcDbEntity
  8
1
100
AcDbCircle
 10
120.6363155186625
 20
181.8777925040941
 30
0.0
 40
1.0
100
AcDbArc
 50
180.0
 51
270.0000000000017
  0
ARC
  5
6DA
330
1A
100
AcDbEntity
  8
1
100
AcDbCircle
 10
862.5300523668808
 20
181.8777925040999
 30
0.0
 40
1.0
100
AcDbArc
 50
180.0
 51
270.0
  0
ARC
  5
6DB
330
1A
100
AcDbEntity
  8
1
100
AcDbCircle
 10
1096.53005236688
 20
181.8777925040998
 30
0.0
 40
1.0
100
AcDbArc
 50
270.0
 51
0.0
  0
DIMENSION
  5
6E8
330
1A
100
AcDbEntity
  8
MEASURE
100
AcDbDimension
  2
*D2
 10
472.373220321069
 20
682.0785157353237
 30
0.0
 11
466.3732203210689
 21
560.0785157353239
 31
0.0
 70
    32
 71
     5
 42
243.9999999999997
  3
AD-STANDARD
100
AcDbAlignedDimension
 13
527.6200177492298
 23
438.078515735324
 33
0.0
 14
527.6200177492298
 24
682.0785157353237
 34
0.0
 50
90.0
100
AcDbRotatedDimension
1001
ACAD
1000
DSTYLE
1002
{
1070
   140
1040
3.0
1070
    40
1040
3.0
1070
   177
1070
   256
1070
   176
1070
   256
1070
   141
1040
0.0
1002
}
  0
DIMENSION
  5
6F5
330
1A
100
AcDbEntity
  8
MEASURE
100
AcDbDimension
  2
*D3
 10
472.7588896027531
 20
313.8777925041012
 30
0.0
 11
466.758889602753
 21
245.3777925041008
 31
0.0
 70
    32
 71
     5
 42
137.0000000000008
  3
AD-STANDARD
100
AcDbAlignedDimension
 13
527.6200177492134
 23
176.8777925041003
 33
0.0
 14
519.2571451766379
 24
313.8777925041012
 34
0.0
 50
90.0
100
AcDbRotatedDimension
1001
ACAD
1000
DSTYLE
1002
{
1070
   140
1040
3.0
1070
    40
1040
3.0
1070
   177
1070
   256
1070
   176
1070
   256
1070
   141
1040
0.0
1002
}
  0
DIMENSION
  5
702
330
1A
100
AcDbEntity
  8
MEASURE
100
AcDbDimension
  2
*D4
 10
702.6200177492535
 20
338.4440666998284
 30
0.0
 11
607.6200177492526
 21
344.4440666998284
 31
0.0
 70
    32
 71
     5
 42
190.0000000000017
  3
AD-STANDARD
100
AcDbAlignedDimension
 13
512.6200177492518
 23
295.8777925041012
 33
0.0
 14
702.6200177492535
 24
295.8777925041011
 34
0.0
 50
180.0
100
AcDbRotatedDimension
1001
ACAD
1000
DSTYLE
1002
{
1070
   140
1040
3.0
1070
    40
1040
3.0
1070
   177
1070
   256
1070
   176
1070
   256
1070
   141
1040
0.0
1002
}
  0
DIMENSION
  5
70F
330
1A
100
AcDbEntity
  8
MEASURE
100
AcDbDimension
  2
*D5
 10
1094.530052366884
 20
330.4270058634326
 30
0.0
 11
979.5300523668842
 21
336.4270058634326
 31
0.0
 70
    32
 71
     5
 42
230.0000000000002
  3
AD-STANDARD
100
AcDbAlignedDimension
 13
864.530052366884
 23
295.8777925040972
 33
0.0
 14
1094.530052366884
 24
295.8777925041007
 34
0.0
100
AcDbRotatedDimension
1001
ACAD
1000
DSTYLE
1002
{
1070
   140
1040
3.0
1070
    40
1040
3.0
1070
   177
1070
   256
1070
   176
1070
   256
1070
   141
1040
0.0
1002
}
  0
DIMENSION
  5
71C
330
1A
100
AcDbEntity
  8
MEASURE
100
AcDbDimension
  2
*D6
 10
731.8200177492907
 20
708.0663542968185
 30
0.0
 11
615.7200177492516
 21
714.0663542968185
 31
0.0
 70
    32
  1
232
 71
     5
 42
232.2000000000781
  3
AD-STANDARD
100
AcDbAlignedDimension
 13
499.6200177492125
 23
672.0785157353233
 33
0.0
 14
731.8200177492907
 24
672.0785157353233
 34
0.0
 50
180.0
100
AcDbRotatedDimension
1001
ACAD
1000
DSTYLE
1002
{
1070
   140
1040
3.0
1070
    40
1040
3.0
1070
   177
1070
   256
1070
   176
1070
   256
1070
   141
1040
0.0
1002
}
  0
LWPOLYLINE
  5
7D4
330
1A
100
AcDbEntity
  8
DEFPOINTS
100
AcDbPolyline
 90
        4
 70
     1
 43
0.0
 10
0.0
 20
0.0
 10
1260.0
 20
0.0
 10
1260.0
 20
891.0
 10
0.0
 20
891.0
  0
TEXT
  5
930
330
1A
100
AcDbEntity
  8
NOTE
100
AcDbText
 10
1088.21497014589
 20
95.98516532426598
 30
0.0
 40
9.0
  1
   SLシリーズ
  7
AD-STANDARD
100
AcDbText
  0
TEXT
  5
931
330
1A
100
AcDbEntity
  8
NOTE
100
AcDbText
 10
1088.21497014589
 20
80.91166236938832
 30
0.0
 40
9.0
  1
   SKシリーズ
  7
AD-STANDARD
100
AcDbText
  0
VIEWPORT
  5
80B
330
804
100
AcDbEntity
 67
     1
  8
0
100
AcDbViewport
 10
256.9419921102824
 20
180.3347480270395
 30
0.0
 40
469.6475278192324
 41
385.4014764372258
 68
     1
 69
     1
 12
256.9419921102824
 22
180.3347480270395
 13
0.0
 23
0.0
 14
10.0
 24
10.0
 15
10.0
 25
10.0
 16
0.0
 26
0.0
 36
1.0
 17
0.0
 27
0.0
 37
0.0
 42
50.0
 43
0.0
 44
0.0
 45
385.4014764372258
 50
0.0
 51
0.0
 72
   100
 90
    32800
  1

281
     0
 71
     1
 74
     0
110
0.0
120
0.0
130
0.0
111
1.0
121
0.0
131
0.0
112
0.0
122
1.0
132
0.0
 79
     0
146
0.0
  0
VIEWPORT
  5
80D
330
804
100
AcDbEntity
 67
     1
  8
DEFPOINTS
100
AcDbViewport
 10
260.6346770337522
 20
186.1607755968894
 30
0.0
 40
410.4031964344202
 41
285.9397643053898
 68
     2
 69
     2
 12
630.6102779258176
 22
444.9567314451307
 13
0.0
 23
0.0
 14
168.0
 24
168.0
 15
0.0
 25
0.0
 16
0.0
 26
0.0
 36
1.0
 17
0.0
 27
0.0
 37
0.0
 42
50.0
 43
0.0
 44
0.0
 45
857.8192920513959
 50
0.0
 51
0.0
 72
   100
 90
    36864
  1

281
     0
 71
     1
 74
     0
110
0.0
120
0.0
130
0.0
111
1.0
121
0.0
131
0.0
112
0.0
122
1.0
132
0.0
 79
     0
146
0.0
  0
ENDSEC
  0
SECTION
  2
OBJECTS
  0
DICTIONARY
  5
C
330
0
100
AcDbDictionary
281
     1
  3
ACAD_GROUP
350
D
  3
ACAD_LAYOUT
350
75B
  3
ACAD_MLINESTYLE
350
E
  3
ACAD_PLOTSETTINGS
350
75C
  3
ACAD_PLOTSTYLENAME
350
759
  3
ACDBVARIABLEDICTIONARY
350
766
  3
CONTENTDICTIONARY
350
755
  0
DICTIONARY
  5
835
330
1A
100
AcDbDictionary
280
     1
281
     1
  3
ACAD_LAYOUTSELFREF
360
836
  0
DICTIONARY
  5
837
330
804
100
AcDbDictionary
280
     1
281
     1
  3
ACAD_LAYOUTSELFREF
360
838
  0
DICTIONARY
  5
D
102
{ACAD_REACTORS
330
C
102
}
330
C
100
AcDbDictionary
281
     1
  0
DICTIONARY
  5
75B
102
{ACAD_REACTORS
330
C
102
}
330
C
100
AcDbDictionary
281
     1
  3
Model
350
843
  3
ﾚｲｱｳﾄ1
350
844
  0
DICTIONARY
  5
E
102
{ACAD_REACTORS
330
C
102
}
330
C
100
AcDbDictionary
281
     1
  3
STANDARD
350
13
  0
DICTIONARY
  5
75C
102
{ACAD_REACTORS
330
C
102
}
330
C
100
AcDbDictionary
281
     1
  3
A3FORM102A
350
765
  0
ACDBDICTIONARYWDFLT
  5
759
102
{ACAD_REACTORS
330
C
102
}
330
C
100
AcDbDictionary
281
     1
  3
Normal
350
75A
100
AcDbDictionaryWithDefault
340
75A
  0
DICTIONARY
  5
766
102
{ACAD_REACTORS
330
C
102
}
330
C
100
AcDbDictionary
281
     1
  3
DIMASSOC
350
767
  0
DICTIONARY
  5
755
102
{ACAD_REACTORS
330
C
102
}
330
C
100
AcDbDictionary
281
     1
  0
XRECORD
  5
836
102
{ACAD_REACTORS
330
835
102
}
330
835
100
AcDbXrecord
280
     1
340
1A
  0
XRECORD
  5
838
102
{ACAD_REACTORS
330
837
102
}
330
837
100
AcDbXrecord
280
     1
340
804
  0
LAYOUT
  5
843
102
{ACAD_REACTORS
330
75B
102
}
330
75B
100
AcDbPlotSettings
  1

  2
RICOH IPSiO NX710
  4

  6

 40
0.0
 41
0.0
 42
0.0
 43
0.0
 44
0.0
 45
0.0
 46
0.0
 47
0.0
 48
0.0
 49
0.0
140
0.0
141
0.0
142
1.0
143
1.0
 70
  1712
 72
     0
 73
     0
 74
     0
  7
monochrome.ctb
 75
     0
147
1.0
148
0.0
149
0.0
100
AcDbLayout
  1
Model
 70
     1
 71
     0
 10
0.0
 20
0.0
 11
12.0
 21
9.0
 12
0.0
 22
0.0
 32
0.0
 14
0.0
 24
0.0
 34
0.0
 15
0.0
 25
0.0
 35
0.0
146
0.0
 13
0.0
 23
0.0
 33
0.0
 16
1.0
 26
0.0
 36
0.0
 17
0.0
 27
1.0
 37
0.0
 76
     0
330
1A
  0
LAYOUT
  5
844
102
{ACAD_REACTORS
330
75B
102
}
330
75B
100
AcDbPlotSettings
  1

  2
Acrobat Distiller
  4
A3
  6

 40
3.174999952316284
 41
3.174999952316284
 42
3.17498779296875
 43
3.17498779296875
 44
297.0318298339843
 45
420.1583251953125
 46
0.0
 47
0.0
 48
0.0
 49
0.0
140
0.0
141
0.0
142
1.0
143
1.0
 70
   688
 72
     1
 73
     1
 74
     5
  7
monochrome.ctb
 75
    16
147
1.0
148
-54.18861400689348
149
-42.304876315974
100
AcDbLayout
  1
ﾚｲｱｳﾄ1
 70
     1
 71
     1
 10
51.01362621392472
 20
39.12987636365771
 11
471.1719514092372
 21
336.1617061976421
 12
0.0
 22
0.0
 32
0.0
 14
55.43307881654212
 24
43.19089344419455
 34
0.0
 15
465.8362752509624
 25
329.1306577495843
 35
0.0
146
0.0
 13
0.0
 23
0.0
 33
0.0
 16
1.0
 26
0.0
 36
0.0
 17
0.0
 27
1.0
 37
0.0
 76
     0
330
804
331
80B
  0
MLINESTYLE
  5
13
102
{ACAD_REACTORS
330
E
102
}
330
E
100
AcDbMlineStyle
  2
STANDARD
 70
     0
  3

 62
     0
 51
90.0
 52
90.0
 71
     2
 49
0.5
 62
   256
  6
BYLAYER
 49
-0.5
 62
   256
  6
BYLAYER
  0
PLOTSETTINGS
  5
765
102
{ACAD_REACTORS
330
75C
102
}
330
75C
100
AcDbPlotSettings
  1
A3form102A
  2
RICOH IPSiO Color 4100
  4
A3
  6

 40
5.831416606903076
 41
4.265079975128172
 42
8.244415283203125
 43
5.8314208984375
 44
296.9683227539062
 45
419.9889831542968
 46
0.0
 47
0.0
 48
0.0
 49
0.0
140
0.0
141
0.0
142
1.0
143
1.0
 70
   688
 72
     1
 73
     1
 74
     5
  7
monochrome.ctb
 75
    16
147
1.0
148
0.0
149
0.0
  0
ACDBPLACEHOLDER
  5
75A
102
{ACAD_REACTORS
330
759
102
}
330
759
  0
DICTIONARYVAR
  5
767
102
{ACAD_REACTORS
330
766
102
}
330
766
100
DictionaryVariables
280
     0
  1
1
  0
ENDSEC
  0
EOF
