  0
SECTION
  2
HEADER
  9
$ACADVER
  1
AC1015
  9
$ACADMAINTVER
 70
    13
  9
$DWGCODEPAGE
  3
ANSI_932
  9
$INSBASE
 10
0.0
 20
0.0
 30
0.0
  9
$EXTMIN
 10
0.0
 20
0.0
 30
0.0
  9
$EXTMAX
 10
2100.0
 20
1485.0
 30
0.0
  9
$LIMMIN
 10
0.0
 20
0.0
  9
$LIMMAX
 10
420.0
 20
297.0
  9
$ORTHOMODE
 70
     1
  9
$REGENMODE
 70
     1
  9
$FILLMODE
 70
     1
  9
$QTEXTMODE
 70
     0
  9
$MIRRTEXT
 70
     1
  9
$LTSCALE
 40
25.4
  9
$ATTMODE
 70
     1
  9
$TEXTSIZE
 40
0.2
  9
$TRACEWID
 40
0.05
  9
$TEXTSTYLE
  7
STANDARD
  9
$CLAYER
  8
MEASURE
  9
$CELTYPE
  6
CONTINUOUS
  9
$CECOLOR
 62
   256
  9
$CELTSCALE
 40
1.0
  9
$DISPSILH
 70
     0
  9
$DIMSCALE
 40
5.0
  9
$DIMASZ
 40
2.5
  9
$DIMEXO
 40
1.0
  9
$DIMDLI
 40
0.38
  9
$DIMRND
 40
0.0
  9
$DIMDLE
 40
0.0
  9
$DIMEXE
 40
2.0
  9
$DIMTP
 40
0.0
  9
$DIMTM
 40
0.0
  9
$DIMTXT
 40
3.5
  9
$DIMCEN
 40
-2.0
  9
$DIMTSZ
 40
0.0
  9
$DIMTOL
 70
     0
  9
$DIMLIM
 70
     0
  9
$DIMTIH
 70
     0
  9
$DIMTOH
 70
     0
  9
$DIMSE1
 70
     0
  9
$DIMSE2
 70
     0
  9
$DIMTAD
 70
     1
  9
$DIMZIN
 70
     8
  9
$DIMBLK
  1

  9
$DIMASO
 70
     1
  9
$DIMSHO
 70
     1
  9
$DIMPOST
  1

  9
$DIMAPOST
  1

  9
$DIMALT
 70
     0
  9
$DIMALTD
 70
     2
  9
$DIMALTF
 40
25.4
  9
$DIMLFAC
 40
1.0
  9
$DIMTOFL
 70
     1
  9
$DIMTVP
 40
0.0
  9
$DIMTIX
 70
     0
  9
$DIMSOXD
 70
     0
  9
$DIMSAH
 70
     0
  9
$DIMBLK1
  1

  9
$DIMBLK2
  1

  9
$DIMSTYLE
  2
AD-STANDARD
  9
$DIMCLRD
 70
     9
  9
$DIMCLRE
 70
     9
  9
$DIMCLRT
 70
     2
  9
$DIMTFAC
 40
1.0
  9
$DIMGAP
 40
0.5
  9
$DIMJUST
 70
     0
  9
$DIMSD1
 70
     0
  9
$DIMSD2
 70
     0
  9
$DIMTOLJ
 70
     1
  9
$DIMTZIN
 70
     8
  9
$DIMALTZ
 70
     0
  9
$DIMALTTZ
 70
     0
  9
$DIMUPT
 70
     0
  9
$DIMDEC
 70
     4
  9
$DIMTDEC
 70
     4
  9
$DIMALTU
 70
     2
  9
$DIMALTTD
 70
     2
  9
$DIMTXSTY
  7
AD-STANDARD
  9
$DIMAUNIT
 70
     0
  9
$DIMADEC
 70
     0
  9
$DIMALTRND
 40
0.0
  9
$DIMAZIN
 70
     0
  9
$DIMDSEP
 70
    46
  9
$DIMATFIT
 70
     3
  9
$DIMFRAC
 70
     0
  9
$DIMLDRBLK
  1

  9
$DIMLUNIT
 70
     2
  9
$DIMLWD
 70
    -2
  9
$DIMLWE
 70
    -2
  9
$DIMTMOVE
 70
     0
  9
$LUNITS
 70
     2
  9
$LUPREC
 70
     4
  9
$SKETCHINC
 40
0.1
  9
$FILLETRAD
 40
0.0
  9
$AUNITS
 70
     0
  9
$AUPREC
 70
     0
  9
$MENU
  1
acad
  9
$ELEVATION
 40
0.0
  9
$PELEVATION
 40
0.0
  9
$THICKNESS
 40
0.0
  9
$LIMCHECK
 70
     0
  9
$CHAMFERA
 40
0.0
  9
$CHAMFERB
 40
0.0
  9
$CHAMFERC
 40
0.0
  9
$CHAMFERD
 40
0.0
  9
$SKPOLY
 70
     0
  9
$TDCREATE
 40
2683705.106017882
  9
$TDUCREATE
 40
2683704.731017882
  9
$TDUPDATE
 40
2454280.504533877
  9
$TDUUPDATE
 40
2454280.129533877
  9
$TDINDWG
 40
0.0308392824
  9
$TDUSRTIMER
 40
0.0308391088
  9
$USRTIMER
 70
     1
  9
$ANGBASE
 50
0.0
  9
$ANGDIR
 70
     0
  9
$PDMODE
 70
     0
  9
$PDSIZE
 40
0.0
  9
$PLINEWID
 40
0.0
  9
$SPLFRAME
 70
     0
  9
$SPLINETYPE
 70
     6
  9
$SPLINESEGS
 70
     8
  9
$HANDSEED
  5
EBD
  9
$SURFTAB1
 70
     6
  9
$SURFTAB2
 70
     6
  9
$SURFTYPE
 70
     6
  9
$SURFU
 70
     6
  9
$SURFV
 70
     6
  9
$UCSBASE
  2

  9
$UCSNAME
  2

  9
$UCSORG
 10
0.0
 20
0.0
 30
0.0
  9
$UCSXDIR
 10
1.0
 20
0.0
 30
0.0
  9
$UCSYDIR
 10
0.0
 20
1.0
 30
0.0
  9
$UCSORTHOREF
  2

  9
$UCSORTHOVIEW
 70
     0
  9
$UCSORGTOP
 10
0.0
 20
0.0
 30
0.0
  9
$UCSORGBOTTOM
 10
0.0
 20
0.0
 30
0.0
  9
$UCSORGLEFT
 10
0.0
 20
0.0
 30
0.0
  9
$UCSORGRIGHT
 10
0.0
 20
0.0
 30
0.0
  9
$UCSORGFRONT
 10
0.0
 20
0.0
 30
0.0
  9
$UCSORGBACK
 10
0.0
 20
0.0
 30
0.0
  9
$PUCSBASE
  2

  9
$PUCSNAME
  2

  9
$PUCSORG
 10
0.0
 20
0.0
 30
0.0
  9
$PUCSXDIR
 10
1.0
 20
0.0
 30
0.0
  9
$PUCSYDIR
 10
0.0
 20
1.0
 30
0.0
  9
$PUCSORTHOREF
  2

  9
$PUCSORTHOVIEW
 70
     0
  9
$PUCSORGTOP
 10
0.0
 20
0.0
 30
0.0
  9
$PUCSORGBOTTOM
 10
0.0
 20
0.0
 30
0.0
  9
$PUCSORGLEFT
 10
0.0
 20
0.0
 30
0.0
  9
$PUCSORGRIGHT
 10
0.0
 20
0.0
 30
0.0
  9
$PUCSORGFRONT
 10
0.0
 20
0.0
 30
0.0
  9
$PUCSORGBACK
 10
0.0
 20
0.0
 30
0.0
  9
$USERI1
 70
     0
  9
$USERI2
 70
     0
  9
$USERI3
 70
     0
  9
$USERI4
 70
     0
  9
$USERI5
 70
     0
  9
$USERR1
 40
0.0
  9
$USERR2
 40
0.0
  9
$USERR3
 40
0.0
  9
$USERR4
 40
0.0
  9
$USERR5
 40
0.0
  9
$WORLDVIEW
 70
     1
  9
$SHADEDGE
 70
     3
  9
$SHADEDIF
 70
    70
  9
$TILEMODE
 70
     0
  9
$MAXACTVP
 70
    16
  9
$PINSBASE
 10
0.0
 20
0.0
 30
0.0
  9
$PLIMCHECK
 70
     0
  9
$PEXTMIN
 10
6.444691369778638
 20
3.68587362179042
 30
0.0
  9
$PEXTMAX
 10
412.7347162342592
 20
290.0824107404497
 30
0.0
  9
$PLIMMIN
 10
1.2664208225126
 20
-1.509453640663764
  9
$PLIMMAX
 10
421.4247460178251
 20
295.5223761933206
  9
$UNITMODE
 70
     0
  9
$VISRETAIN
 70
     0
  9
$PLINEGEN
 70
     1
  9
$PSLTSCALE
 70
     1
  9
$TREEDEPTH
 70
  3020
  9
$CMLSTYLE
  2
STANDARD
  9
$CMLJUST
 70
     0
  9
$CMLSCALE
 40
1.0
  9
$PROXYGRAPHICS
 70
     0
  9
$MEASUREMENT
 70
     0
  9
$CELWEIGHT
370
    -1
  9
$ENDCAPS
280
     0
  9
$JOINSTYLE
280
     0
  9
$LWDISPLAY
290
     0
  9
$INSUNITS
 70
     0
  9
$HYPERLINKBASE
  1

  9
$STYLESHEET
  1

  9
$XEDIT
290
     1
  9
$CEPSNTYPE
380
     0
  9
$PSTYLEMODE
290
     1
  9
$FINGERPRINTGUID
  2
{633A5D75-A44A-4E34-AA1F-7907AE9740CF}
  9
$VERSIONGUID
  2
{8AFE1454-33C5-498C-AEF5-D172117E01AA}
  9
$EXTNAMES
290
     1
  9
$PSVPSCALE
 40
0.0
  9
$OLESTARTUP
290
     0
  0
ENDSEC
  0
SECTION
  2
CLASSES
  0
CLASS
  1
LWPOLYLINE
  2
AcDbPolyline
  3
AutoCAD 2000
 90
    32768
280
     0
281
     1
  0
CLASS
  1
IMAGE
  2
AcDbRasterImage
  3
ISM
 90
    32895
280
     0
281
     1
  0
CLASS
  1
OLE2FRAME
  2
AcDbOle2Frame
  3
AutoCAD 2000
 90
    32768
280
     0
281
     1
  0
CLASS
  1
HATCH
  2
AcDbHatch
  3
AutoCAD 2000
 90
    32768
280
     0
281
     1
  0
CLASS
  1
DICTIONARYVAR
  2
AcDbDictionaryVar
  3
AutoCAD 2000
 90
        0
280
     0
281
     0
  0
CLASS
  1
RASTERVARIABLES
  2
AcDbRasterVariables
  3
ISM
 90
    32768
280
     0
281
     0
  0
CLASS
  1
IMAGEDEF
  2
AcDbRasterImageDef
  3
ISM
 90
    32768
280
     0
281
     0
  0
CLASS
  1
IMAGEDEF_REACTOR
  2
AcDbRasterImageDefReactor
  3
ISM
 90
    32769
280
     0
281
     0
  0
CLASS
  1
IDBUFFER
  2
AcDbIdBuffer
  3
AutoCAD 2000
 90
    32768
280
     0
281
     0
  0
CLASS
  1
SPATIAL_FILTER
  2
AcDbSpatialFilter
  3
AutoCAD 2000
 90
        0
280
     0
281
     0
  0
CLASS
  1
XRECORD
  2
AcDbXrecord
  3
AutoCAD 2000
 90
    32768
280
     0
281
     0
  0
CLASS
  1
SORTENTSTABLE
  2
AcDbSortentsTable
  3
AutoCAD 2000
 90
    32768
280
     0
281
     0
  0
CLASS
  1
LAYER_INDEX
  2
AcDbLayerIndex
  3
AutoCAD 2000
 90
    32768
280
     0
281
     0
  0
CLASS
  1
SPATIAL_INDEX
  2
AcDbSpatialIndex
  3
AutoCAD 2000
 90
    32768
280
     0
281
     0
  0
CLASS
  1
OBJECT_PTR
  2
CAseDLPNTableRecord
  3
"ASE-LPNTableRecord"
 90
    32769
280
     0
281
     0
  0
CLASS
  1
LAYOUT
  2
AcDbLayout
  3
AutoCAD 2000
 90
        0
280
     0
281
     0
  0
CLASS
  1
PLOTSETTINGS
  2
AcDbPlotSettings
  3
AutoCAD 2000
 90
    32768
280
     0
281
     0
  0
CLASS
  1
ACDBDICTIONARYWDFLT
  2
AcDbDictionaryWithDefault
  3
AutoCAD 2000
 90
        0
280
     0
281
     0
  0
CLASS
  1
ACDBPLACEHOLDER
  2
AcDbPlaceHolder
  3
AutoCAD 2000
 90
        0
280
     0
281
     0
  0
CLASS
  1
VBA_PROJECT
  2
AcDbVbaProject
  3
acad
 90
    32768
280
     0
281
     0
  0
CLASS
  1
WIPEOUT
  2
AcDbWipeout
  3
"WipeOut|Product Desc: Object Enabler for WipeOut entity^I^I^I^I^I^I|Company: Autodesk, Inc.^I^I^I^I^I^I|WEB Address: www.autodesk.com"
 90
    32895
280
     0
281
     1
  0
CLASS
  1
WIPEOUTVARIABLES
  2
AcDbWipeoutVariables
  3
"WipeOut|Product Desc:     WipeOut Dbx Application|Company:          Autodesk, Inc.|WEB Address:      www.autodesk.com"
 90
    32768
280
     0
281
     0
  0
CLASS
  1
RTEXT
  2
RText
  3
RText|AutoCAD Express Tool|expresstools@autodesk.com
 90
    32768
280
     0
281
     1
  0
CLASS
  1
ARCALIGNEDTEXT
  2
AcDbArcAlignedText
  3
ATEXT|AutoCAD Express Tool|expresstools@autodesk.com
 90
    32768
280
     0
281
     1
  0
CLASS
  1
LONG_TRANSACTION
  2
AcDbLongTransaction
  3
AutoCAD 2000
 90
    32768
280
     0
281
     0
  0
CLASS
  1
LWPOLYLINE
  2
AcDbPolyline
  3
AutoCAD 2000
 90
    32768
280
     0
281
     1
  0
CLASS
  1
HATCH
  2
AcDbHatch
  3
AutoCAD 2000
 90
    32768
280
     0
281
     1
  0
CLASS
  1
XRECORD
  2
AcDbXrecord
  3
AutoCAD 2000
 90
    32768
280
     0
281
     0
  0
CLASS
  1
DIMASSOC
  2
AcDbDimAssoc
  3
"AcDbDimAssoc|Product Desc:     AcDim ARX App For Dimension|Company:          Autodesk, Inc.|WEB Address:      www.autodesk.com"
 90
        0
280
     0
281
     0
  0
ENDSEC
  0
SECTION
  2
TABLES
  0
TABLE
  2
VPORT
  5
7
330
0
100
AcDbSymbolTable
 70
     3
  0
VPORT
  5
EBC
330
7
100
AcDbSymbolTableRecord
100
AcDbViewportTableRecord
  2
*Active
 70
     0
 10
0.0
 20
0.0
 11
1.0
 21
1.0
 12
1116.477933585147
 22
849.4306505026131
 13
0.0
 23
0.0
 14
1.0
 24
1.0
 15
0.0
 25
0.0
 16
0.0
 26
0.0
 36
1.0
 17
0.0
 27
0.0
 37
0.0
 40
2103.628248987492
 41
1.21859296482412
 42
50.0
 43
0.0
 44
0.0
 50
0.0
 51
0.0
 71
     0
 72
   100
 73
     1
 74
     1
 75
     0
 76
     0
 77
     0
 78
     0
281
     0
 65
     1
110
0.0
120
0.0
130
0.0
111
1.0
121
0.0
131
0.0
112
0.0
122
1.0
132
0.0
 79
     0
146
0.0
  0
ENDTAB
  0
TABLE
  2
LTYPE
  5
4
330
0
100
AcDbSymbolTable
 70
     5
  0
LTYPE
  5
11
330
4
100
AcDbSymbolTableRecord
100
AcDbLinetypeTableRecord
  2
BYBLOCK
 70
     0
  3

 72
    65
 73
     0
 40
0.0
  0
LTYPE
  5
12
330
4
100
AcDbSymbolTableRecord
100
AcDbLinetypeTableRecord
  2
BYLAYER
 70
     0
  3

 72
    65
 73
     0
 40
0.0
  0
LTYPE
  5
13
330
4
100
AcDbSymbolTableRecord
100
AcDbLinetypeTableRecord
  2
CONTINUOUS
 70
     0
  3
Solid line
 72
    65
 73
     0
 40
0.0
  0
LTYPE
  5
28
330
4
100
AcDbSymbolTableRecord
100
AcDbLinetypeTableRecord
  2
HIDDEN2
 70
     0
  3
_ _ _ _ _ _ _ _ _ _ _ _ _ _ _ _ _ _ _ _ _ _ _ _
 72
    65
 73
     2
 40
0.1875
 49
0.125
 74
     0
 49
-0.0625
 74
     0
  0
ENDTAB
  0
TABLE
  2
LAYER
  5
2
102
{ACAD_XDICTIONARY
360
8D7
102
}
330
0
100
AcDbSymbolTable
 70
    88
  0
LAYER
  5
14
330
2
100
AcDbSymbolTableRecord
100
AcDbLayerTableRecord
  2
0
 70
     0
 62
     7
  6
CONTINUOUS
370
    -3
390
5BC
  0
LAYER
  5
7E
330
2
100
AcDbSymbolTableRecord
100
AcDbLayerTableRecord
  2
MP4015660_CABLE_
 70
     0
 62
     7
  6
CONTINUOUS
370
    -3
390
5BC
  0
LAYER
  5
5C5
330
2
100
AcDbSymbolTableRecord
100
AcDbLayerTableRecord
  2
DEFPOINTS
 70
     0
 62
     7
  6
CONTINUOUS
290
     0
370
    -3
390
5BC
  0
LAYER
  5
8D2
330
2
100
AcDbSymbolTableRecord
100
AcDbLayerTableRecord
  2
MEASURE
 70
     0
 62
     9
  6
CONTINUOUS
370
    -3
390
5BC
  0
LAYER
  5
8D3
330
2
100
AcDbSymbolTableRecord
100
AcDbLayerTableRecord
  2
NOTE
 70
     0
 62
     2
  6
CONTINUOUS
370
    -3
390
5BC
  0
LAYER
  5
CB1
330
2
100
AcDbSymbolTableRecord
100
AcDbLayerTableRecord
  2
1
 70
     0
 62
     7
  6
CONTINUOUS
370
    -3
390
5BC
  0
ENDTAB
  0
TABLE
  2
STYLE
  5
3
330
0
100
AcDbSymbolTable
 70
     3
  0
STYLE
  5
17
330
3
100
AcDbSymbolTableRecord
100
AcDbTextStyleTableRecord
  2
STANDARD
 70
     0
 40
0.0
 41
1.0
 50
0.0
 71
     0
 42
0.2
  3
txt
  4

  0
STYLE
  5
8D4
330
3
100
AcDbSymbolTableRecord
100
AcDbTextStyleTableRecord
  2
AD-STANDARD
 70
     0
 40
0.0
 41
0.8
 50
0.0
 71
     0
 42
2.5
  3
C:\Program Files\AutoCAD LT\romans.shx
  4
bigfont.shx
  0
ENDTAB
  0
TABLE
  2
VIEW
  5
5
330
0
100
AcDbSymbolTable
 70
     0
  0
ENDTAB
  0
TABLE
  2
UCS
  5
6
330
0
100
AcDbSymbolTable
 70
     0
  0
ENDTAB
  0
TABLE
  2
APPID
  5
8
330
0
100
AcDbSymbolTable
 70
     2
  0
APPID
  5
16
330
8
100
AcDbSymbolTableRecord
100
AcDbRegAppTableRecord
  2
ACAD
 70
     0
  0
APPID
  5
8D6
330
8
100
AcDbSymbolTableRecord
100
AcDbRegAppTableRecord
  2
ACAD_PSEXT
 70
     0
  0
ENDTAB
  0
TABLE
  2
DIMSTYLE
  5
9
330
0
100
AcDbSymbolTable
 70
     3
100
AcDbDimStyleTable
 71
     2
340
8D5
340
18
  0
DIMSTYLE
105
18
330
9
100
AcDbSymbolTableRecord
100
AcDbDimStyleTableRecord
  2
STANDARD
 70
     0
340
17
  0
DIMSTYLE
105
8D5
102
{ACAD_REACTORS
330
8DA
330
CB2
330
CD3
330
CEB
330
D03
330
D24
330
D4B
330
D63
330
D7F
330
E63
330
E7B
330
E93
102
}
330
9
100
AcDbSymbolTableRecord
100
AcDbDimStyleTableRecord
  2
AD-STANDARD
 70
     0
 41
2.5
 42
1.0
 44
2.0
 73
     0
 74
     0
 77
     1
 78
     8
140
3.5
141
-2.0
147
0.5
172
     1
176
     9
177
     9
178
     2
284
     8
340
8D4
  0
ENDTAB
  0
TABLE
  2
BLOCK_RECORD
  5
1
330
0
100
AcDbSymbolTable
 70
    34
  0
BLOCK_RECORD
  5
A
102
{ACAD_XDICTIONARY
360
7F0
102
}
330
1
100
AcDbSymbolTableRecord
100
AcDbBlockTableRecord
  2
*MODEL_SPACE
340
7FC
  0
BLOCK_RECORD
  5
6F0
102
{ACAD_XDICTIONARY
360
7F4
102
}
330
1
100
AcDbSymbolTableRecord
100
AcDbBlockTableRecord
  2
*PAPER_SPACE
340
7FD
  0
BLOCK_RECORD
  5
EA
330
1
100
AcDbSymbolTableRecord
100
AcDbBlockTableRecord
  2
SE0
340
0
102
{BLKREFS
331
F1
102
}
  0
BLOCK_RECORD
  5
F2
330
1
100
AcDbSymbolTableRecord
100
AcDbBlockTableRecord
  2
SE2
340
0
102
{BLKREFS
331
F8
102
}
  0
BLOCK_RECORD
  5
106
330
1
100
AcDbSymbolTableRecord
100
AcDbBlockTableRecord
  2
SE4
340
0
102
{BLKREFS
331
10C
102
}
  0
BLOCK_RECORD
  5
CB3
330
1
100
AcDbSymbolTableRecord
100
AcDbBlockTableRecord
  2
*D23
340
0
  0
BLOCK_RECORD
  5
CD4
330
1
100
AcDbSymbolTableRecord
100
AcDbBlockTableRecord
  2
*D24
340
0
  0
BLOCK_RECORD
  5
CEC
330
1
100
AcDbSymbolTableRecord
100
AcDbBlockTableRecord
  2
*D25
340
0
  0
BLOCK_RECORD
  5
D04
330
1
100
AcDbSymbolTableRecord
100
AcDbBlockTableRecord
  2
*D26
340
0
  0
BLOCK_RECORD
  5
D25
330
1
100
AcDbSymbolTableRecord
100
AcDbBlockTableRecord
  2
*D27
340
0
  0
BLOCK_RECORD
  5
D4C
330
1
100
AcDbSymbolTableRecord
100
AcDbBlockTableRecord
  2
*D28
340
0
  0
BLOCK_RECORD
  5
D64
330
1
100
AcDbSymbolTableRecord
100
AcDbBlockTableRecord
  2
*D29
340
0
  0
BLOCK_RECORD
  5
D80
330
1
100
AcDbSymbolTableRecord
100
AcDbBlockTableRecord
  2
*D30
340
0
  0
BLOCK_RECORD
  5
E64
330
1
100
AcDbSymbolTableRecord
100
AcDbBlockTableRecord
  2
*D31
340
0
  0
BLOCK_RECORD
  5
E7C
330
1
100
AcDbSymbolTableRecord
100
AcDbBlockTableRecord
  2
*D32
340
0
  0
BLOCK_RECORD
  5
E94
330
1
100
AcDbSymbolTableRecord
100
AcDbBlockTableRecord
  2
*D33
340
0
  0
ENDTAB
  0
ENDSEC
  0
SECTION
  2
BLOCKS
  0
BLOCK
  5
D
330
A
100
AcDbEntity
  8
0
100
AcDbBlockBegin
  2
*MODEL_SPACE
 70
     0
 10
0.0
 20
0.0
 30
0.0
  3
*MODEL_SPACE
  1

  0
ENDBLK
  5
E
330
A
100
AcDbEntity
  8
0
100
AcDbBlockEnd
  0
BLOCK
  5
6F2
330
6F0
100
AcDbEntity
 67
     1
  8
0
100
AcDbBlockBegin
  2
*PAPER_SPACE
 70
     0
 10
0.0
 20
0.0
 30
0.0
  3
*PAPER_SPACE
  1

  0
ENDBLK
  5
6F3
330
6F0
100
AcDbEntity
 67
     1
  8
0
100
AcDbBlockEnd
  0
BLOCK
  5
335
330
EA
100
AcDbEntity
  8
0
 62
     1
100
AcDbBlockBegin
  2
SE0
 70
     0
 10
0.0
 20
0.0
 30
0.0
  3
SE0
  1

  0
ENDBLK
  5
336
330
EA
100
AcDbEntity
  8
0
 62
     1
100
AcDbBlockEnd
  0
BLOCK
  5
4F5
330
F2
100
AcDbEntity
  8
0
 62
     1
100
AcDbBlockBegin
  2
SE2
 70
     0
 10
0.0
 20
0.0
 30
0.0
  3
SE2
  1

  0
ENDBLK
  5
4F6
330
F2
100
AcDbEntity
  8
0
 62
     1
100
AcDbBlockEnd
  0
BLOCK
  5
5B4
330
106
100
AcDbEntity
  8
0
 62
     1
100
AcDbBlockBegin
  2
SE4
 70
     0
 10
0.0
 20
0.0
 30
0.0
  3
SE4
  1

  0
ENDBLK
  5
5B5
330
106
100
AcDbEntity
  8
0
 62
     1
100
AcDbBlockEnd
  0
BLOCK
  5
CBD
330
CB3
100
AcDbEntity
  8
0
100
AcDbBlockBegin
  2
*D23
 70
     1
 10
0.0
 20
0.0
 30
0.0
  3
*D23
  1

  0
LINE
  5
CCA
330
CB3
100
AcDbEntity
  8
MEASURE
  6
Continuous
 62
     9
370
    -2
100
AcDbLine
 10
574.0731269707053
 20
385.8667035949106
 30
0.0
 11
210.5229960386595
 21
385.8667035949106
 31
0.0
  0
LINE
  5
CCB
330
CB3
100
AcDbEntity
  8
MEASURE
  6
Continuous
 62
     9
370
    -2
100
AcDbLine
 10
320.6132428507056
 20
1166.91017621691
 30
0.0
 11
210.5229960386597
 21
1166.91017621691
 31
0.0
  0
LINE
  5
CCC
330
CB3
100
AcDbEntity
  8
MEASURE
  6
Continuous
 62
     9
370
    -2
100
AcDbLine
 10
220.5229960386595
 20
398.3667035949106
 30
0.0
 11
220.5229960386597
 21
1154.41017621691
 31
0.0
  0
SOLID
  5
CCD
330
CB3
100
AcDbEntity
  8
MEASURE
  6
Continuous
 62
     9
100
AcDbTrace
 10
218.4396627053262
 20
398.3667035949106
 30
0.0
 11
222.6063293719929
 21
398.3667035949106
 31
0.0
 12
220.5229960386595
 22
385.8667035949106
 32
0.0
 13
220.5229960386595
 23
385.8667035949106
 33
0.0
  0
SOLID
  5
CCE
330
CB3
100
AcDbEntity
  8
MEASURE
  6
Continuous
 62
     9
100
AcDbTrace
 10
218.4396627053263
 20
1154.41017621691
 30
0.0
 11
222.606329371993
 21
1154.41017621691
 31
0.0
 12
220.5229960386597
 22
1166.91017621691
 32
0.0
 13
220.5229960386597
 23
1166.91017621691
 33
0.0
  0
MTEXT
  5
CCF
330
CB3
100
AcDbEntity
  8
MEASURE
  6
Continuous
 62
     2
100
AcDbMText
 10
209.2729960386595
 20
776.3884399059104
 30
0.0
 40
17.5
 41
0.0
 71
     5
 72
     1
  1
\A1;781
  7
AD-STANDARD
 11
0.0000000000000001
 21
1.0
 31
0.0
 73
     1
 44
1.0
  0
POINT
  5
CD0
330
CB3
100
AcDbEntity
  8
DEFPOINTS
  6
Continuous
 62
     0
100
AcDbPoint
 10
579.0731269707053
 20
385.8667035949106
 30
0.0
  0
POINT
  5
CD1
330
CB3
100
AcDbEntity
  8
DEFPOINTS
  6
Continuous
 62
     0
100
AcDbPoint
 10
325.6132428507056
 20
1166.91017621691
 30
0.0
  0
POINT
  5
CD2
330
CB3
100
AcDbEntity
  8
DEFPOINTS
  6
Continuous
 62
     0
100
AcDbPoint
 10
220.5229960386597
 20
1166.91017621691
 30
0.0
  0
ENDBLK
  5
CBE
330
CB3
100
AcDbEntity
  8
0
100
AcDbBlockEnd
  0
BLOCK
  5
CDE
330
CD4
100
AcDbEntity
  8
0
100
AcDbBlockBegin
  2
*D24
 70
     1
 10
0.0
 20
0.0
 30
0.0
  3
*D24
  1

  0
LINE
  5
CE1
330
CD4
100
AcDbEntity
  8
MEASURE
  6
Continuous
 62
     9
370
    -2
100
AcDbLine
 10
546.0731269707057
 20
507.2667035949106
 30
0.0
 11
546.0731269707057
 21
657.025330691823
 31
0.0
  0
LINE
  5
CE2
330
CD4
100
AcDbEntity
  8
MEASURE
  6
Continuous
 62
     9
370
    -2
100
AcDbLine
 10
1076.073126970705
 20
507.2667035949106
 30
0.0
 11
1076.073126970705
 21
657.025330691823
 31
0.0
  0
LINE
  5
CE3
330
CD4
100
AcDbEntity
  8
MEASURE
  6
Continuous
 62
     9
370
    -2
100
AcDbLine
 10
558.5731269707057
 20
647.0253306918229
 30
0.0
 11
1063.573126970705
 21
647.0253306918229
 31
0.0
  0
SOLID
  5
CE4
330
CD4
100
AcDbEntity
  8
MEASURE
  6
Continuous
 62
     9
100
AcDbTrace
 10
558.5731269707057
 20
649.1086640251563
 30
0.0
 11
558.5731269707057
 21
644.9419973584896
 31
0.0
 12
546.0731269707057
 22
647.0253306918229
 32
0.0
 13
546.0731269707057
 23
647.0253306918229
 33
0.0
  0
SOLID
  5
CE5
330
CD4
100
AcDbEntity
  8
MEASURE
  6
Continuous
 62
     9
100
AcDbTrace
 10
1063.573126970705
 20
649.1086640251563
 30
0.0
 11
1063.573126970705
 21
644.9419973584896
 31
0.0
 12
1076.073126970705
 22
647.0253306918229
 32
0.0
 13
1076.073126970705
 23
647.0253306918229
 33
0.0
  0
MTEXT
  5
CE6
330
CD4
100
AcDbEntity
  8
MEASURE
  6
Continuous
 62
     2
100
AcDbMText
 10
811.0731269707057
 20
658.2753306918229
 30
0.0
 40
17.5
 41
0.0
 71
     5
 72
     1
  1
\A1;530
  7
AD-STANDARD
 73
     1
 44
1.0
  0
POINT
  5
CE7
330
CD4
100
AcDbEntity
  8
DEFPOINTS
  6
Continuous
 62
     0
100
AcDbPoint
 10
546.0731269707057
 20
502.2667035949107
 30
0.0
  0
POINT
  5
CE8
330
CD4
100
AcDbEntity
  8
DEFPOINTS
  6
Continuous
 62
     0
100
AcDbPoint
 10
1076.073126970705
 20
502.2667035949107
 30
0.0
  0
POINT
  5
CE9
330
CD4
100
AcDbEntity
  8
DEFPOINTS
  6
Continuous
 62
     0
100
AcDbPoint
 10
1076.073126970705
 20
647.0253306918229
 30
0.0
  0
ENDBLK
  5
CDF
330
CD4
100
AcDbEntity
  8
0
100
AcDbBlockEnd
  0
BLOCK
  5
CF6
330
CEC
100
AcDbEntity
  8
0
100
AcDbBlockBegin
  2
*D25
 70
     1
 10
0.0
 20
0.0
 30
0.0
  3
*D25
  1

  0
LINE
  5
D1B
330
CEC
100
AcDbEntity
  8
MEASURE
  6
Continuous
 62
     9
370
    -2
100
AcDbLine
 10
302.0227113497057
 20
1109.76971898141
 30
0.0
 11
302.0227113497056
 21
274.3537367499784
 31
0.0
  0
LINE
  5
D1C
330
CEC
100
AcDbEntity
  8
MEASURE
  6
Continuous
 62
     9
370
    -2
100
AcDbLine
 10
591.0731269707055
 20
385.8667035949106
 30
0.0
 11
591.0731269707055
 21
274.3537367499784
 31
0.0
  0
LINE
  5
D1D
330
CEC
100
AcDbEntity
  8
MEASURE
  6
Continuous
 62
     9
370
    -2
100
AcDbLine
 10
314.5227113497056
 20
284.3537367499784
 30
0.0
 11
578.5731269707055
 21
284.3537367499784
 31
0.0
  0
SOLID
  5
D1E
330
CEC
100
AcDbEntity
  8
MEASURE
  6
Continuous
 62
     9
100
AcDbTrace
 10
314.5227113497056
 20
286.4370700833117
 30
0.0
 11
314.5227113497056
 21
282.2704034166451
 31
0.0
 12
302.0227113497056
 22
284.3537367499784
 32
0.0
 13
302.0227113497056
 23
284.3537367499784
 33
0.0
  0
SOLID
  5
D1F
330
CEC
100
AcDbEntity
  8
MEASURE
  6
Continuous
 62
     9
100
AcDbTrace
 10
578.5731269707055
 20
286.4370700833117
 30
0.0
 11
578.5731269707055
 21
282.2704034166451
 31
0.0
 12
591.0731269707055
 22
284.3537367499784
 32
0.0
 13
591.0731269707055
 23
284.3537367499784
 33
0.0
  0
MTEXT
  5
D20
330
CEC
100
AcDbEntity
  8
MEASURE
  6
Continuous
 62
     2
100
AcDbMText
 10
446.5479191602056
 20
295.6037367499784
 30
0.0
 40
17.5
 41
0.0
 71
     5
 72
     1
  1
\A1;289
  7
AD-STANDARD
 73
     1
 44
1.0
  0
POINT
  5
D21
330
CEC
100
AcDbEntity
  8
DEFPOINTS
  6
Continuous
 62
     0
100
AcDbPoint
 10
302.0227113497057
 20
1114.76971898141
 30
0.0
  0
POINT
  5
D22
330
CEC
100
AcDbEntity
  8
DEFPOINTS
  6
Continuous
 62
     0
100
AcDbPoint
 10
591.0731269707055
 20
390.8667035949106
 30
0.0
  0
POINT
  5
D23
330
CEC
100
AcDbEntity
  8
DEFPOINTS
  6
Continuous
 62
     0
100
AcDbPoint
 10
591.0731269707055
 20
284.3537367499784
 30
0.0
  0
ENDBLK
  5
CF7
330
CEC
100
AcDbEntity
  8
0
100
AcDbBlockEnd
  0
BLOCK
  5
D0E
330
D04
100
AcDbEntity
  8
0
100
AcDbBlockBegin
  2
*D26
 70
     1
 10
0.0
 20
0.0
 30
0.0
  3
*D26
  1

  0
LINE
  5
D11
330
D04
100
AcDbEntity
  8
MEASURE
  6
Continuous
 62
     9
370
    -2
100
AcDbLine
 10
591.0731269707055
 20
385.8667035949106
 30
0.0
 11
591.0731269707055
 21
274.3537367499784
 31
0.0
  0
LINE
  5
D12
330
D04
100
AcDbEntity
  8
MEASURE
  6
Continuous
 62
     9
370
    -2
100
AcDbLine
 10
1031.073126970705
 20
385.8667035949106
 30
0.0
 11
1031.073126970705
 21
274.3537367499784
 31
0.0
  0
LINE
  5
D13
330
D04
100
AcDbEntity
  8
MEASURE
  6
Continuous
 62
     9
370
    -2
100
AcDbLine
 10
603.5731269707055
 20
284.3537367499784
 30
0.0
 11
1018.573126970705
 21
284.3537367499784
 31
0.0
  0
SOLID
  5
D14
330
D04
100
AcDbEntity
  8
MEASURE
  6
Continuous
 62
     9
100
AcDbTrace
 10
603.5731269707055
 20
286.4370700833117
 30
0.0
 11
603.5731269707055
 21
282.2704034166451
 31
0.0
 12
591.0731269707055
 22
284.3537367499784
 32
0.0
 13
591.0731269707055
 23
284.3537367499784
 33
0.0
  0
SOLID
  5
D15
330
D04
100
AcDbEntity
  8
MEASURE
  6
Continuous
 62
     9
100
AcDbTrace
 10
1018.573126970705
 20
286.4370700833117
 30
0.0
 11
1018.573126970705
 21
282.2704034166451
 31
0.0
 12
1031.073126970705
 22
284.3537367499784
 32
0.0
 13
1031.073126970705
 23
284.3537367499784
 33
0.0
  0
MTEXT
  5
D16
330
D04
100
AcDbEntity
  8
MEASURE
  6
Continuous
 62
     2
100
AcDbMText
 10
811.0731269707056
 20
295.6037367499784
 30
0.0
 40
17.5
 41
0.0
 71
     5
 72
     1
  1
\A1;440
  7
AD-STANDARD
 73
     1
 44
1.0
  0
POINT
  5
D17
330
D04
100
AcDbEntity
  8
DEFPOINTS
  6
Continuous
 62
     0
100
AcDbPoint
 10
591.0731269707055
 20
390.8667035949106
 30
0.0
  0
POINT
  5
D18
330
D04
100
AcDbEntity
  8
DEFPOINTS
  6
Continuous
 62
     0
100
AcDbPoint
 10
1031.073126970705
 20
390.8667035949106
 30
0.0
  0
POINT
  5
D19
330
D04
100
AcDbEntity
  8
DEFPOINTS
  6
Continuous
 62
     0
100
AcDbPoint
 10
1031.073126970705
 20
284.3537367499784
 30
0.0
  0
ENDBLK
  5
D0F
330
D04
100
AcDbEntity
  8
0
100
AcDbBlockEnd
  0
BLOCK
  5
D2F
330
D25
100
AcDbEntity
  8
0
100
AcDbBlockBegin
  2
*D27
 70
     1
 10
0.0
 20
0.0
 30
0.0
  3
*D27
  1

  0
LINE
  5
D44
330
D25
100
AcDbEntity
  8
MEASURE
  6
Continuous
 62
     9
370
    -2
100
AcDbLine
 10
373.7731269707057
 20
703.31497298879
 30
0.0
 11
388.7731269707058
 21
703.31497298879
 31
0.0
  0
SOLID
  5
D45
330
D25
100
AcDbEntity
  8
MEASURE
  6
Continuous
 62
     9
100
AcDbTrace
 10
373.7731269707057
 20
705.3983063221234
 30
0.0
 11
373.7731269707057
 21
701.2316396554567
 31
0.0
 12
361.2731269707057
 22
703.31497298879
 32
0.0
 13
361.2731269707057
 23
703.31497298879
 33
0.0
  0
SOLID
  5
D46
330
D25
100
AcDbEntity
  8
MEASURE
  6
Continuous
 62
     9
100
AcDbTrace
 10
388.7731269707058
 20
705.3983063221234
 30
0.0
 11
388.7731269707058
 21
701.2316396554567
 31
0.0
 12
401.2731269707058
 22
703.31497298879
 32
0.0
 13
401.2731269707058
 23
703.31497298879
 33
0.0
  0
MTEXT
  5
D47
330
D25
100
AcDbEntity
  8
MEASURE
  6
Continuous
 62
     2
100
AcDbMText
 10
381.2731269707057
 20
714.56497298879
 30
0.0
 40
17.5
 41
0.0
 71
     5
 72
     1
  1
\A1;40
  7
AD-STANDARD
 73
     1
 44
1.0
  0
POINT
  5
D48
330
D25
100
AcDbEntity
  8
DEFPOINTS
  6
Continuous
 62
     0
100
AcDbPoint
 10
361.2731269707057
 20
782.0667035949107
 30
0.0
  0
POINT
  5
D49
330
D25
100
AcDbEntity
  8
DEFPOINTS
  6
Continuous
 62
     0
100
AcDbPoint
 10
401.2731269707058
 20
764.6008474951607
 30
0.0
  0
POINT
  5
D4A
330
D25
100
AcDbEntity
  8
DEFPOINTS
  6
Continuous
 62
     0
100
AcDbPoint
 10
401.2731269707058
 20
703.31497298879
 30
0.0
  0
ENDBLK
  5
D30
330
D25
100
AcDbEntity
  8
0
100
AcDbBlockEnd
  0
BLOCK
  5
D56
330
D4C
100
AcDbEntity
  8
0
100
AcDbBlockBegin
  2
*D28
 70
     1
 10
0.0
 20
0.0
 30
0.0
  3
*D28
  1

  0
LINE
  5
D97
330
D4C
100
AcDbEntity
  8
MEASURE
  6
Continuous
 62
     9
370
    -2
100
AcDbLine
 10
1048.073126970705
 20
385.8667035949106
 30
0.0
 11
1206.852222237265
 21
385.8667035949105
 31
0.0
  0
LINE
  5
D98
330
D4C
100
AcDbEntity
  8
MEASURE
  6
Continuous
 62
     9
370
    -2
100
AcDbLine
 10
1069.573126970705
 20
513.7667035949106
 30
0.0
 11
1206.852222237265
 21
513.7667035949106
 31
0.0
  0
LINE
  5
D99
330
D4C
100
AcDbEntity
  8
MEASURE
  6
Continuous
 62
     9
370
    -2
100
AcDbLine
 10
1196.852222237264
 20
398.3667035949105
 30
0.0
 11
1196.852222237264
 21
501.2667035949105
 31
0.0
  0
SOLID
  5
D9A
330
D4C
100
AcDbEntity
  8
MEASURE
  6
Continuous
 62
     9
100
AcDbTrace
 10
1194.768888903931
 20
398.3667035949105
 30
0.0
 11
1198.935555570598
 21
398.3667035949105
 31
0.0
 12
1196.852222237264
 22
385.8667035949105
 32
0.0
 13
1196.852222237264
 23
385.8667035949105
 33
0.0
  0
SOLID
  5
D9B
330
D4C
100
AcDbEntity
  8
MEASURE
  6
Continuous
 62
     9
100
AcDbTrace
 10
1194.768888903931
 20
501.2667035949105
 30
0.0
 11
1198.935555570598
 21
501.2667035949105
 31
0.0
 12
1196.852222237265
 22
513.7667035949106
 32
0.0
 13
1196.852222237265
 23
513.7667035949106
 33
0.0
  0
MTEXT
  5
D9C
330
D4C
100
AcDbEntity
  8
MEASURE
  6
Continuous
 62
     2
100
AcDbMText
 10
1185.602222237265
 20
449.8167035949108
 30
0.0
 40
17.5
 41
0.0
 71
     5
 72
     1
  1
\A1;128
  7
AD-STANDARD
 11
0.0000000000000001
 21
1.0
 31
0.0
 73
     1
 44
1.0
  0
POINT
  5
D9D
330
D4C
100
AcDbEntity
  8
DEFPOINTS
  6
Continuous
 62
     0
100
AcDbPoint
 10
1043.073126970705
 20
385.8667035949106
 30
0.0
  0
POINT
  5
D9E
330
D4C
100
AcDbEntity
  8
DEFPOINTS
  6
Continuous
 62
     0
100
AcDbPoint
 10
1064.573126970705
 20
513.7667035949106
 30
0.0
  0
POINT
  5
D9F
330
D4C
100
AcDbEntity
  8
DEFPOINTS
  6
Continuous
 62
     0
100
AcDbPoint
 10
1196.852222237265
 20
513.7667035949106
 30
0.0
  0
ENDBLK
  5
D57
330
D4C
100
AcDbEntity
  8
0
100
AcDbBlockEnd
  0
BLOCK
  5
D70
330
D64
100
AcDbEntity
  8
0
100
AcDbBlockBegin
  2
*D29
 70
     1
 10
0.0
 20
0.0
 30
0.0
  3
*D29
  1

  0
LINE
  5
D73
330
D64
100
AcDbEntity
  8
MEASURE
  6
Continuous
 62
     9
370
    -2
100
AcDbLine
 10
1048.073126970705
 20
385.8667035949106
 30
0.0
 11
1165.727882975983
 21
385.8667035949105
 31
0.0
  0
LINE
  5
D74
330
D64
100
AcDbEntity
  8
MEASURE
  6
Continuous
 62
     9
370
    -2
100
AcDbLine
 10
1057.873126970705
 20
414.8667035949105
 30
0.0
 11
1165.727882975983
 21
414.8667035949105
 31
0.0
  0
LINE
  5
D75
330
D64
100
AcDbEntity
  8
MEASURE
  6
Continuous
 62
     9
370
    -2
100
AcDbLine
 10
1155.727882975983
 20
373.3667035949105
 30
0.0
 11
1155.727882975983
 21
360.8667035949105
 31
0.0
  0
LINE
  5
D76
330
D64
100
AcDbEntity
  8
MEASURE
  6
Continuous
 62
     9
370
    -2
100
AcDbLine
 10
1155.727882975983
 20
427.3667035949105
 30
0.0
 11
1155.727882975983
 21
439.8667035949105
 31
0.0
  0
LINE
  5
D77
330
D64
100
AcDbEntity
  8
MEASURE
  6
Continuous
 62
     9
370
    -2
100
AcDbLine
 10
1155.727882975983
 20
385.8667035949105
 30
0.0
 11
1155.727882975983
 21
414.8667035949105
 31
0.0
  0
SOLID
  5
D78
330
D64
100
AcDbEntity
  8
MEASURE
  6
Continuous
 62
     9
100
AcDbTrace
 10
1153.64454964265
 20
373.3667035949105
 30
0.0
 11
1157.811216309316
 21
373.3667035949105
 31
0.0
 12
1155.727882975983
 22
385.8667035949105
 32
0.0
 13
1155.727882975983
 23
385.8667035949105
 33
0.0
  0
SOLID
  5
D79
330
D64
100
AcDbEntity
  8
MEASURE
  6
Continuous
 62
     9
100
AcDbTrace
 10
1153.64454964265
 20
427.3667035949105
 30
0.0
 11
1157.811216309316
 21
427.3667035949105
 31
0.0
 12
1155.727882975983
 22
414.8667035949105
 32
0.0
 13
1155.727882975983
 23
414.8667035949105
 33
0.0
  0
MTEXT
  5
D7A
330
D64
100
AcDbEntity
  8
MEASURE
  6
Continuous
 62
     2
100
AcDbMText
 10
1144.477882975983
 20
400.3667035949107
 30
0.0
 40
17.5
 41
0.0
 71
     5
 72
     1
  1
\A1;29
  7
AD-STANDARD
 11
0.0000000000000001
 21
1.0
 31
0.0
 73
     1
 44
1.0
  0
POINT
  5
D7B
330
D64
100
AcDbEntity
  8
DEFPOINTS
  6
Continuous
 62
     0
100
AcDbPoint
 10
1043.073126970705
 20
385.8667035949106
 30
0.0
  0
POINT
  5
D7C
330
D64
100
AcDbEntity
  8
DEFPOINTS
  6
Continuous
 62
     0
100
AcDbPoint
 10
1052.873126970705
 20
414.8667035949105
 30
0.0
  0
POINT
  5
D7D
330
D64
100
AcDbEntity
  8
DEFPOINTS
  6
Continuous
 62
     0
100
AcDbPoint
 10
1155.727882975983
 20
414.8667035949105
 30
0.0
  0
ENDBLK
  5
D71
330
D64
100
AcDbEntity
  8
0
100
AcDbBlockEnd
  0
BLOCK
  5
D8A
330
D80
100
AcDbEntity
  8
0
100
AcDbBlockBegin
  2
*D30
 70
     1
 10
0.0
 20
0.0
 30
0.0
  3
*D30
  1

  0
LINE
  5
DA0
330
D80
100
AcDbEntity
  8
MEASURE
  6
Continuous
 62
     9
370
    -2
100
AcDbLine
 10
1057.873126970705
 20
414.8667035949105
 30
0.0
 11
1165.727882975983
 21
414.8667035949105
 31
0.0
  0
LINE
  5
DA1
330
D80
100
AcDbEntity
  8
MEASURE
  6
Continuous
 62
     9
370
    -2
100
AcDbLine
 10
1069.573126970705
 20
513.7667035949106
 30
0.0
 11
1165.727882975983
 21
513.7667035949106
 31
0.0
  0
LINE
  5
DA2
330
D80
100
AcDbEntity
  8
MEASURE
  6
Continuous
 62
     9
370
    -2
100
AcDbLine
 10
1155.727882975983
 20
427.3667035949105
 30
0.0
 11
1155.727882975983
 21
501.2667035949105
 31
0.0
  0
SOLID
  5
DA3
330
D80
100
AcDbEntity
  8
MEASURE
  6
Continuous
 62
     9
100
AcDbTrace
 10
1153.64454964265
 20
427.3667035949105
 30
0.0
 11
1157.811216309316
 21
427.3667035949105
 31
0.0
 12
1155.727882975983
 22
414.8667035949105
 32
0.0
 13
1155.727882975983
 23
414.8667035949105
 33
0.0
  0
SOLID
  5
DA4
330
D80
100
AcDbEntity
  8
MEASURE
  6
Continuous
 62
     9
100
AcDbTrace
 10
1153.64454964265
 20
501.2667035949105
 30
0.0
 11
1157.811216309316
 21
501.2667035949105
 31
0.0
 12
1155.727882975983
 22
513.7667035949106
 32
0.0
 13
1155.727882975983
 23
513.7667035949106
 33
0.0
  0
MTEXT
  5
DA5
330
D80
100
AcDbEntity
  8
MEASURE
  6
Continuous
 62
     2
100
AcDbMText
 10
1144.477882975983
 20
464.3167035949107
 30
0.0
 40
17.5
 41
0.0
 71
     5
 72
     1
  1
\A1;99
  7
AD-STANDARD
 11
0.0000000000000001
 21
1.0
 31
0.0
 73
     1
 44
1.0
  0
POINT
  5
DA6
330
D80
100
AcDbEntity
  8
DEFPOINTS
  6
Continuous
 62
     0
100
AcDbPoint
 10
1052.873126970705
 20
414.8667035949105
 30
0.0
  0
POINT
  5
DA7
330
D80
100
AcDbEntity
  8
DEFPOINTS
  6
Continuous
 62
     0
100
AcDbPoint
 10
1064.573126970705
 20
513.7667035949106
 30
0.0
  0
POINT
  5
DA8
330
D80
100
AcDbEntity
  8
DEFPOINTS
  6
Continuous
 62
     0
100
AcDbPoint
 10
1155.727882975983
 20
513.7667035949106
 30
0.0
  0
ENDBLK
  5
D8B
330
D80
100
AcDbEntity
  8
0
100
AcDbBlockEnd
  0
BLOCK
  5
E6E
330
E64
100
AcDbEntity
  8
0
100
AcDbBlockBegin
  2
*D31
 70
     1
 10
0.0
 20
0.0
 30
0.0
  3
*D31
  1

  0
LINE
  5
E71
330
E64
100
AcDbEntity
  8
MEASURE
  6
Continuous
 62
     9
370
    -2
100
AcDbLine
 10
1411.958968534706
 20
507.2667035949106
 30
0.0
 11
1411.958968534706
 21
657.025330691823
 31
0.0
  0
LINE
  5
E72
330
E64
100
AcDbEntity
  8
MEASURE
  6
Continuous
 62
     9
370
    -2
100
AcDbLine
 10
1801.958968534705
 20
507.2667035949106
 30
0.0
 11
1801.958968534705
 21
657.025330691823
 31
0.0
  0
LINE
  5
E73
330
E64
100
AcDbEntity
  8
MEASURE
  6
Continuous
 62
     9
370
    -2
100
AcDbLine
 10
1424.458968534706
 20
647.0253306918229
 30
0.0
 11
1789.458968534705
 21
647.0253306918229
 31
0.0
  0
SOLID
  5
E74
330
E64
100
AcDbEntity
  8
MEASURE
  6
Continuous
 62
     9
100
AcDbTrace
 10
1424.458968534706
 20
649.1086640251563
 30
0.0
 11
1424.458968534706
 21
644.9419973584896
 31
0.0
 12
1411.958968534706
 22
647.0253306918229
 32
0.0
 13
1411.958968534706
 23
647.0253306918229
 33
0.0
  0
SOLID
  5
E75
330
E64
100
AcDbEntity
  8
MEASURE
  6
Continuous
 62
     9
100
AcDbTrace
 10
1789.458968534705
 20
649.1086640251563
 30
0.0
 11
1789.458968534705
 21
644.9419973584896
 31
0.0
 12
1801.958968534705
 22
647.0253306918229
 32
0.0
 13
1801.958968534705
 23
647.0253306918229
 33
0.0
  0
MTEXT
  5
E76
330
E64
100
AcDbEntity
  8
MEASURE
  6
Continuous
 62
     2
100
AcDbMText
 10
1606.958968534705
 20
658.2753306918229
 30
0.0
 40
17.5
 41
0.0
 71
     5
 72
     1
  1
\A1;390
  7
AD-STANDARD
 73
     1
 44
1.0
  0
POINT
  5
E77
330
E64
100
AcDbEntity
  8
DEFPOINTS
  6
Continuous
 62
     0
100
AcDbPoint
 10
1411.958968534706
 20
502.2667035949107
 30
0.0
  0
POINT
  5
E78
330
E64
100
AcDbEntity
  8
DEFPOINTS
  6
Continuous
 62
     0
100
AcDbPoint
 10
1801.958968534705
 20
502.2667035949107
 30
0.0
  0
POINT
  5
E79
330
E64
100
AcDbEntity
  8
DEFPOINTS
  6
Continuous
 62
     0
100
AcDbPoint
 10
1801.958968534705
 20
647.0253306918229
 30
0.0
  0
ENDBLK
  5
E6F
330
E64
100
AcDbEntity
  8
0
100
AcDbBlockEnd
  0
BLOCK
  5
E86
330
E7C
100
AcDbEntity
  8
0
100
AcDbBlockBegin
  2
*D32
 70
     1
 10
0.0
 20
0.0
 30
0.0
  3
*D32
  1

  0
LINE
  5
E89
330
E7C
100
AcDbEntity
  8
MEASURE
  6
Continuous
 62
     9
370
    -2
100
AcDbLine
 10
1456.958968534705
 20
385.8667035949106
 30
0.0
 11
1456.958968534705
 21
274.3537367499784
 31
0.0
  0
LINE
  5
E8A
330
E7C
100
AcDbEntity
  8
MEASURE
  6
Continuous
 62
     9
370
    -2
100
AcDbLine
 10
1756.958968534705
 20
385.8667035949106
 30
0.0
 11
1756.958968534705
 21
274.3537367499784
 31
0.0
  0
LINE
  5
E8B
330
E7C
100
AcDbEntity
  8
MEASURE
  6
Continuous
 62
     9
370
    -2
100
AcDbLine
 10
1469.458968534705
 20
284.3537367499784
 30
0.0
 11
1744.458968534705
 21
284.3537367499784
 31
0.0
  0
SOLID
  5
E8C
330
E7C
100
AcDbEntity
  8
MEASURE
  6
Continuous
 62
     9
100
AcDbTrace
 10
1469.458968534705
 20
286.4370700833117
 30
0.0
 11
1469.458968534705
 21
282.2704034166451
 31
0.0
 12
1456.958968534705
 22
284.3537367499784
 32
0.0
 13
1456.958968534705
 23
284.3537367499784
 33
0.0
  0
SOLID
  5
E8D
330
E7C
100
AcDbEntity
  8
MEASURE
  6
Continuous
 62
     9
100
AcDbTrace
 10
1744.458968534705
 20
286.4370700833117
 30
0.0
 11
1744.458968534705
 21
282.2704034166451
 31
0.0
 12
1756.958968534705
 22
284.3537367499784
 32
0.0
 13
1756.958968534705
 23
284.3537367499784
 33
0.0
  0
MTEXT
  5
E8E
330
E7C
100
AcDbEntity
  8
MEASURE
  6
Continuous
 62
     2
100
AcDbMText
 10
1606.958968534705
 20
295.6037367499784
 30
0.0
 40
17.5
 41
0.0
 71
     5
 72
     1
  1
\A1;300
  7
AD-STANDARD
 73
     1
 44
1.0
  0
POINT
  5
E8F
330
E7C
100
AcDbEntity
  8
DEFPOINTS
  6
Continuous
 62
     0
100
AcDbPoint
 10
1456.958968534705
 20
390.8667035949106
 30
0.0
  0
POINT
  5
E90
330
E7C
100
AcDbEntity
  8
DEFPOINTS
  6
Continuous
 62
     0
100
AcDbPoint
 10
1756.958968534705
 20
390.8667035949106
 30
0.0
  0
POINT
  5
E91
330
E7C
100
AcDbEntity
  8
DEFPOINTS
  6
Continuous
 62
     0
100
AcDbPoint
 10
1756.958968534705
 20
284.3537367499784
 30
0.0
  0
ENDBLK
  5
E87
330
E7C
100
AcDbEntity
  8
0
100
AcDbBlockEnd
  0
BLOCK
  5
E9E
330
E94
100
AcDbEntity
  8
0
100
AcDbBlockBegin
  2
*D33
 70
     1
 10
0.0
 20
0.0
 30
0.0
  3
*D33
  1

  0
LINE
  5
EB3
330
E94
100
AcDbEntity
  8
MEASURE
  6
Continuous
 62
     9
370
    -2
100
AcDbLine
 10
1599.458968534706
 20
743.1667694422962
 30
0.0
 11
1614.458968534706
 21
743.1667694422962
 31
0.0
  0
SOLID
  5
EB4
330
E94
100
AcDbEntity
  8
MEASURE
  6
Continuous
 62
     9
100
AcDbTrace
 10
1599.458968534706
 20
745.2501027756296
 30
0.0
 11
1599.458968534706
 21
741.0834361089629
 31
0.0
 12
1586.958968534706
 22
743.1667694422962
 32
0.0
 13
1586.958968534706
 23
743.1667694422962
 33
0.0
  0
SOLID
  5
EB5
330
E94
100
AcDbEntity
  8
MEASURE
  6
Continuous
 62
     9
100
AcDbTrace
 10
1614.458968534706
 20
745.2501027756296
 30
0.0
 11
1614.458968534706
 21
741.0834361089629
 31
0.0
 12
1626.958968534706
 22
743.1667694422962
 32
0.0
 13
1626.958968534706
 23
743.1667694422962
 33
0.0
  0
MTEXT
  5
EB6
330
E94
100
AcDbEntity
  8
MEASURE
  6
Continuous
 62
     2
100
AcDbMText
 10
1606.958968534706
 20
754.4167694422963
 30
0.0
 40
17.5
 41
0.0
 71
     5
 72
     1
  1
\A1;40
  7
AD-STANDARD
 73
     1
 44
1.0
  0
POINT
  5
EB7
330
E94
100
AcDbEntity
  8
DEFPOINTS
  6
Continuous
 62
     0
100
AcDbPoint
 10
1586.958968534706
 20
782.0667035949107
 30
0.0
  0
POINT
  5
EB8
330
E94
100
AcDbEntity
  8
DEFPOINTS
  6
Continuous
 62
     0
100
AcDbPoint
 10
1626.958968534706
 20
782.0667035949107
 30
0.0
  0
POINT
  5
EB9
330
E94
100
AcDbEntity
  8
DEFPOINTS
  6
Continuous
 62
     0
100
AcDbPoint
 10
1626.958968534706
 20
743.1667694422962
 30
0.0
  0
ENDBLK
  5
E9F
330
E94
100
AcDbEntity
  8
0
100
AcDbBlockEnd
  0
ENDSEC
  0
SECTION
  2
ENTITIES
  0
TEXT
  5
DE
330
A
100
AcDbEntity
  8
NOTE
  6
Continuous
100
AcDbText
 10
1852.788691955458
 20
146.458939008634
 30
0.0
 40
15.0
  1
FG60KAL
  7
AD-STANDARD
 11
1852.788691955458
 21
161.458939008634
 31
0.0
100
AcDbText
 73
     3
  0
TEXT
  5
DF
330
A
100
AcDbEntity
  8
NOTE
  6
Continuous
100
AcDbText
 10
1852.788691955458
 20
124.5077194966339
 30
0.0
 40
15.0
  1
FG150KAL
  7
AD-STANDARD
 11
1852.788691955458
 21
139.507719496634
 31
0.0
100
AcDbText
 73
     3
  0
INSERT
  5
F1
330
A
100
AcDbEntity
  8
0
 62
     0
100
AcDbBlockReference
  2
SE0
 10
0.0
 20
0.0
 30
0.0
  0
INSERT
  5
F8
330
A
100
AcDbEntity
  8
0
 62
     0
100
AcDbBlockReference
  2
SE2
 10
0.0
 20
0.0
 30
0.0
  0
INSERT
  5
10C
330
A
100
AcDbEntity
  8
0
 62
     0
100
AcDbBlockReference
  2
SE4
 10
0.0
 20
0.0
 30
0.0
  0
LWPOLYLINE
  5
75E
330
A
100
AcDbEntity
  8
0
  6
Continuous
100
AcDbPolyline
 90
        4
 70
     1
 43
0.0
 10
0.0
 20
0.0
 10
2100.0
 20
0.0
 10
2100.0
 20
1485.0
 10
0.0
 20
1485.0
  0
LINE
  5
910
102
{ACAD_REACTORS
330
EBA
102
}
330
A
100
AcDbEntity
  8
1
  6
Continuous
100
AcDbLine
 10
1052.873126970705
 20
414.8667035949106
 30
0.0
 11
569.2731269707057
 21
414.8667035949106
 31
0.0
  0
ARC
  5
911
102
{ACAD_REACTORS
330
EBA
102
}
330
A
100
AcDbEntity
  8
1
  6
Continuous
100
AcDbCircle
 10
569.2731269707057
 20
418.0667035949105
 30
0.0
 40
3.2
100
AcDbArc
 50
180.0
 51
270.0
  0
LINE
  5
912
102
{ACAD_REACTORS
330
EBA
102
}
330
A
100
AcDbEntity
  8
1
  6
Continuous
100
AcDbLine
 10
566.0731269707057
 20
418.0667035949105
 30
0.0
 11
566.0731269707057
 21
443.7667035949107
 31
0.0
  0
LINE
  5
914
102
{ACAD_REACTORS
330
EBA
102
}
330
A
100
AcDbEntity
  8
1
  6
Continuous
100
AcDbLine
 10
1056.073126970705
 20
443.7667035949107
 30
0.0
 11
1056.073126970705
 21
418.0667035949105
 31
0.0
  0
ARC
  5
91A
102
{ACAD_REACTORS
330
D7E
330
D96
330
EBA
102
}
330
A
100
AcDbEntity
  8
1
  6
Continuous
100
AcDbCircle
 10
1052.873126970705
 20
418.0667035949105
 30
0.0
 40
3.2
100
AcDbArc
 50
270.0
 51
0.0
  0
ARC
  5
91C
102
{ACAD_REACTORS
330
EBA
102
}
330
A
100
AcDbEntity
  8
1
  6
Continuous
100
AcDbCircle
 10
1037.549918014705
 20
408.4657659954106
 30
0.0
 40
6.402256857999994
100
AcDbArc
 50
91.16317086049996
 51
117.3535976368999
  0
ARC
  5
91D
102
{ACAD_REACTORS
330
EBA
102
}
330
A
100
AcDbEntity
  8
1
  6
Continuous
100
AcDbCircle
 10
1037.259994348205
 20
408.3477327054106
 30
0.0
 40
6.5209330965
100
AcDbArc
 50
62.88884548759998
 51
88.59438601499997
  0
LINE
  5
91E
102
{ACAD_REACTORS
330
EBA
102
}
330
A
100
AcDbEntity
  8
1
  6
Continuous
100
AcDbLine
 10
1021.914551649205
 20
414.1521724149106
 30
0.0
 11
1021.914551649205
 21
406.8667035949107
 31
0.0
  0
LINE
  5
91F
102
{ACAD_REACTORS
330
EBA
102
}
330
A
100
AcDbEntity
  8
1
  6
Continuous
100
AcDbLine
 10
1034.608205093705
 20
414.1521724149106
 30
0.0
 11
1034.608205093705
 21
406.8667035949107
 31
0.0
  0
ARC
  5
920
102
{ACAD_REACTORS
330
EBA
102
}
330
A
100
AcDbEntity
  8
1
  6
Continuous
100
AcDbCircle
 10
1023.509252281705
 20
411.8957020419106
 30
0.0
 40
2.976024755999999
100
AcDbArc
 50
49.30719902889993
 51
86.67056265960004
  0
ARC
  5
921
102
{ACAD_REACTORS
330
EBA
102
}
330
A
100
AcDbEntity
  8
1
  6
Continuous
100
AcDbCircle
 10
1030.178138689205
 20
398.8792386324106
 30
0.0
 40
15.988161336
100
AcDbArc
 50
90.53476270079995
 51
107.2025543683999
  0
ARC
  5
922
102
{ACAD_REACTORS
330
EBA
102
}
330
A
100
AcDbEntity
  8
1
  6
Continuous
100
AcDbCircle
 10
1029.845256762205
 20
398.6585233019106
 30
0.0
 40
16.2092208215
100
AcDbArc
 50
72.91189405509996
 51
89.35078887569998
  0
LINE
  5
923
102
{ACAD_REACTORS
330
EBA
102
}
330
A
100
AcDbEntity
  8
1
  6
Continuous
100
AcDbLine
 10
1039.732264573205
 20
414.4861503224106
 30
0.0
 11
1039.073126970705
 21
414.8667035949106
 31
0.0
  0
LINE
  5
924
102
{ACAD_REACTORS
330
EBA
102
}
330
A
100
AcDbEntity
  8
1
  6
Continuous
100
AcDbLine
 10
1023.073126970705
 20
414.8667035949106
 30
0.0
 11
1022.413989368205
 21
414.4861503224106
 31
0.0
  0
ARC
  5
925
102
{ACAD_REACTORS
330
EBA
102
}
330
A
100
AcDbEntity
  8
1
  6
Continuous
100
AcDbCircle
 10
1023.856602426205
 20
411.8915628249107
 30
0.0
 40
2.980254509499999
100
AcDbArc
 50
93.35693061189996
 51
130.6653076995998
  0
ARC
  5
926
102
{ACAD_REACTORS
330
EBA
102
}
330
A
100
AcDbEntity
  8
1
  6
Continuous
100
AcDbCircle
 10
1038.291324802205
 20
411.8957020419106
 30
0.0
 40
2.976024755999999
100
AcDbArc
 50
49.30719902889993
 51
60.84722517220001
  0
LINE
  5
927
102
{ACAD_REACTORS
330
EBA
102
}
330
A
100
AcDbEntity
  8
1
  6
Continuous
100
AcDbLine
 10
1025.449629772205
 20
406.8667035949107
 30
0.0
 11
1025.449629772205
 21
414.1521724149106
 31
0.0
  0
LINE
  5
928
102
{ACAD_REACTORS
330
EBA
102
}
330
A
100
AcDbEntity
  8
1
  6
Continuous
100
AcDbLine
 10
1040.231702292205
 20
406.8667035949107
 30
0.0
 11
1040.231702292205
 21
414.1521724149106
 31
0.0
  0
LINE
  5
929
102
{ACAD_REACTORS
330
EBA
102
}
330
A
100
AcDbEntity
  8
1
  6
Continuous
100
AcDbLine
 10
583.0731269707057
 20
414.8667035949106
 30
0.0
 11
583.0731269707057
 21
414.1521724149106
 31
0.0
  0
LINE
  5
92A
102
{ACAD_REACTORS
330
EBA
102
}
330
A
100
AcDbEntity
  8
1
  6
Continuous
100
AcDbLine
 10
599.0731269707053
 20
414.8667035949106
 30
0.0
 11
599.0731269707053
 21
414.1521724149106
 31
0.0
  0
ARC
  5
92B
102
{ACAD_REACTORS
330
EBA
102
}
330
A
100
AcDbEntity
  8
1
  6
Continuous
100
AcDbCircle
 10
586.9325296352051
 20
402.5262109834106
 30
0.0
 40
12.34129350999999
100
AcDbArc
 50
70.39659433770002
 51
89.34724766180007
  0
ARC
  5
92C
102
{ACAD_REACTORS
330
EBA
102
}
330
A
100
AcDbEntity
  8
1
  6
Continuous
100
AcDbCircle
 10
587.2461733687051
 20
402.3445586574106
 30
0.0
 40
12.523340564
100
AcDbArc
 50
90.79173314510002
 51
109.4644248552999
  0
ARC
  5
92D
102
{ACAD_REACTORS
330
EBA
102
}
330
A
100
AcDbEntity
  8
1
  6
Continuous
100
AcDbCircle
 10
595.2461733687052
 20
402.3445586574106
 30
0.0
 40
12.523340564
100
AcDbArc
 50
90.79173314510002
 51
109.4644248552999
  0
ARC
  5
92E
102
{ACAD_REACTORS
330
EBA
102
}
330
A
100
AcDbEntity
  8
1
  6
Continuous
100
AcDbCircle
 10
594.9325296352052
 20
402.5262109834106
 30
0.0
 40
12.34129350999999
100
AcDbArc
 50
70.39659433770002
 51
89.34724766180007
  0
LINE
  5
92F
102
{ACAD_REACTORS
330
EBA
102
}
330
A
100
AcDbEntity
  8
1
  6
Continuous
100
AcDbLine
 10
591.0731269707053
 20
406.8667035949107
 30
0.0
 11
591.0731269707053
 21
414.1521724149106
 31
0.0
  0
LINE
  5
930
102
{ACAD_REACTORS
330
EBA
102
}
330
A
100
AcDbEntity
  8
1
  6
Continuous
100
AcDbLine
 10
583.0731269707057
 20
406.8667035949107
 30
0.0
 11
583.0731269707057
 21
414.1521724149106
 31
0.0
  0
LINE
  5
931
102
{ACAD_REACTORS
330
EBA
102
}
330
A
100
AcDbEntity
  8
1
  6
Continuous
100
AcDbLine
 10
599.0731269707053
 20
414.1521724149106
 30
0.0
 11
599.0731269707053
 21
406.8667035949107
 31
0.0
  0
LINE
  5
933
102
{ACAD_REACTORS
330
D62
330
D7E
330
EBA
102
}
330
A
100
AcDbEntity
  8
1
  6
Continuous
100
AcDbLine
 10
1019.073126970705
 20
385.8667035949106
 30
0.0
 11
1043.073126970705
 21
385.8667035949106
 31
0.0
  0
LINE
  5
934
102
{ACAD_REACTORS
330
EBA
102
}
330
A
100
AcDbEntity
  8
1
  6
Continuous
100
AcDbLine
 10
1042.073126970705
 20
406.8667035949107
 30
0.0
 11
1020.073126970705
 21
406.8667035949107
 31
0.0
  0
LINE
  5
936
102
{ACAD_REACTORS
330
EBA
102
}
330
A
100
AcDbEntity
  8
1
  6
Continuous
100
AcDbLine
 10
1020.073126970705
 20
406.8667035949107
 30
0.0
 11
1017.073126970705
 21
402.8667035949106
 31
0.0
  0
ARC
  5
937
102
{ACAD_REACTORS
330
EBA
102
}
330
A
100
AcDbEntity
  8
1
  6
Continuous
100
AcDbCircle
 10
1019.073126970705
 20
387.8667035949106
 30
0.0
 40
2.0
100
AcDbArc
 50
180.0
 51
270.0
  0
LINE
  5
938
102
{ACAD_REACTORS
330
EBA
102
}
330
A
100
AcDbEntity
  8
1
  6
Continuous
100
AcDbLine
 10
1003.061770498705
 20
402.8667035949106
 30
0.0
 11
997.7489497912053
 21
400.3892946124107
 31
0.0
  0
LINE
  5
939
102
{ACAD_REACTORS
330
EBA
102
}
330
A
100
AcDbEntity
  8
1
  6
Continuous
100
AcDbLine
 10
1017.073126970705
 20
390.8667035949106
 30
0.0
 11
1017.073126970705
 21
387.8667035949106
 31
0.0
  0
LINE
  5
93A
102
{ACAD_REACTORS
330
EBA
102
}
330
A
100
AcDbEntity
  8
1
  6
Continuous
100
AcDbLine
 10
1045.073126970705
 20
402.8667035949106
 30
0.0
 11
1042.073126970705
 21
406.8667035949107
 31
0.0
  0
ARC
  5
93B
102
{ACAD_REACTORS
330
EBA
102
}
330
A
100
AcDbEntity
  8
1
  6
Continuous
100
AcDbCircle
 10
1043.073126970705
 20
387.8667035949106
 30
0.0
 40
2.0
100
AcDbArc
 50
270.0
 51
0.0
  0
LINE
  5
93C
102
{ACAD_REACTORS
330
EBA
102
}
330
A
100
AcDbEntity
  8
1
  6
Continuous
100
AcDbLine
 10
1064.397304150205
 20
400.3892946124107
 30
0.0
 11
1059.084483443205
 21
402.8667035949106
 31
0.0
  0
LINE
  5
93D
102
{ACAD_REACTORS
330
EBA
102
}
330
A
100
AcDbEntity
  8
1
  6
Continuous
100
AcDbLine
 10
1045.073126970705
 20
387.8667035949106
 30
0.0
 11
1045.073126970705
 21
390.8667035949106
 31
0.0
  0
LINE
  5
93E
102
{ACAD_REACTORS
330
EBA
102
}
330
A
100
AcDbEntity
  8
1
  6
Continuous
100
AcDbLine
 10
1049.371909573705
 20
398.8667035949106
 30
0.0
 11
1040.538593801205
 21
398.8667035949106
 31
0.0
  0
LINE
  5
93F
102
{ACAD_REACTORS
330
EBA
102
}
330
A
100
AcDbEntity
  8
1
  6
Continuous
100
AcDbLine
 10
1021.607660140705
 20
398.8667035949106
 30
0.0
 11
1012.774344368205
 21
398.8667035949106
 31
0.0
  0
LINE
  5
940
102
{ACAD_REACTORS
330
EBA
102
}
330
A
100
AcDbEntity
  8
1
  6
Continuous
100
AcDbLine
 10
999.3881528022054
 20
398.8667035949106
 30
0.0
 11
995.7292736087056
 21
398.8667035949106
 31
0.0
  0
LINE
  5
941
102
{ACAD_REACTORS
330
D1A
330
EBA
102
}
330
A
100
AcDbEntity
  8
1
  6
Continuous
100
AcDbLine
 10
1040.449660178705
 20
390.8667035949106
 30
0.0
 11
1021.696593762705
 21
390.8667035949106
 31
0.0
  0
LINE
  5
942
102
{ACAD_REACTORS
330
EBA
102
}
330
A
100
AcDbEntity
  8
1
  6
Continuous
100
AcDbLine
 10
1063.742544403205
 20
390.8667035949106
 30
0.0
 11
1050.482123972705
 21
390.8667035949106
 31
0.0
  0
LINE
  5
943
102
{ACAD_REACTORS
330
EBA
102
}
330
A
100
AcDbEntity
  8
1
  6
Continuous
100
AcDbLine
 10
1011.664129969205
 20
390.8667035949106
 30
0.0
 11
998.4037095382058
 21
390.8667035949106
 31
0.0
  0
LINE
  5
944
102
{ACAD_REACTORS
330
EBA
102
}
330
A
100
AcDbEntity
  8
1
  6
Continuous
100
AcDbLine
 10
1011.664129969205
 20
390.8667035949106
 30
0.0
 11
1021.696593762705
 21
390.8667035949106
 31
0.0
  0
LINE
  5
945
102
{ACAD_REACTORS
330
EBA
102
}
330
A
100
AcDbEntity
  8
1
  6
Continuous
100
AcDbLine
 10
994.2481269707052
 20
390.8667035949106
 30
0.0
 11
998.4037095382058
 21
390.8667035949106
 31
0.0
  0
ARC
  5
946
102
{ACAD_REACTORS
330
EBA
102
}
330
A
100
AcDbEntity
  8
1
  6
Continuous
100
AcDbCircle
 10
1031.073126970705
 20
370.1556709994106
 30
0.0
 40
30.23108425149999
100
AcDbArc
 50
71.75362123219996
 51
108.2463787678
  0
SPLINE
  5
947
102
{ACAD_REACTORS
330
EBA
102
}
330
A
100
AcDbEntity
  8
1
  6
Continuous
100
AcDbSpline
210
0.0
220
0.0
230
1.0
 70
     8
 71
     3
 72
    21
 73
    17
 74
     0
 42
0.0000000001
 43
0.0000000001
 40
0.0
 40
0.0
 40
0.0
 40
0.0
 40
0.2500000000000004
 40
0.2500000000000004
 40
0.3125000000000003
 40
0.3125000000000003
 40
0.3750000000000002
 40
0.3750000000000002
 40
0.5
 40
0.625
 40
0.625
 40
0.6875
 40
0.6875
 40
0.75
 40
0.75
 40
1.0
 40
1.0
 40
1.0
 40
1.0
 10
1012.774344368019
 20
398.8667035947954
 30
0.0
 10
1012.201167846799
 20
399.3348897639924
 30
0.0
 10
1011.481763469859
 20
399.7156132786416
 30
0.0
 10
1010.381402422202
 20
400.0475281400843
 30
0.0
 10
1010.151161020036
 20
400.1066450253819
 30
0.0
 10
1009.669387779957
 20
400.2092140803521
 30
0.0
 10
1009.417509932362
 20
400.2526215857703
 30
0.0
 10
1008.641125098395
 20
400.3563024278003
 30
0.0
 10
1007.543488110123
 20
400.4255371423133
 30
0.0
 10
1006.322954932876
 20
400.3564410445937
 30
0.0
 10
1005.360926786821
 20
400.2531001380457
 30
0.0
 10
1005.031349301408
 20
400.2098933393657
 30
0.0
 10
1004.361838609525
 20
400.1072891646606
 30
0.0
 10
1004.023096888425
 20
400.0481351561802
 30
0.0
 10
1002.310109874775
 20
399.7159860167296
 30
0.0
 10
1000.878781780752
 20
399.3349425492133
 30
0.0
 10
999.3881528024333
 20
398.8667035947954
 30
0.0
  0
SPLINE
  5
948
102
{ACAD_REACTORS
330
EBA
102
}
330
A
100
AcDbEntity
  8
1
  6
Continuous
100
AcDbSpline
210
0.0
220
0.0
230
1.0
 70
     8
 71
     3
 72
    15
 73
    11
 74
     0
 42
0.0000000001
 43
0.0000000001
 40
0.0
 40
0.0
 40
0.0
 40
0.0
 40
0.25
 40
0.25
 40
0.3125
 40
0.3125
 40
0.3749999999999999
 40
0.3749999999999999
 40
0.5
 40
0.5000635922576399
 40
0.5000635922576399
 40
0.5000635922576399
 40
0.5000635922576399
 10
995.7292736087458
 20
398.8667035947954
 30
0.0
 10
996.3778916398903
 20
399.3348897639924
 30
0.0
 10
996.8805925351347
 20
399.7156132786416
 30
0.0
 10
997.3122617783031
 20
400.0475281400843
 30
0.0
 10
997.3886463559809
 20
400.1066450253819
 30
0.0
 10
997.5206612866761
 20
400.2092140803521
 30
0.0
 10
997.5762345186826
 20
400.2526215857703
 30
0.0
 10
997.7086601906231
 20
400.3563024278003
 30
0.0
 10
997.7524876443833
 20
400.3909374098795
 30
0.0
 10
997.7525091739108
 20
400.3909544792131
 30
0.0
 10
997.7525091735316
 20
400.3909544789419
 30
0.0
  0
SPLINE
  5
949
102
{ACAD_REACTORS
330
EBA
102
}
330
A
100
AcDbEntity
  8
1
  6
Continuous
100
AcDbSpline
210
0.0
220
0.0
230
1.0
 70
     8
 71
     3
 72
    14
 73
    10
 74
     0
 42
0.0000000001
 43
0.0000000001
 40
0.5000635921715398
 40
0.5000635921715398
 40
0.5000635921715398
 40
0.5000635921715398
 40
0.6250000000000006
 40
0.6250000000000006
 40
0.6875000000000006
 40
0.6875000000000006
 40
0.7500000000000005
 40
0.7500000000000005
 40
1.0
 40
1.0
 40
1.0
 40
1.0
 10
1064.393744372567
 20
400.3909544652933
 30
0.0
 10
1064.393745117167
 20
400.3909539327972
 30
0.0
 10
1064.437463389341
 20
400.3564059956729
 30
0.0
 10
1064.569407242417
 20
400.2531001380457
 30
0.0
 10
1064.624720992921
 20
400.2098933393659
 30
0.0
 10
1064.756775956923
 20
400.1072891646606
 30
0.0
 10
1064.833205558168
 20
400.0481351561802
 30
0.0
 10
1065.265165325179
 20
399.7159860167296
 30
0.0
 10
1065.768289173852
 20
399.3349425492133
 30
0.0
 10
1066.416980332843
 20
398.8667035947955
 30
0.0
  0
SPLINE
  5
94A
102
{ACAD_REACTORS
330
EBA
102
}
330
A
100
AcDbEntity
  8
1
  6
Continuous
100
AcDbSpline
210
0.0
220
0.0
230
1.0
 70
     8
 71
     3
 72
    21
 73
    17
 74
     0
 42
0.0000000001
 43
0.0000000001
 40
0.0
 40
0.0
 40
0.0
 40
0.0
 40
0.2499999999999991
 40
0.2499999999999991
 40
0.3124999999999991
 40
0.3124999999999991
 40
0.3749999999999989
 40
0.3749999999999989
 40
0.499999999999999
 40
0.6249999999999992
 40
0.6249999999999992
 40
0.6874999999999992
 40
0.6874999999999992
 40
0.7499999999999993
 40
0.7499999999999993
 40
1.0
 40
1.0
 40
1.0
 40
1.0
 10
1062.758101139155
 20
398.8667035947955
 30
0.0
 10
1061.26764020149
 20
399.3348897639924
 30
0.0
 10
1059.837309400678
 20
399.7156132786418
 30
0.0
 10
1058.126475854872
 20
400.0475281400843
 30
0.0
 10
1057.788210346998
 20
400.1066450253819
 30
0.0
 10
1057.119739801493
 20
400.2092140803521
 30
0.0
 10
1056.789269535492
 20
400.2526215857703
 30
0.0
 10
1055.825606520259
 20
400.3563024278003
 30
0.0
 10
1054.604069248562
 20
400.4255371696106
 30
0.0
 10
1053.507188688255
 20
400.3564410445937
 30
0.0
 10
1052.731820636
 20
400.2531001380457
 30
0.0
 10
1052.480468606736
 20
400.2098933393659
 30
0.0
 10
1051.997711835923
 20
400.1072891646606
 30
0.0
 10
1051.767057893471
 20
400.0481351561802
 30
0.0
 10
1050.66495424073
 20
399.7159860167296
 30
0.0
 10
1049.945150717051
 20
399.3349425492133
 30
0.0
 10
1049.371909573569
 20
398.8667035947954
 30
0.0
  0
LINE
  5
94B
102
{ACAD_REACTORS
330
EBA
102
}
330
A
100
AcDbEntity
  8
1
  6
Continuous
100
AcDbLine
 10
1050.482123972705
 20
390.8667035949106
 30
0.0
 11
1049.371909573705
 21
398.8667035949106
 31
0.0
  0
ARC
  5
94C
102
{ACAD_REACTORS
330
EBA
102
}
330
A
100
AcDbEntity
  8
1
  6
Continuous
100
AcDbCircle
 10
-3089.825497803294
 20
964.1353448839106
 30
0.0
 40
4141.358967997
100
AcDbArc
 50
352.043267639
 51
352.1550085196
  0
ARC
  5
94D
102
{ACAD_REACTORS
330
EBA
102
}
330
A
100
AcDbEntity
  8
1
  6
Continuous
100
AcDbCircle
 10
-3022.225575100794
 20
-107.8731999960893
 30
0.0
 40
4116.294081457
100
AcDbArc
 50
6.95919038909999
 51
7.071384439799992
  0
LINE
  5
94E
102
{ACAD_REACTORS
330
EBA
102
}
330
A
100
AcDbEntity
  8
1
  6
Continuous
100
AcDbLine
 10
998.4037095382058
 20
390.8667035949106
 30
0.0
 11
999.3881528022054
 21
398.8667035949106
 31
0.0
  0
ARC
  5
94F
102
{ACAD_REACTORS
330
EBA
102
}
330
A
100
AcDbEntity
  8
1
  6
Continuous
100
AcDbCircle
 10
-1805.632910061294
 20
426.5062519709107
 30
0.0
 40
2846.305706355499
100
AcDbArc
 50
359.2825615801999
 51
359.4436105877
  0
LINE
  5
950
102
{ACAD_REACTORS
330
EBA
102
}
330
A
100
AcDbEntity
  8
1
  6
Continuous
100
AcDbLine
 10
1021.696593762705
 20
390.8667035949106
 30
0.0
 11
1021.607660140705
 21
398.8667035949106
 31
0.0
  0
LINE
  5
951
102
{ACAD_REACTORS
330
EBA
102
}
330
A
100
AcDbEntity
  8
1
  6
Continuous
100
AcDbLine
 10
995.7292736087056
 20
398.8667035949106
 30
0.0
 11
994.2481269707052
 21
390.8667035949106
 31
0.0
  0
LINE
  5
952
102
{ACAD_REACTORS
330
EBA
102
}
330
A
100
AcDbEntity
  8
1
  6
Continuous
100
AcDbLine
 10
1067.898126970705
 20
390.8667035949106
 30
0.0
 11
1066.416980332705
 21
398.8667035949106
 31
0.0
  0
LINE
  5
953
102
{ACAD_REACTORS
330
EBA
102
}
330
A
100
AcDbEntity
  8
1
  6
Continuous
100
AcDbLine
 10
1040.449660178705
 20
390.8667035949106
 30
0.0
 11
1050.482123972705
 21
390.8667035949106
 31
0.0
  0
LINE
  5
954
102
{ACAD_REACTORS
330
EBA
102
}
330
A
100
AcDbEntity
  8
1
  6
Continuous
100
AcDbLine
 10
1066.416980332705
 20
398.8667035949106
 30
0.0
 11
1062.758101139205
 21
398.8667035949106
 31
0.0
  0
LINE
  5
955
102
{ACAD_REACTORS
330
EBA
102
}
330
A
100
AcDbEntity
  8
1
  6
Continuous
100
AcDbLine
 10
1063.742544403205
 20
390.8667035949106
 30
0.0
 11
1067.898126970705
 21
390.8667035949106
 31
0.0
  0
LINE
  5
956
102
{ACAD_REACTORS
330
EBA
102
}
330
A
100
AcDbEntity
  8
1
  6
Continuous
100
AcDbLine
 10
1003.061770498705
 20
402.8667035949106
 30
0.0
 11
1059.084483443205
 21
402.8667035949106
 31
0.0
  0
LINE
  5
958
102
{ACAD_REACTORS
330
CC9
330
EBA
102
}
330
A
100
AcDbEntity
  8
1
  6
Continuous
100
AcDbLine
 10
579.0731269707053
 20
385.8667035949106
 30
0.0
 11
603.0731269707057
 21
385.8667035949106
 31
0.0
  0
LINE
  5
95A
102
{ACAD_REACTORS
330
EBA
102
}
330
A
100
AcDbEntity
  8
1
  6
Continuous
100
AcDbLine
 10
602.0731269707057
 20
406.8667035949107
 30
0.0
 11
580.0731269707052
 21
406.8667035949107
 31
0.0
  0
LINE
  5
95B
102
{ACAD_REACTORS
330
EBA
102
}
330
A
100
AcDbEntity
  8
1
  6
Continuous
100
AcDbLine
 10
580.0731269707052
 20
406.8667035949107
 30
0.0
 11
577.0731269707057
 21
402.8667035949106
 31
0.0
  0
ARC
  5
95C
102
{ACAD_REACTORS
330
EBA
102
}
330
A
100
AcDbEntity
  8
1
  6
Continuous
100
AcDbCircle
 10
579.0731269707053
 20
387.8667035949106
 30
0.0
 40
2.0
100
AcDbArc
 50
180.0
 51
270.0
  0
LINE
  5
95D
102
{ACAD_REACTORS
330
EBA
102
}
330
A
100
AcDbEntity
  8
1
  6
Continuous
100
AcDbLine
 10
563.0617704987056
 20
402.8667035949106
 30
0.0
 11
557.7489497912057
 21
400.3892946124107
 31
0.0
  0
LINE
  5
95E
102
{ACAD_REACTORS
330
EBA
102
}
330
A
100
AcDbEntity
  8
1
  6
Continuous
100
AcDbLine
 10
577.0731269707057
 20
390.8667035949106
 30
0.0
 11
577.0731269707057
 21
387.8667035949106
 31
0.0
  0
LINE
  5
95F
102
{ACAD_REACTORS
330
EBA
102
}
330
A
100
AcDbEntity
  8
1
  6
Continuous
100
AcDbLine
 10
605.0731269707052
 20
402.8667035949106
 30
0.0
 11
602.0731269707057
 21
406.8667035949107
 31
0.0
  0
ARC
  5
960
102
{ACAD_REACTORS
330
EBA
102
}
330
A
100
AcDbEntity
  8
1
  6
Continuous
100
AcDbCircle
 10
603.0731269707057
 20
387.8667035949106
 30
0.0
 40
2.0
100
AcDbArc
 50
270.0
 51
0.0
  0
LINE
  5
961
102
{ACAD_REACTORS
330
EBA
102
}
330
A
100
AcDbEntity
  8
1
  6
Continuous
100
AcDbLine
 10
624.3973041502057
 20
400.3892946124107
 30
0.0
 11
619.0844834432052
 21
402.8667035949106
 31
0.0
  0
LINE
  5
962
102
{ACAD_REACTORS
330
EBA
102
}
330
A
100
AcDbEntity
  8
1
  6
Continuous
100
AcDbLine
 10
605.0731269707052
 20
387.8667035949106
 30
0.0
 11
605.0731269707052
 21
390.8667035949106
 31
0.0
  0
LINE
  5
963
102
{ACAD_REACTORS
330
EBA
102
}
330
A
100
AcDbEntity
  8
1
  6
Continuous
100
AcDbLine
 10
581.6076601407058
 20
398.8667035949106
 30
0.0
 11
572.7743443682056
 21
398.8667035949106
 31
0.0
  0
LINE
  5
964
102
{ACAD_REACTORS
330
EBA
102
}
330
A
100
AcDbEntity
  8
1
  6
Continuous
100
AcDbLine
 10
609.3719095737052
 20
398.8667035949106
 30
0.0
 11
600.5385938012052
 21
398.8667035949106
 31
0.0
  0
LINE
  5
965
102
{ACAD_REACTORS
330
EBA
102
}
330
A
100
AcDbEntity
  8
1
  6
Continuous
100
AcDbLine
 10
559.3881528022056
 20
398.8667035949106
 30
0.0
 11
555.7292736087057
 21
398.8667035949106
 31
0.0
  0
LINE
  5
966
102
{ACAD_REACTORS
330
D02
330
D1A
330
EBA
102
}
330
A
100
AcDbEntity
  8
1
  6
Continuous
100
AcDbLine
 10
600.4496601787057
 20
390.8667035949106
 30
0.0
 11
581.6965937627053
 21
390.8667035949106
 31
0.0
  0
LINE
  5
967
102
{ACAD_REACTORS
330
EBA
102
}
330
A
100
AcDbEntity
  8
1
  6
Continuous
100
AcDbLine
 10
571.6641299692053
 20
390.8667035949106
 30
0.0
 11
558.4037095382057
 21
390.8667035949106
 31
0.0
  0
LINE
  5
968
102
{ACAD_REACTORS
330
EBA
102
}
330
A
100
AcDbEntity
  8
1
  6
Continuous
100
AcDbLine
 10
623.7425444032058
 20
390.8667035949106
 30
0.0
 11
610.4821239727052
 21
390.8667035949106
 31
0.0
  0
LINE
  5
969
102
{ACAD_REACTORS
330
EBA
102
}
330
A
100
AcDbEntity
  8
1
  6
Continuous
100
AcDbLine
 10
571.6641299692053
 20
390.8667035949106
 30
0.0
 11
581.6965937627053
 21
390.8667035949106
 31
0.0
  0
LINE
  5
96A
102
{ACAD_REACTORS
330
EBA
102
}
330
A
100
AcDbEntity
  8
1
  6
Continuous
100
AcDbLine
 10
554.2481269707057
 20
390.8667035949106
 30
0.0
 11
558.4037095382057
 21
390.8667035949106
 31
0.0
  0
ARC
  5
96B
102
{ACAD_REACTORS
330
EBA
102
}
330
A
100
AcDbEntity
  8
1
  6
Continuous
100
AcDbCircle
 10
591.0731269707053
 20
370.1556709994106
 30
0.0
 40
30.23108425149999
100
AcDbArc
 50
71.75362123219996
 51
108.2463787678
  0
SPLINE
  5
96C
102
{ACAD_REACTORS
330
EBA
102
}
330
A
100
AcDbEntity
  8
1
  6
Continuous
100
AcDbSpline
210
0.0
220
0.0
230
1.0
 70
     8
 71
     3
 72
    21
 73
    17
 74
     0
 42
0.0000000001
 43
0.0000000001
 40
0.0
 40
0.0
 40
0.0
 40
0.0
 40
0.2500000000000004
 40
0.2500000000000004
 40
0.3125000000000003
 40
0.3125000000000003
 40
0.3750000000000002
 40
0.3750000000000002
 40
0.5
 40
0.625
 40
0.625
 40
0.6875
 40
0.6875
 40
0.75
 40
0.75
 40
1.0
 40
1.0
 40
1.0
 40
1.0
 10
572.7743443680196
 20
398.8667035947952
 30
0.0
 10
572.2011678467992
 20
399.3348897639921
 30
0.0
 10
571.4817634698593
 20
399.7156132786415
 30
0.0
 10
570.3814024222017
 20
400.0475281400842
 30
0.0
 10
570.1511610200356
 20
400.1066450253818
 30
0.0
 10
569.6693877799567
 20
400.2092140803517
 30
0.0
 10
569.4175099323627
 20
400.2526215857701
 30
0.0
 10
568.6411250983952
 20
400.3563024278002
 30
0.0
 10
567.5434881101226
 20
400.4255371423132
 30
0.0
 10
566.322954932876
 20
400.3564410445935
 30
0.0
 10
565.3609267868212
 20
400.2531001380456
 30
0.0
 10
565.0313493014087
 20
400.2098933393656
 30
0.0
 10
564.3618386095256
 20
400.1072891646604
 30
0.0
 10
564.0230968884249
 20
400.04813515618
 30
0.0
 10
562.3101098747761
 20
399.7159860167292
 30
0.0
 10
560.8787817807523
 20
399.3349425492132
 30
0.0
 10
559.3881528024334
 20
398.8667035947952
 30
0.0
  0
SPLINE
  5
96D
102
{ACAD_REACTORS
330
EBA
102
}
330
A
100
AcDbEntity
  8
1
  6
Continuous
100
AcDbSpline
210
0.0
220
0.0
230
1.0
 70
     8
 71
     3
 72
    15
 73
    11
 74
     0
 42
0.0000000001
 43
0.0000000001
 40
0.0
 40
0.0
 40
0.0
 40
0.0
 40
0.25
 40
0.25
 40
0.3125
 40
0.3125
 40
0.3749999999999999
 40
0.3749999999999999
 40
0.5
 40
0.5000635922576428
 40
0.5000635922576428
 40
0.5000635922576428
 40
0.5000635922576428
 10
555.7292736087454
 20
398.8667035947952
 30
0.0
 10
556.37789163989
 20
399.3348897639921
 30
0.0
 10
556.8805925351345
 20
399.7156132786415
 30
0.0
 10
557.3122617783032
 20
400.0475281400842
 30
0.0
 10
557.3886463559809
 20
400.1066450253818
 30
0.0
 10
557.5206612866765
 20
400.2092140803517
 30
0.0
 10
557.5762345186826
 20
400.2526215857701
 30
0.0
 10
557.7086601906235
 20
400.3563024278002
 30
0.0
 10
557.7524876443833
 20
400.3909374098792
 30
0.0
 10
557.7525091739103
 20
400.3909544792128
 30
0.0
 10
557.7525091735317
 20
400.3909544789417
 30
0.0
  0
SPLINE
  5
96E
102
{ACAD_REACTORS
330
EBA
102
}
330
A
100
AcDbEntity
  8
1
  6
Continuous
100
AcDbSpline
210
0.0
220
0.0
230
1.0
 70
     8
 71
     3
 72
    14
 73
    10
 74
     0
 42
0.0000000001
 43
0.0000000001
 40
0.5000635921715398
 40
0.5000635921715398
 40
0.5000635921715398
 40
0.5000635921715398
 40
0.6250000000000006
 40
0.6250000000000006
 40
0.6875000000000006
 40
0.6875000000000006
 40
0.7500000000000005
 40
0.7500000000000005
 40
1.0
 40
1.0
 40
1.0
 40
1.0
 10
624.3937443725677
 20
400.3909544652932
 30
0.0
 10
624.3937451171667
 20
400.3909539327969
 30
0.0
 10
624.4374633893417
 20
400.3564059956728
 30
0.0
 10
624.5694072424166
 20
400.2531001380456
 30
0.0
 10
624.6247209929212
 20
400.2098933393656
 30
0.0
 10
624.7567759569232
 20
400.1072891646604
 30
0.0
 10
624.8332055581681
 20
400.04813515618
 30
0.0
 10
625.2651653251797
 20
399.7159860167292
 30
0.0
 10
625.7682891738522
 20
399.3349425492132
 30
0.0
 10
626.4169803328432
 20
398.8667035947952
 30
0.0
  0
SPLINE
  5
96F
102
{ACAD_REACTORS
330
EBA
102
}
330
A
100
AcDbEntity
  8
1
  6
Continuous
100
AcDbSpline
210
0.0
220
0.0
230
1.0
 70
     8
 71
     3
 72
    21
 73
    17
 74
     0
 42
0.0000000001
 43
0.0000000001
 40
0.0
 40
0.0
 40
0.0
 40
0.0
 40
0.2499999999999991
 40
0.2499999999999991
 40
0.3124999999999991
 40
0.3124999999999991
 40
0.3749999999999989
 40
0.3749999999999989
 40
0.499999999999999
 40
0.6249999999999992
 40
0.6249999999999992
 40
0.6874999999999992
 40
0.6874999999999992
 40
0.7499999999999993
 40
0.7499999999999993
 40
1.0
 40
1.0
 40
1.0
 40
1.0
 10
622.7581011391546
 20
398.8667035947952
 30
0.0
 10
621.2676402014901
 20
399.3348897639922
 30
0.0
 10
619.8373094006782
 20
399.7156132786415
 30
0.0
 10
618.1264758548727
 20
400.0475281400842
 30
0.0
 10
617.7882103469987
 20
400.1066450253818
 30
0.0
 10
617.1197398014942
 20
400.2092140803517
 30
0.0
 10
616.7892695354916
 20
400.2526215857701
 30
0.0
 10
615.8256065202593
 20
400.3563024278002
 30
0.0
 10
614.6040692485621
 20
400.4255371696102
 30
0.0
 10
613.5071886882546
 20
400.3564410445935
 30
0.0
 10
612.7318206360002
 20
400.2531001380456
 30
0.0
 10
612.4804686067362
 20
400.2098933393656
 30
0.0
 10
611.9977118359242
 20
400.1072891646604
 30
0.0
 10
611.7670578934706
 20
400.04813515618
 30
0.0
 10
610.6649542407287
 20
399.7159860167292
 30
0.0
 10
609.9451507170511
 20
399.3349425492132
 30
0.0
 10
609.3719095735687
 20
398.8667035947952
 30
0.0
  0
ARC
  5
970
102
{ACAD_REACTORS
330
EBA
102
}
330
A
100
AcDbEntity
  8
1
  6
Continuous
100
AcDbCircle
 10
-3529.825497801294
 20
964.1353448834101
 30
0.0
 40
4141.358967995
100
AcDbArc
 50
352.043267639
 51
352.1550085196
  0
LINE
  5
971
102
{ACAD_REACTORS
330
EBA
102
}
330
A
100
AcDbEntity
  8
1
  6
Continuous
100
AcDbLine
 10
610.4821239727052
 20
390.8667035949106
 30
0.0
 11
609.3719095737052
 21
398.8667035949106
 31
0.0
  0
LINE
  5
972
102
{ACAD_REACTORS
330
EBA
102
}
330
A
100
AcDbEntity
  8
1
  6
Continuous
100
AcDbLine
 10
558.4037095382057
 20
390.8667035949106
 30
0.0
 11
559.3881528022056
 21
398.8667035949106
 31
0.0
  0
ARC
  5
973
102
{ACAD_REACTORS
330
EBA
102
}
330
A
100
AcDbEntity
  8
1
  6
Continuous
100
AcDbCircle
 10
-3462.225575123293
 20
-107.8731999990892
 30
0.0
 40
4116.29408148
100
AcDbArc
 50
6.95919038909999
 51
7.071384439799992
  0
LINE
  5
974
102
{ACAD_REACTORS
330
EBA
102
}
330
A
100
AcDbEntity
  8
1
  6
Continuous
100
AcDbLine
 10
581.6965937627053
 20
390.8667035949106
 30
0.0
 11
581.6076601407058
 21
398.8667035949106
 31
0.0
  0
ARC
  5
975
102
{ACAD_REACTORS
330
EBA
102
}
330
A
100
AcDbEntity
  8
1
  6
Continuous
100
AcDbCircle
 10
-2245.632910061294
 20
426.5062519709107
 30
0.0
 40
2846.305706355499
100
AcDbArc
 50
359.2825615801999
 51
359.4436105877
  0
LINE
  5
976
102
{ACAD_REACTORS
330
EBA
102
}
330
A
100
AcDbEntity
  8
1
  6
Continuous
100
AcDbLine
 10
555.7292736087057
 20
398.8667035949106
 30
0.0
 11
554.2481269707057
 21
390.8667035949106
 31
0.0
  0
LINE
  5
977
102
{ACAD_REACTORS
330
EBA
102
}
330
A
100
AcDbEntity
  8
1
  6
Continuous
100
AcDbLine
 10
627.8981269707053
 20
390.8667035949106
 30
0.0
 11
626.4169803327052
 21
398.8667035949106
 31
0.0
  0
LINE
  5
978
102
{ACAD_REACTORS
330
EBA
102
}
330
A
100
AcDbEntity
  8
1
  6
Continuous
100
AcDbLine
 10
600.4496601787057
 20
390.8667035949106
 30
0.0
 11
610.4821239727052
 21
390.8667035949106
 31
0.0
  0
LINE
  5
979
102
{ACAD_REACTORS
330
EBA
102
}
330
A
100
AcDbEntity
  8
1
  6
Continuous
100
AcDbLine
 10
626.4169803327052
 20
398.8667035949106
 30
0.0
 11
622.7581011392052
 21
398.8667035949106
 31
0.0
  0
LINE
  5
97A
102
{ACAD_REACTORS
330
EBA
102
}
330
A
100
AcDbEntity
  8
1
  6
Continuous
100
AcDbLine
 10
623.7425444032058
 20
390.8667035949106
 30
0.0
 11
627.8981269707053
 21
390.8667035949106
 31
0.0
  0
LINE
  5
97B
102
{ACAD_REACTORS
330
EBA
102
}
330
A
100
AcDbEntity
  8
1
  6
Continuous
100
AcDbLine
 10
563.0617704987056
 20
402.8667035949106
 30
0.0
 11
619.0844834432052
 21
402.8667035949106
 31
0.0
  0
LINE
  5
97C
102
{ACAD_REACTORS
330
EBA
102
}
330
A
100
AcDbEntity
  8
1
  6
Continuous
100
AcDbLine
 10
561.1537117812056
 20
434.2687674559106
 30
0.0
 11
561.1537117812056
 21
433.0667035949106
 31
0.0
  0
LINE
  5
97D
102
{ACAD_REACTORS
330
EBA
102
}
330
A
100
AcDbEntity
  8
1
  6
Continuous
100
AcDbLine
 10
560.0166315787057
 20
433.3294434364106
 30
0.0
 11
560.0166315787057
 21
433.0667035949106
 31
0.0
  0
LINE
  5
97E
102
{ACAD_REACTORS
330
EBA
102
}
330
A
100
AcDbEntity
  8
1
  6
Continuous
100
AcDbLine
 10
562.2731269707056
 20
434.6667035949105
 30
0.0
 11
562.2731269707056
 21
433.0667035949106
 31
0.0
  0
LINE
  5
97F
102
{ACAD_REACTORS
330
EBA
102
}
330
A
100
AcDbEntity
  8
1
  6
Continuous
100
AcDbLine
 10
561.1537117812056
 20
434.2687674559106
 30
0.0
 11
561.1537117812056
 21
433.0667035949106
 31
0.0
  0
LINE
  5
980
102
{ACAD_REACTORS
330
EBA
102
}
330
A
100
AcDbEntity
  8
1
  6
Continuous
100
AcDbLine
 10
560.0166315787057
 20
433.3294434364106
 30
0.0
 11
560.0166315787057
 21
433.0667035949106
 31
0.0
  0
LINE
  5
981
102
{ACAD_REACTORS
330
EBA
102
}
330
A
100
AcDbEntity
  8
1
  6
Continuous
100
AcDbLine
 10
563.2731269707058
 20
434.6667035949105
 30
0.0
 11
562.2731269707056
 21
434.6667035949105
 31
0.0
  0
LINE
  5
982
102
{ACAD_REACTORS
330
EBA
102
}
330
A
100
AcDbEntity
  8
1
  6
Continuous
100
AcDbLine
 10
562.2731269707056
 20
434.3667035949106
 30
0.0
 11
561.1537117812056
 21
434.2687674559106
 31
0.0
  0
ARC
  5
983
102
{ACAD_REACTORS
330
EBA
102
}
330
A
100
AcDbEntity
  8
1
  6
Continuous
100
AcDbCircle
 10
568.6731269707056
 20
430.8667035949105
 30
0.0
 40
9.0
100
AcDbArc
 50
164.1191499917
 51
165.8509954911
  0
LINE
  5
984
102
{ACAD_REACTORS
330
EBA
102
}
330
A
100
AcDbEntity
  8
1
  6
Continuous
100
AcDbLine
 10
563.2731269707058
 20
435.7667035949106
 30
0.0
 11
563.2731269707058
 21
433.0667035949106
 31
0.0
  0
ARC
  5
985
102
{ACAD_REACTORS
330
EBA
102
}
330
A
100
AcDbEntity
  8
1
  6
Continuous
100
AcDbCircle
 10
561.2670142467057
 20
432.9737143484106
 30
0.0
 40
1.3
100
AcDbArc
 50
94.99999999999996
 51
164.1191499917
  0
LINE
  5
986
102
{ACAD_REACTORS
330
EBA
102
}
330
A
100
AcDbEntity
  8
1
  6
Continuous
100
AcDbLine
 10
564.0731269707057
 20
435.7667035949106
 30
0.0
 11
563.2731269707058
 21
435.7667035949106
 31
0.0
  0
LINE
  5
987
102
{ACAD_REACTORS
330
EBA
102
}
330
A
100
AcDbEntity
  8
1
  6
Continuous
100
AcDbLine
 10
566.0731269707057
 20
436.8667035949107
 30
0.0
 11
564.0731269707057
 21
436.8667035949107
 31
0.0
  0
LINE
  5
988
102
{ACAD_REACTORS
330
EBA
102
}
330
A
100
AcDbEntity
  8
1
  6
Continuous
100
AcDbLine
 10
564.0731269707057
 20
436.8667035949107
 30
0.0
 11
564.0731269707057
 21
441.8667035949106
 31
0.0
  0
LINE
  5
989
102
{ACAD_REACTORS
330
EBA
102
}
330
A
100
AcDbEntity
  8
1
  6
Continuous
100
AcDbLine
 10
564.0731269707057
 20
441.8667035949106
 30
0.0
 11
566.0731269707057
 21
441.8667035949106
 31
0.0
  0
LINE
  5
98A
102
{ACAD_REACTORS
330
EBA
102
}
330
A
100
AcDbEntity
  8
1
  6
Continuous
100
AcDbLine
 10
564.0731269707057
 20
436.8667035949107
 30
0.0
 11
564.0731269707057
 21
433.0667035949106
 31
0.0
  0
LINE
  5
98B
102
{ACAD_REACTORS
330
D62
330
D96
330
EBA
102
}
330
A
100
AcDbEntity
  8
1
  6
Continuous
100
AcDbLine
 10
1031.073126970705
 20
513.7667035949106
 30
0.0
 11
1064.573126970705
 21
513.7667035949106
 31
0.0
  0
LINE
  5
98C
102
{ACAD_REACTORS
330
EBA
102
}
330
A
100
AcDbEntity
  8
1
  6
Continuous
100
AcDbLine
 10
546.0731269707057
 20
443.7667035949107
 30
0.0
 11
546.0731269707057
 21
502.2667035949107
 31
0.0
  0
LINE
  5
98D
102
{ACAD_REACTORS
330
EBA
102
}
330
A
100
AcDbEntity
  8
1
  6
Continuous
100
AcDbLine
 10
1076.073126970705
 20
502.2667035949107
 30
0.0
 11
1076.073126970705
 21
443.7667035949107
 31
0.0
  0
ARC
  5
98E
102
{ACAD_REACTORS
330
EBA
102
}
330
A
100
AcDbEntity
  8
1
  6
Continuous
100
AcDbCircle
 10
1064.573126970705
 20
502.2667035949107
 30
0.0
 40
11.49999999999999
100
AcDbArc
 50
0.0
 51
90.0
  0
ARC
  5
990
102
{ACAD_REACTORS
330
CEA
330
EBA
102
}
330
A
100
AcDbEntity
  8
1
  6
Continuous
100
AcDbCircle
 10
557.5731269707057
 20
502.2667035949107
 30
0.0
 40
11.49999999999999
100
AcDbArc
 50
90.0
 51
180.0
  0
LINE
  5
992
102
{ACAD_REACTORS
330
EBA
102
}
330
A
100
AcDbEntity
  8
1
  6
Continuous
100
AcDbLine
 10
591.0731269707053
 20
443.7667035949107
 30
0.0
 11
1031.073126970705
 21
443.7667035949107
 31
0.0
  0
LINE
  5
993
102
{ACAD_REACTORS
330
EBA
102
}
330
A
100
AcDbEntity
  8
1
  6
Continuous
100
AcDbLine
 10
1076.073126970705
 20
443.7667035949107
 30
0.0
 11
1031.073126970705
 21
443.7667035949107
 31
0.0
  0
LINE
  5
994
102
{ACAD_REACTORS
330
EBA
102
}
330
A
100
AcDbEntity
  8
1
  6
Continuous
100
AcDbLine
 10
591.0731269707053
 20
443.7667035949107
 30
0.0
 11
546.0731269707057
 21
443.7667035949107
 31
0.0
  0
LINE
  5
997
102
{ACAD_REACTORS
330
EBA
102
}
330
A
100
AcDbEntity
  8
1
  6
Continuous
100
AcDbLine
 10
591.0731269707053
 20
513.7667035949106
 30
0.0
 11
1031.073126970705
 21
513.7667035949106
 31
0.0
  0
LINE
  5
998
102
{ACAD_REACTORS
330
EBA
102
}
330
A
100
AcDbEntity
  8
1
  6
Continuous
100
AcDbLine
 10
557.5731269707057
 20
513.7667035949106
 30
0.0
 11
591.0731269707053
 21
513.7667035949106
 31
0.0
  0
LINE
  5
99C
102
{ACAD_REACTORS
330
D3B
330
EBA
102
}
330
A
100
AcDbEntity
  8
1
  6
Continuous
100
AcDbLine
 10
401.2731269707058
 20
996.1349913954105
 30
0.0
 11
401.2731269707058
 21
533.0667035949106
 31
0.0
  0
LINE
  5
99D
102
{ACAD_REACTORS
330
D3B
330
EBA
102
}
330
A
100
AcDbEntity
  8
1
  6
Continuous
100
AcDbLine
 10
361.2731269707057
 20
1031.06670359491
 30
0.0
 11
361.2731269707057
 21
533.0667035949106
 31
0.0
  0
ARC
  5
99E
102
{ACAD_REACTORS
330
EBA
102
}
330
A
100
AcDbEntity
  8
1
  6
Continuous
100
AcDbCircle
 10
501.2731269707058
 20
533.0667035949106
 30
0.0
 40
100.0
100
AcDbArc
 50
180.0
 51
270.0
  0
ARC
  5
99F
102
{ACAD_REACTORS
330
EBA
102
}
330
A
100
AcDbEntity
  8
1
  6
Continuous
100
AcDbCircle
 10
501.2731269707058
 20
533.0667035949106
 30
0.0
 40
140.0
100
AcDbArc
 50
180.0
 51
270.0
  0
LINE
  5
9A0
102
{ACAD_REACTORS
330
EBA
102
}
330
A
100
AcDbEntity
  8
1
  6
Continuous
100
AcDbLine
 10
501.2731269707058
 20
393.0667035949106
 30
0.0
 11
554.6554422962056
 21
393.0667035949106
 31
0.0
  0
LINE
  5
9A1
102
{ACAD_REACTORS
330
EBA
102
}
330
A
100
AcDbEntity
  8
1
  6
Continuous
100
AcDbLine
 10
627.4908116452052
 20
393.0667035949106
 30
0.0
 11
661.2731269707057
 21
393.0667035949106
 31
0.0
  0
LINE
  5
9A2
102
{ACAD_REACTORS
330
EBA
102
}
330
A
100
AcDbEntity
  8
1
  6
Continuous
100
AcDbLine
 10
566.0731269707057
 20
433.0667035949106
 30
0.0
 11
501.2731269707058
 21
433.0667035949106
 31
0.0
  0
LINE
  5
9A3
102
{ACAD_REACTORS
330
EBA
102
}
330
A
100
AcDbEntity
  8
1
  6
Continuous
100
AcDbLine
 10
661.2731269707057
 20
414.8667035949106
 30
0.0
 11
661.2731269707057
 21
393.0667035949106
 31
0.0
  0
LINE
  5
9A4
102
{ACAD_REACTORS
330
EBA
102
}
330
A
100
AcDbEntity
  8
1
  6
Continuous
100
AcDbLine
 10
398.7731269707058
 20
1044.06670359491
 30
0.0
 11
398.7731269707058
 21
1040.81106289991
 31
0.0
  0
LINE
  5
9A5
102
{ACAD_REACTORS
330
EBA
102
}
330
A
100
AcDbEntity
  8
1
  6
Continuous
100
AcDbLine
 10
379.7731269707057
 20
1044.06670359491
 30
0.0
 11
379.7731269707057
 21
1040.81106289991
 31
0.0
  0
CIRCLE
  5
9A7
102
{ACAD_REACTORS
330
EBA
102
}
330
A
100
AcDbEntity
  8
1
  6
Continuous
100
AcDbCircle
 10
389.2731269707057
 20
1018.06670359491
 30
0.0
 40
24.01333093199999
  0
ARC
  5
9A8
102
{ACAD_REACTORS
330
EBA
102
}
330
A
100
AcDbEntity
  8
1
  6
Continuous
100
AcDbCircle
 10
389.2731269707057
 20
1018.06670359491
 30
0.0
 40
24.6486486485
100
AcDbArc
 50
65.81031786640001
 51
114.1896821335999
  0
LINE
  5
9A9
102
{ACAD_REACTORS
330
EBA
102
}
330
A
100
AcDbEntity
  8
1
  6
Continuous
100
AcDbLine
 10
379.1731269707057
 20
1040.93567821091
 30
0.0
 11
379.1731269707057
 21
1040.55105104391
 31
0.0
  0
CIRCLE
  5
9AB
102
{ACAD_REACTORS
330
EBA
102
}
330
A
100
AcDbEntity
  8
1
  6
Continuous
100
AcDbCircle
 10
389.2731269707057
 20
1018.06670359491
 30
0.0
 40
22.5
  0
ARC
  5
9AC
102
{ACAD_REACTORS
330
EBA
102
}
330
A
100
AcDbEntity
  8
1
  6
Continuous
100
AcDbCircle
 10
389.2731269707057
 20
1018.06670359491
 30
0.0
 40
25.0
100
AcDbArc
 50
113.8284771643999
 51
66.17152283559994
  0
LINE
  5
9AD
102
{ACAD_REACTORS
330
EBA
102
}
330
A
100
AcDbEntity
  8
1
  6
Continuous
100
AcDbLine
 10
399.3731269707057
 20
1040.55105104391
 30
0.0
 11
399.3731269707057
 21
1040.93567821091
 31
0.0
  0
LINE
  5
9AE
102
{ACAD_REACTORS
330
EBA
102
}
330
A
100
AcDbEntity
  8
1
  6
Continuous
100
AcDbLine
 10
661.2731269707057
 20
393.5667035949106
 30
0.0
 11
661.2731269707057
 21
414.8667035949106
 31
0.0
  0
LINE
  5
9B1
102
{ACAD_REACTORS
330
EBA
102
}
330
A
100
AcDbEntity
  8
1
  6
Continuous
100
AcDbLine
 10
665.2731269707057
 20
414.8667035949106
 30
0.0
 11
665.2731269707057
 21
395.0667035949106
 31
0.0
  0
LINE
  5
9B3
102
{ACAD_REACTORS
330
EBA
102
}
330
A
100
AcDbEntity
  8
1
  6
Continuous
100
AcDbLine
 10
663.2731269707057
 20
393.0667035949106
 30
0.0
 11
661.2731269707057
 21
393.0667035949106
 31
0.0
  0
ARC
  5
9B5
102
{ACAD_REACTORS
330
EBA
102
}
330
A
100
AcDbEntity
  8
1
  6
Continuous
100
AcDbCircle
 10
663.2731269707057
 20
395.0667035949106
 30
0.0
 40
2.0
100
AcDbArc
 50
270.0
 51
0.0
  0
LINE
  5
9B6
102
{ACAD_REACTORS
330
EBA
102
}
330
A
100
AcDbEntity
  8
1
  6
Continuous
100
AcDbLine
 10
411.5195924617057
 20
1031.06670359491
 30
0.0
 11
413.7731269707058
 21
1074.06670359491
 31
0.0
  0
LINE
  5
9B7
102
{ACAD_REACTORS
330
EBA
102
}
330
A
100
AcDbEntity
  8
1
  6
Continuous
100
AcDbLine
 10
399.4532994907057
 20
1044.06670359491
 30
0.0
 11
379.0929544507056
 21
1044.06670359491
 31
0.0
  0
LINE
  5
9B8
102
{ACAD_REACTORS
330
EBA
102
}
330
A
100
AcDbEntity
  8
1
  6
Continuous
100
AcDbLine
 10
400.4519290257056
 20
1044.06670359491
 30
0.0
 11
399.4532994907057
 21
1044.06670359491
 31
0.0
  0
LINE
  5
9BC
102
{ACAD_REACTORS
330
EBA
102
}
330
A
100
AcDbEntity
  8
1
  6
Continuous
100
AcDbLine
 10
379.0929544507056
 20
1044.06670359491
 30
0.0
 11
378.0943249162057
 21
1044.06670359491
 31
0.0
  0
ARC
  5
9C3
102
{ACAD_REACTORS
330
EBA
102
}
330
A
100
AcDbEntity
  8
1
  6
Continuous
100
AcDbCircle
 10
332.1427261177057
 20
1076.06670359491
 30
0.0
 40
2.0
100
AcDbArc
 50
183.0
 51
270.0
  0
ARC
  5
9C5
102
{ACAD_REACTORS
330
EBA
102
}
330
A
100
AcDbEntity
  8
1
  6
Continuous
100
AcDbCircle
 10
423.4035278237056
 20
1076.06670359491
 30
0.0
 40
2.0
100
AcDbArc
 50
270.0
 51
357.0
  0
LINE
  5
9C6
102
{ACAD_REACTORS
330
EBA
102
}
330
A
100
AcDbEntity
  8
1
  6
Continuous
100
AcDbLine
 10
423.4035278237056
 20
1074.06670359491
 30
0.0
 11
332.1427261177057
 21
1074.06670359491
 31
0.0
  0
LINE
  5
9C7
102
{ACAD_REACTORS
330
EBA
102
}
330
A
100
AcDbEntity
  8
1
  6
Continuous
100
AcDbLine
 10
330.1454670482056
 20
1075.96203168241
 30
0.0
 11
329.7731269707057
 21
1083.06670359491
 31
0.0
  0
LINE
  5
9C8
102
{ACAD_REACTORS
330
EBA
102
}
330
A
100
AcDbEntity
  8
1
  6
Continuous
100
AcDbLine
 10
425.7731269707057
 20
1083.06670359491
 30
0.0
 11
425.4007868932056
 21
1075.96203168241
 31
0.0
  0
LINE
  5
9CC
102
{ACAD_REACTORS
330
EBA
102
}
330
A
100
AcDbEntity
  8
1
  6
Continuous
100
AcDbLine
 10
402.9731269707057
 20
1074.06670359491
 30
0.0
 11
401.4505585602057
 21
1045.01436763841
 31
0.0
  0
LINE
  5
9CF
102
{ACAD_REACTORS
330
EBA
102
}
330
A
100
AcDbEntity
  8
1
  6
Continuous
100
AcDbLine
 10
377.0956953812056
 20
1045.01436763841
 30
0.0
 11
375.5731269707057
 21
1074.06670359491
 31
0.0
  0
LINE
  5
9D0
102
{ACAD_REACTORS
330
EBA
102
}
330
A
100
AcDbEntity
  8
1
  6
Continuous
100
AcDbLine
 10
357.6483822857056
 20
1031.06670359491
 30
0.0
 11
357.2731269707057
 21
1074.06670359491
 31
0.0
  0
LINE
  5
9D1
102
{ACAD_REACTORS
330
EBA
102
}
330
A
100
AcDbEntity
  8
1
  6
Continuous
100
AcDbLine
 10
367.9189704667057
 20
1031.06670359491
 30
0.0
 11
357.6483822857056
 21
1031.06670359491
 31
0.0
  0
LINE
  5
9D2
102
{ACAD_REACTORS
330
EBA
102
}
330
A
100
AcDbEntity
  8
1
  6
Continuous
100
AcDbLine
 10
410.6272834747057
 20
1031.06670359491
 30
0.0
 11
411.5195924617057
 21
1031.06670359491
 31
0.0
  0
ARC
  5
9D4
102
{ACAD_REACTORS
330
EBA
102
}
330
A
100
AcDbEntity
  8
1
  6
Continuous
100
AcDbCircle
 10
400.4519290257056
 20
1045.06670359491
 30
0.0
 40
1.0
100
AcDbArc
 50
270.0
 51
357.0
  0
ARC
  5
9D5
102
{ACAD_REACTORS
330
EBA
102
}
330
A
100
AcDbEntity
  8
1
  6
Continuous
100
AcDbCircle
 10
378.0943249162057
 20
1045.06670359491
 30
0.0
 40
1.0
100
AcDbArc
 50
183.0
 51
270.0
  0
LINE
  5
9D6
102
{ACAD_REACTORS
330
EBA
102
}
330
A
100
AcDbEntity
  8
1
  6
Continuous
100
AcDbLine
 10
342.0875736467057
 20
1068.06670359491
 30
0.0
 11
342.1661853152057
 21
1066.56670359491
 31
0.0
  0
LINE
  5
9D7
102
{ACAD_REACTORS
330
EBA
102
}
330
A
100
AcDbEntity
  8
1
  6
Continuous
100
AcDbLine
 10
342.5330397702057
 20
1059.56670359491
 30
0.0
 11
346.1863516757057
 21
989.8573597699108
 31
0.0
  0
ARC
  5
9DB
102
{ACAD_REACTORS
330
EBA
102
}
330
A
100
AcDbEntity
  8
1
  6
Continuous
100
AcDbCircle
 10
345.5362469767057
 20
1073.89032350741
 30
0.0
 40
3.7060507975
100
AcDbArc
 50
177.2721222517
 51
185.0095645472999
  0
LINE
  5
9DC
102
{ACAD_REACTORS
330
EBA
102
}
330
A
100
AcDbEntity
  8
1
  6
Continuous
100
AcDbLine
 10
342.0266496047056
 20
1062.56670359491
 30
0.0
 11
341.8751302597057
 21
1062.56670359491
 31
0.0
  0
LINE
  5
9DD
102
{ACAD_REACTORS
330
EBA
102
}
330
A
100
AcDbEntity
  8
1
  6
Continuous
100
AcDbLine
 10
341.8227224802056
 20
1063.56670359491
 30
0.0
 11
341.9741622577057
 21
1063.56670359491
 31
0.0
  0
ARC
  5
9DE
102
{ACAD_REACTORS
330
EBA
102
}
330
A
100
AcDbEntity
  8
1
  6
Continuous
100
AcDbCircle
 10
337.7321325647057
 20
1062.84267324891
 30
0.0
 40
4.303374938
100
AcDbArc
 50
356.3231755373
 51
9.685917262200014
  0
LINE
  5
9DF
102
{ACAD_REACTORS
330
EBA
102
}
330
A
100
AcDbEntity
  8
1
  6
Continuous
100
AcDbLine
 10
342.4756120297057
 20
1063.56670359491
 30
0.0
 11
341.9741622577057
 21
1063.56670359491
 31
0.0
  0
ARC
  5
9E0
102
{ACAD_REACTORS
330
EBA
102
}
330
A
100
AcDbEntity
  8
1
  6
Continuous
100
AcDbCircle
 10
338.2551719062057
 20
1062.84380298691
 30
0.0
 40
4.281903797
100
AcDbArc
 50
356.2895644044999
 51
9.719620417200015
  0
ARC
  5
9E1
102
{ACAD_REACTORS
330
EBA
102
}
330
A
100
AcDbEntity
  8
1
  6
Continuous
100
AcDbCircle
 10
337.8963742072057
 20
1059.84302799991
 30
0.0
 40
4.296632615999999
100
AcDbArc
 50
356.3126574461
 51
9.696464100099982
  0
LINE
  5
9E2
102
{ACAD_REACTORS
330
EBA
102
}
330
A
100
AcDbEntity
  8
1
  6
Continuous
100
AcDbLine
 10
342.6330767422056
 20
1060.56670359491
 30
0.0
 11
342.1316245507057
 21
1060.56670359491
 31
0.0
  0
LINE
  5
9E3
102
{ACAD_REACTORS
330
EBA
102
}
330
A
100
AcDbEntity
  8
1
  6
Continuous
100
AcDbLine
 10
342.1841121492056
 20
1059.56670359491
 30
0.0
 11
342.0323535972057
 21
1059.56670359491
 31
0.0
  0
LINE
  5
9E4
102
{ACAD_REACTORS
330
EBA
102
}
330
A
100
AcDbEntity
  8
1
  6
Continuous
100
AcDbLine
 10
341.9799458182056
 20
1060.56670359491
 30
0.0
 11
342.1316245507057
 21
1060.56670359491
 31
0.0
  0
LINE
  5
9E5
102
{ACAD_REACTORS
330
EBA
102
}
330
A
100
AcDbEntity
  8
1
  6
Continuous
100
AcDbLine
 10
342.5281001822056
 20
1062.56670359491
 30
0.0
 11
342.0266496047056
 21
1062.56670359491
 31
0.0
  0
ARC
  5
9E6
102
{ACAD_REACTORS
330
EBA
102
}
330
A
100
AcDbEntity
  8
1
  6
Continuous
100
AcDbCircle
 10
338.4194163042057
 20
1059.844157750909
 30
0.0
 40
4.275161609499999
100
AcDbArc
 50
356.2789400312999
 51
9.730273975400013
  0
LINE
  5
9E7
102
{ACAD_REACTORS
330
EBA
102
}
330
A
100
AcDbEntity
  8
1
  6
Continuous
100
AcDbLine
 10
341.8691878137057
 20
1065.56670359491
 30
0.0
 11
341.7179069217057
 21
1065.56670359491
 31
0.0
  0
ARC
  5
9E8
102
{ACAD_REACTORS
330
EBA
102
}
330
A
100
AcDbEntity
  8
1
  6
Continuous
100
AcDbCircle
 10
337.5678917792057
 20
1065.84231850091
 30
0.0
 40
4.3101173015
100
AcDbArc
 50
356.3336605832
 51
9.675403605300012
  0
LINE
  5
9E9
102
{ACAD_REACTORS
330
EBA
102
}
330
A
100
AcDbEntity
  8
1
  6
Continuous
100
AcDbLine
 10
342.3706359792057
 20
1065.56670359491
 30
0.0
 11
341.8691878137057
 21
1065.56670359491
 31
0.0
  0
ARC
  5
9EB
102
{ACAD_REACTORS
330
EBA
102
}
330
A
100
AcDbEntity
  8
1
  6
Continuous
100
AcDbCircle
 10
338.0909283777057
 20
1065.84344822741
 30
0.0
 40
4.288646027499999
100
AcDbArc
 50
356.3001552306
 51
9.709000544700007
  0
LINE
  5
9EC
102
{ACAD_REACTORS
330
EBA
102
}
330
A
100
AcDbEntity
  8
1
  6
Continuous
100
AcDbLine
 10
341.6654991422057
 20
1066.56670359491
 30
0.0
 11
341.8167007172056
 21
1066.56670359491
 31
0.0
  0
LINE
  5
9ED
102
{ACAD_REACTORS
330
EBA
102
}
330
A
100
AcDbEntity
  8
1
  6
Continuous
100
AcDbLine
 10
342.6855651502056
 20
1059.56670359491
 30
0.0
 11
342.1841121492056
 21
1059.56670359491
 31
0.0
  0
LINE
  5
9EE
102
{ACAD_REACTORS
330
EBA
102
}
330
A
100
AcDbEntity
  8
1
  6
Continuous
100
AcDbLine
 10
342.3181480812057
 20
1066.56670359491
 30
0.0
 11
341.8167007172056
 21
1066.56670359491
 31
0.0
  0
LINE
  5
9EF
102
{ACAD_REACTORS
330
EBA
102
}
330
A
100
AcDbEntity
  8
1
  6
Continuous
100
AcDbLine
 10
357.6483822857056
 20
1031.06670359491
 30
0.0
 11
359.7731269707057
 21
1031.06670359491
 31
0.0
  0
LINE
  5
9F0
102
{ACAD_REACTORS
330
EBA
102
}
330
A
100
AcDbEntity
  8
1
  6
Continuous
100
AcDbLine
 10
357.6483822857056
 20
1031.06670359491
 30
0.0
 11
357.2731269707057
 21
1074.06670359491
 31
0.0
  0
LINE
  5
9F4
102
{ACAD_REACTORS
330
EBA
102
}
330
A
100
AcDbEntity
  8
1
  6
Continuous
100
AcDbLine
 10
351.9703607522056
 20
986.0667035949107
 30
0.0
 11
350.1808698147056
 21
986.0667035949107
 31
0.0
  0
LINE
  5
9F5
102
{ACAD_REACTORS
330
EBA
102
}
330
A
100
AcDbEntity
  8
1
  6
Continuous
100
AcDbLine
 10
359.7731269707057
 20
986.0667035949107
 30
0.0
 11
351.9703607522056
 21
986.0667035949107
 31
0.0
  0
LINE
  5
9F9
102
{ACAD_REACTORS
330
EBA
102
}
330
A
100
AcDbEntity
  8
1
  6
Continuous
100
AcDbLine
 10
359.7731269707057
 20
1031.06670359491
 30
0.0
 11
359.7731269707057
 21
990.0317974529109
 31
0.0
  0
LINE
  5
9FA
102
{ACAD_REACTORS
330
EBA
102
}
330
A
100
AcDbEntity
  8
1
  6
Continuous
100
AcDbLine
 10
359.7731269707057
 20
986.0667035949107
 30
0.0
 11
359.7731269707057
 21
990.0317974529109
 31
0.0
  0
LINE
  5
9FB
102
{ACAD_REACTORS
330
EBA
102
}
330
A
100
AcDbEntity
  8
1
  6
Continuous
100
AcDbLine
 10
342.0925895447057
 20
1068.06670359491
 30
0.0
 11
342.0875736467057
 21
1068.06670359491
 31
0.0
  0
LINE
  5
9FC
102
{ACAD_REACTORS
330
EBA
102
}
330
A
100
AcDbEntity
  8
1
  6
Continuous
100
AcDbLine
 10
341.8443527927056
 20
1073.56670359491
 30
0.0
 11
342.0278628137057
 21
1070.06670359491
 31
0.0
  0
ARC
  5
9FD
102
{ACAD_REACTORS
330
EBA
102
}
330
A
100
AcDbEntity
  8
1
  6
Continuous
100
AcDbCircle
 10
304.7599100782057
 20
1067.85953983241
 30
0.0
 40
37.33325425099999
100
AcDbArc
 50
0.31793826760001
 51
3.389336282100002
  0
LINE
  5
9FF
102
{ACAD_REACTORS
330
EBA
102
}
330
A
100
AcDbEntity
  8
1
  6
Continuous
100
AcDbLine
 10
342.2185930947057
 20
1065.56670359491
 30
0.0
 11
342.3234086532057
 21
1063.56670359491
 31
0.0
  0
LINE
  5
A00
102
{ACAD_REACTORS
330
EBA
102
}
330
A
100
AcDbEntity
  8
1
  6
Continuous
100
AcDbLine
 10
342.3758164327057
 20
1062.56670359491
 30
0.0
 11
342.4806319912057
 21
1060.56670359491
 31
0.0
  0
ARC
  5
A01
102
{ACAD_REACTORS
330
EBA
102
}
330
A
100
AcDbEntity
  8
1
  6
Continuous
100
AcDbCircle
 10
350.1808698147056
 20
990.0667035949107
 30
0.0
 40
4.0
100
AcDbArc
 50
183.0
 51
270.0
  0
LINE
  5
A02
102
{ACAD_REACTORS
330
EBA
102
}
330
A
100
AcDbEntity
  8
1
  6
Continuous
100
AcDbLine
 10
341.8227224802056
 20
1063.56670359491
 30
0.0
 11
341.8751302597057
 21
1062.56670359491
 31
0.0
  0
LINE
  5
A03
102
{ACAD_REACTORS
330
EBA
102
}
330
A
100
AcDbEntity
  8
1
  6
Continuous
100
AcDbLine
 10
341.9799458182056
 20
1060.56670359491
 30
0.0
 11
342.0323535972057
 21
1059.56670359491
 31
0.0
  0
LINE
  5
A04
102
{ACAD_REACTORS
330
EBA
102
}
330
A
100
AcDbEntity
  8
1
  6
Continuous
100
AcDbLine
 10
341.6654991422057
 20
1066.56670359491
 30
0.0
 11
341.7179069217057
 21
1065.56670359491
 31
0.0
  0
ARC
  5
A05
102
{ACAD_REACTORS
330
EBA
102
}
330
A
100
AcDbEntity
  8
1
  6
Continuous
100
AcDbCircle
 10
452.0683381107057
 20
1150.08623334491
 30
0.0
 40
3.5
100
AcDbArc
 50
5.172825828599986
 51
71.68237739989999
  0
ARC
  5
A08
102
{ACAD_REACTORS
330
EBA
102
}
330
A
100
AcDbEntity
  8
1
  6
Continuous
100
AcDbCircle
 10
315.7956360732057
 20
1162.00854992141
 30
0.0
 40
3.5
100
AcDbArc
 50
93.55862915329995
 51
165.2481142873999
  0
LINE
  5
A0E
102
{ACAD_REACTORS
330
EBA
102
}
330
A
100
AcDbEntity
  8
1
  6
Continuous
100
AcDbLine
 10
443.2077950967056
 20
1156.62389592191
 30
0.0
 11
439.6962495157056
 21
1156.93111635191
 31
0.0
  0
LINE
  5
A0F
102
{ACAD_REACTORS
330
EBA
102
}
330
A
100
AcDbEntity
  8
1
  6
Continuous
100
AcDbLine
 10
435.2240036842056
 20
1157.32238716241
 30
0.0
 11
439.6962495157056
 21
1156.93111635191
 31
0.0
  0
LINE
  5
A10
102
{ACAD_REACTORS
330
EBA
102
}
330
A
100
AcDbEntity
  8
1
  6
Continuous
100
AcDbLine
 10
325.6568207217056
 20
1166.90827356591
 30
0.0
 11
330.1396968632057
 21
1166.51607272391
 31
0.0
  0
LINE
  5
A11
102
{ACAD_REACTORS
330
EBA
102
}
330
A
100
AcDbEntity
  8
1
  6
Continuous
100
AcDbLine
 10
330.1396968632057
 20
1166.51607272391
 30
0.0
 11
435.2240036842056
 21
1157.32238716241
 31
0.0
  0
ARC
  5
A17
102
{ACAD_REACTORS
330
CC9
330
EBA
102
}
330
A
100
AcDbEntity
  8
1
  6
Continuous
100
AcDbCircle
 10
325.6132428507056
 20
1166.41017621691
 30
0.0
 40
0.5
100
AcDbArc
 50
85.00000000000005
 51
175.0
  0
LINE
  5
A1A
102
{ACAD_REACTORS
330
EBA
102
}
330
A
100
AcDbEntity
  8
1
  6
Continuous
100
AcDbLine
 10
325.1151455017057
 20
1166.45375408841
 30
0.0
 11
325.0279897587057
 21
1165.45755939041
 31
0.0
  0
ARC
  5
A1E
102
{ACAD_REACTORS
330
EBA
102
}
330
A
100
AcDbEntity
  8
1
  6
Continuous
100
AcDbCircle
 10
436.4780621412058
 20
1085.43955287991
 30
0.0
 40
70.0
100
AcDbArc
 50
76.44137089000003
 51
79.59379297949993
  0
LINE
  5
A1F
102
{ACAD_REACTORS
330
EBA
102
}
330
A
100
AcDbEntity
  8
1
  6
Continuous
100
AcDbLine
 10
324.5414177597057
 20
1165.48427170391
 30
0.0
 11
326.0241844567057
 21
1165.37040364741
 31
0.0
  0
LINE
  5
A20
102
{ACAD_REACTORS
330
EBA
102
}
330
A
100
AcDbEntity
  8
1
  6
Continuous
100
AcDbLine
 10
440.4676737572056
 20
1155.35789571941
 30
0.0
 11
442.5789641337057
 21
1155.17318174641
 31
0.0
  0
ARC
  5
A22
102
{ACAD_REACTORS
330
EBA
102
}
330
A
100
AcDbEntity
  8
1
  6
Continuous
100
AcDbCircle
 10
436.4780621412058
 20
1085.43955287991
 30
0.0
 40
70.0
100
AcDbArc
 50
79.59379297949993
 51
85.00000000000005
  0
ARC
  5
A26
102
{ACAD_REACTORS
330
EBA
102
}
330
A
100
AcDbEntity
  8
1
  6
Continuous
100
AcDbCircle
 10
319.9232824647056
 20
1095.63677478141
 30
0.0
 40
70.0
100
AcDbArc
 50
86.21725738759996
 51
93.55862915329995
  0
LINE
  5
A27
102
{ACAD_REACTORS
330
EBA
102
}
330
A
100
AcDbEntity
  8
1
  6
Continuous
100
AcDbLine
 10
323.1874325022057
 20
1156.08229882841
 30
0.0
 11
440.2031085197056
 21
1145.84475372191
 31
0.0
  0
LINE
  5
A29
102
{ACAD_REACTORS
330
EBA
102
}
330
A
100
AcDbEntity
  8
1
  6
Continuous
100
AcDbLine
 10
455.6977103507057
 20
1144.48915171591
 30
0.0
 11
452.1124188707057
 21
1144.802824075909
 31
0.0
  0
LINE
  5
A2A
102
{ACAD_REACTORS
330
EBA
102
}
330
A
100
AcDbEntity
  8
1
  6
Continuous
100
AcDbLine
 10
452.1124188707057
 20
1144.802824075909
 30
0.0
 11
440.2031085197056
 21
1145.84475372191
 31
0.0
  0
ARC
  5
A2D
102
{ACAD_REACTORS
330
EBA
102
}
330
A
100
AcDbEntity
  8
1
  6
Continuous
100
AcDbCircle
 10
360.7628825647057
 20
1150.16807936641
 30
0.0
 40
50.0
100
AcDbArc
 50
165.2481142873999
 51
172.0
  0
LINE
  5
A2E
102
{ACAD_REACTORS
330
EBA
102
}
330
A
100
AcDbEntity
  8
1
  6
Continuous
100
AcDbLine
 10
323.1874325022057
 20
1156.08229882841
 30
0.0
 11
311.2494791272057
 21
1157.12673441441
 31
0.0
  0
LINE
  5
A2F
102
{ACAD_REACTORS
330
EBA
102
}
330
A
100
AcDbEntity
  8
1
  6
Continuous
100
AcDbLine
 10
326.0241844567057
 20
1165.37040364741
 30
0.0
 11
440.4676737572056
 21
1155.35789571941
 31
0.0
  0
ARC
  5
A30
102
{ACAD_REACTORS
330
EBA
102
}
330
A
100
AcDbEntity
  8
1
  6
Continuous
100
AcDbCircle
 10
405.7281689997057
 20
1146.23412655091
 30
0.0
 40
50.0
100
AcDbArc
 50
358.0
 51
4.773264069900001
  0
ARC
  5
A31
102
{ACAD_REACTORS
330
EBA
102
}
330
A
100
AcDbEntity
  8
1
  6
Continuous
100
AcDbCircle
 10
443.1642172252057
 20
1156.12579857291
 30
0.0
 40
0.5
100
AcDbArc
 50
354.9999999999999
 51
85.00000000000005
  0
LINE
  5
A32
102
{ACAD_REACTORS
330
EBA
102
}
330
A
100
AcDbEntity
  8
1
  6
Continuous
100
AcDbLine
 10
443.5751588317057
 20
1155.08602600341
 30
0.0
 11
443.6623145742057
 21
1156.08222070141
 31
0.0
  0
ARC
  5
A33
102
{ACAD_REACTORS
330
EBA
102
}
330
A
100
AcDbEntity
  8
1
  6
Continuous
100
AcDbCircle
 10
452.0683381107057
 20
1150.08623334491
 30
0.0
 40
3.5
100
AcDbArc
 50
71.68237739989999
 51
76.44137084729999
  0
LINE
  5
A39
102
{ACAD_REACTORS
330
EBA
102
}
330
A
100
AcDbEntity
  8
1
  6
Continuous
100
AcDbLine
 10
440.1159527772057
 20
1144.84855902391
 30
0.0
 11
452.0252631282057
 21
1143.80662937791
 31
0.0
  0
LINE
  5
A3B
102
{ACAD_REACTORS
330
EBA
102
}
330
A
100
AcDbEntity
  8
1
  6
Continuous
100
AcDbLine
 10
311.1623233847057
 20
1156.13053971591
 30
0.0
 11
323.1002767592057
 21
1155.086104130409
 31
0.0
  0
ARC
  5
A3E
102
{ACAD_REACTORS
330
EBA
102
}
330
A
100
AcDbEntity
  8
1
  6
Continuous
100
AcDbCircle
 10
314.8231362102057
 20
1150.17229271241
 30
0.0
 40
3.5
100
AcDbArc
 50
185.1985860486999
 51
255.6111438364
  0
ARC
  5
A40
102
{ACAD_REACTORS
330
EBA
102
}
330
A
100
AcDbEntity
  8
1
  6
Continuous
100
AcDbCircle
 10
361.1318647357056
 20
1154.38556488091
 30
0.0
 40
50.0
100
AcDbArc
 50
178.0
 51
185.1985860486999
  0
ARC
  5
A42
102
{ACAD_REACTORS
330
EBA
102
}
330
A
100
AcDbEntity
  8
1
  6
Continuous
100
AcDbCircle
 10
445.8850432452057
 20
1204.56568516941
 30
0.0
 40
70.0
100
AcDbArc
 50
271.2192346905998
 51
274.3859368809999
  0
LINE
  5
A45
102
{ACAD_REACTORS
330
EBA
102
}
330
A
100
AcDbEntity
  8
1
  6
Continuous
100
AcDbLine
 10
440.7939098947057
 20
1134.75107093141
 30
0.0
 11
440.7922714072056
 21
1134.75119043541
 31
0.0
  0
ARC
  5
A46
102
{ACAD_REACTORS
330
EBA
102
}
330
A
100
AcDbEntity
  8
1
  6
Continuous
100
AcDbCircle
 10
445.8850432452057
 20
1204.56568516941
 30
0.0
 40
70.0
100
AcDbArc
 50
265.8291680416999
 51
271.2192346905998
  0
LINE
  5
A48
102
{ACAD_REACTORS
330
EBA
102
}
330
A
100
AcDbEntity
  8
1
  6
Continuous
100
AcDbLine
 10
440.7922714072056
 20
1134.75119043541
 30
0.0
 11
438.6071787482056
 21
1134.94236127191
 31
0.0
  0
LINE
  5
A49
102
{ACAD_REACTORS
330
EBA
102
}
330
A
100
AcDbEntity
  8
1
  6
Continuous
100
AcDbLine
 10
438.6071787482056
 20
1134.94236127191
 30
0.0
 11
324.2374917307057
 21
1144.94841233691
 31
0.0
  0
LINE
  5
A4D
102
{ACAD_REACTORS
330
EBA
102
}
330
A
100
AcDbEntity
  8
1
  6
Continuous
100
AcDbLine
 10
328.2222705227057
 20
1144.59978936591
 30
0.0
 11
324.2374917307057
 21
1144.94841233691
 31
0.0
  0
ARC
  5
A50
102
{ACAD_REACTORS
330
EBA
102
}
330
A
100
AcDbEntity
  8
1
  6
Continuous
100
AcDbCircle
 10
327.7374917307056
 20
1086.56670359491
 30
0.0
 40
3.5
100
AcDbArc
 50
180.0
 51
270.0
  0
LINE
  5
A53
102
{ACAD_REACTORS
330
EBA
102
}
330
A
100
AcDbEntity
  8
1
  6
Continuous
100
AcDbLine
 10
419.9285866632056
 20
1083.06670359491
 30
0.0
 11
336.4814554577057
 21
1083.06670359491
 31
0.0
  0
LINE
  5
A54
102
{ACAD_REACTORS
330
EBA
102
}
330
A
100
AcDbEntity
  8
1
  6
Continuous
100
AcDbLine
 10
428.7966465287056
 20
1083.06670359491
 30
0.0
 11
419.9285866632056
 21
1083.06670359491
 31
0.0
  0
LINE
  5
A55
102
{ACAD_REACTORS
330
EBA
102
}
330
A
100
AcDbEntity
  8
1
  6
Continuous
100
AcDbLine
 10
336.4814554577057
 20
1083.06670359491
 30
0.0
 11
327.7374917307056
 21
1083.06670359491
 31
0.0
  0
LINE
  5
A5F
102
{ACAD_REACTORS
330
EBA
102
}
330
A
100
AcDbEntity
  8
1
  6
Continuous
100
AcDbLine
 10
440.1159527772057
 20
1144.84855902391
 30
0.0
 11
323.1002767592057
 21
1155.086104130409
 31
0.0
  0
LINE
  5
A60
102
{ACAD_REACTORS
330
EBA
102
}
330
A
100
AcDbEntity
  8
1
  6
Continuous
100
AcDbLine
 10
452.0252631282057
 20
1143.80662937791
 30
0.0
 11
455.6105546082057
 21
1143.49295701791
 31
0.0
  0
LINE
  5
A62
102
{ACAD_REACTORS
330
EBA
102
}
330
A
100
AcDbEntity
  8
1
  6
Continuous
100
AcDbLine
 10
323.1590326347056
 20
1142.79155602141
 30
0.0
 11
319.0579302362057
 21
1143.11431977991
 31
0.0
  0
LINE
  5
A64
102
{ACAD_REACTORS
330
EBA
102
}
330
A
100
AcDbEntity
  8
1
  6
Continuous
100
AcDbLine
 10
315.0973191067056
 20
1097.84432741641
 30
0.0
 11
315.6569860647057
 21
1104.24135001941
 31
0.0
  0
LINE
  5
A65
102
{ACAD_REACTORS
330
EBA
102
}
330
A
100
AcDbEntity
  8
1
  6
Continuous
100
AcDbLine
 10
323.3333374832057
 20
1097.05128904591
 30
0.0
 11
315.0973191067056
 21
1097.84432741641
 31
0.0
  0
LINE
  5
A66
102
{ACAD_REACTORS
330
EBA
102
}
330
A
100
AcDbEntity
  8
1
  6
Continuous
100
AcDbLine
 10
318.4982632782056
 20
1136.71729717691
 30
0.0
 11
319.0579302362057
 21
1143.11431977991
 31
0.0
  0
LINE
  5
A67
102
{ACAD_REACTORS
330
EBA
102
}
330
A
100
AcDbEntity
  8
1
  6
Continuous
100
AcDbLine
 10
315.6569860647057
 20
1104.24135001941
 30
0.0
 11
318.4982632782056
 21
1136.71729717691
 31
0.0
  0
LINE
  5
A68
102
{ACAD_REACTORS
330
EBA
102
}
330
A
100
AcDbEntity
  8
1
  6
Continuous
100
AcDbLine
 10
421.1797447552057
 20
1131.44796499291
 30
0.0
 11
342.9784609552056
 21
1138.28969079841
 31
0.0
  0
LINE
  5
A69
102
{ACAD_REACTORS
330
EBA
102
}
330
A
100
AcDbEntity
  8
1
  6
Continuous
100
AcDbLine
 10
342.9784609552056
 20
1138.28969079841
 30
0.0
 11
340.2330550587056
 21
1106.90955780841
 31
0.0
  0
LINE
  5
A6A
102
{ACAD_REACTORS
330
EBA
102
}
330
A
100
AcDbEntity
  8
1
  6
Continuous
100
AcDbLine
 10
340.2330550587056
 20
1106.90955780841
 30
0.0
 11
418.4343388587056
 21
1100.06783200291
 31
0.0
  0
LINE
  5
A6B
102
{ACAD_REACTORS
330
EBA
102
}
330
A
100
AcDbEntity
  8
1
  6
Continuous
100
AcDbLine
 10
339.1000304027057
 20
1093.959026733409
 30
0.0
 11
381.4383050717056
 21
1090.25490766641
 31
0.0
  0
LINE
  5
A6C
102
{ACAD_REACTORS
330
EBA
102
}
330
A
100
AcDbEntity
  8
1
  6
Continuous
100
AcDbLine
 10
381.4383050717056
 20
1090.25490766641
 30
0.0
 11
382.3970182417057
 21
1101.21304934541
 31
0.0
  0
LINE
  5
A6D
102
{ACAD_REACTORS
330
EBA
102
}
330
A
100
AcDbEntity
  8
1
  6
Continuous
100
AcDbLine
 10
382.3970182417057
 20
1101.21304934541
 30
0.0
 11
340.0587435732056
 21
1104.91716841241
 31
0.0
  0
LINE
  5
A6E
102
{ACAD_REACTORS
330
EBA
102
}
330
A
100
AcDbEntity
  8
1
  6
Continuous
100
AcDbLine
 10
340.0587435732056
 20
1104.91716841241
 30
0.0
 11
339.1000304027057
 21
1093.959026733409
 31
0.0
  0
LINE
  5
A6F
102
{ACAD_REACTORS
330
EBA
102
}
330
A
100
AcDbEntity
  8
1
  6
Continuous
100
AcDbLine
 10
418.4343388587056
 20
1100.06783200291
 30
0.0
 11
421.1797447552057
 21
1131.44796499291
 31
0.0
  0
ARC
  5
A71
102
{ACAD_REACTORS
330
EBA
102
}
330
A
100
AcDbEntity
  8
1
  6
Continuous
100
AcDbCircle
 10
331.3484857137057
 20
1214.58628827041
 30
0.0
 40
70.0
100
AcDbArc
 50
255.6111438364
 51
262.9738151940998
  0
LINE
  5
A73
102
{ACAD_REACTORS
330
EBA
102
}
330
A
100
AcDbEntity
  8
1
  6
Continuous
100
AcDbLine
 10
324.2374917307057
 20
1144.94841233691
 30
0.0
 11
322.7858802467057
 21
1145.11196360591
 31
0.0
  0
ARC
  5
A76
102
{ACAD_REACTORS
330
EBA
102
}
330
A
100
AcDbEntity
  8
1
  6
Continuous
100
AcDbCircle
 10
323.2374917307057
 20
1096.05589284791
 30
0.0
 40
1.0
100
AcDbArc
 50
0.0
 51
84.49999999999995
  0
LINE
  5
A78
102
{ACAD_REACTORS
330
EBA
102
}
330
A
100
AcDbEntity
  8
1
  6
Continuous
100
AcDbLine
 10
454.8135988497057
 20
1143.56268161191
 30
0.0
 11
454.9007545922056
 21
1144.55887630991
 31
0.0
  0
ARC
  5
A79
102
{ACAD_REACTORS
330
EBA
102
}
330
A
100
AcDbEntity
  8
1
  6
Continuous
100
AcDbCircle
 10
406.0971511707057
 20
1150.45161206591
 30
0.0
 40
50.0
100
AcDbArc
 50
344.7773173101
 51
352.0
  0
ARC
  5
A7A
102
{ACAD_REACTORS
330
EBA
102
}
330
A
100
AcDbEntity
  8
1
  6
Continuous
100
AcDbCircle
 10
450.9705843437057
 20
1138.26042691841
 30
0.0
 40
3.5
100
AcDbArc
 50
279.0892199058
 51
344.6519265929
  0
ARC
  5
A7B
102
{ACAD_REACTORS
330
EBA
102
}
330
A
100
AcDbEntity
  8
1
  6
Continuous
100
AcDbCircle
 10
323.2374917307057
 20
1143.78847335491
 30
0.0
 40
1.0
100
AcDbArc
 50
265.5
 51
0.0
  0
LINE
  5
A81
102
{ACAD_REACTORS
330
EBA
102
}
330
A
100
AcDbEntity
  8
1
  6
Continuous
100
AcDbLine
 10
311.9592791432057
 20
1156.06081512191
 30
0.0
 11
312.0464348857057
 21
1157.05700981991
 31
0.0
  0
ARC
  5
A82
102
{ACAD_REACTORS
330
EBA
102
}
330
A
100
AcDbEntity
  8
1
  6
Continuous
100
AcDbCircle
 10
441.6222356122057
 20
1133.69376921491
 30
0.0
 40
1.0
100
AcDbArc
 50
86.55791742870009
 51
170.0621890537
  0
ARC
  5
A83
102
{ACAD_REACTORS
330
EBA
102
}
330
A
100
AcDbEntity
  8
1
  6
Continuous
100
AcDbCircle
 10
428.7966465287056
 20
1086.56670359491
 30
0.0
 40
3.5
100
AcDbArc
 50
270.0
 51
350.0621890537
  0
LINE
  5
A85
102
{ACAD_REACTORS
330
EBA
102
}
330
A
100
AcDbEntity
  8
1
  6
Continuous
100
AcDbLine
 10
324.2374917307057
 20
1086.56670359491
 30
0.0
 11
324.2374917307057
 21
1144.05110714391
 31
0.0
  0
ARC
  5
A89
102
{ACAD_REACTORS
330
EBA
102
}
330
A
100
AcDbEntity
  8
1
  6
Continuous
100
AcDbCircle
 10
323.2374917307057
 20
1144.05110714391
 30
0.0
 40
1.0
100
AcDbArc
 50
0.0
 51
83.44024601400006
  0
LINE
  5
A8A
102
{ACAD_REACTORS
330
EBA
102
}
330
A
100
AcDbEntity
  8
1
  6
Continuous
100
AcDbLine
 10
440.6372399607056
 20
1133.86634837641
 30
0.0
 11
432.2441313082056
 21
1085.962676529409
 31
0.0
  0
LINE
  5
A8B
102
{ACAD_REACTORS
330
EBA
102
}
330
A
100
AcDbEntity
  8
1
  6
Continuous
100
AcDbLine
 10
335.8884809742057
 20
1083.06670359491
 30
0.0
 11
336.4814554577057
 21
1083.06670359491
 31
0.0
  0
LINE
  5
A8C
102
{ACAD_REACTORS
330
EBA
102
}
330
A
100
AcDbEntity
  8
1
  6
Continuous
100
AcDbLine
 10
404.9333281057057
 20
1080.56670359491
 30
0.0
 11
420.9944455067057
 21
1080.56670359491
 31
0.0
  0
LINE
  5
A8D
102
{ACAD_REACTORS
330
EBA
102
}
330
A
100
AcDbEntity
  8
1
  6
Continuous
100
AcDbLine
 10
333.6621196402056
 20
1080.56670359491
 30
0.0
 11
349.7232370412057
 21
1080.56670359491
 31
0.0
  0
LINE
  5
A8E
102
{ACAD_REACTORS
330
EBA
102
}
330
A
100
AcDbEntity
  8
1
  6
Continuous
100
AcDbLine
 10
420.9944455067057
 20
1080.56670359491
 30
0.0
 11
421.2131671652057
 21
1083.06670359491
 31
0.0
  0
LINE
  5
A8F
102
{ACAD_REACTORS
330
EBA
102
}
330
A
100
AcDbEntity
  8
1
  6
Continuous
100
AcDbLine
 10
349.7232370412057
 20
1080.56670359491
 30
0.0
 11
349.9419586997057
 21
1083.06670359491
 31
0.0
  0
LINE
  5
A90
102
{ACAD_REACTORS
330
EBA
102
}
330
A
100
AcDbEntity
  8
1
  6
Continuous
100
AcDbLine
 10
405.1520497647056
 20
1083.06670359491
 30
0.0
 11
404.9333281057057
 21
1080.56670359491
 31
0.0
  0
LINE
  5
A91
102
{ACAD_REACTORS
330
EBA
102
}
330
A
100
AcDbEntity
  8
1
  6
Continuous
100
AcDbLine
 10
333.8808412992057
 20
1083.06670359491
 30
0.0
 11
333.6621196402056
 21
1080.56670359491
 31
0.0
  0
ARC
  5
A92
102
{ACAD_REACTORS
330
EBA
102
}
330
A
100
AcDbEntity
  8
1
  6
Continuous
100
AcDbCircle
 10
312.3084441942056
 20
1111.86219428641
 30
0.0
 40
2.5
100
AcDbArc
 50
85.00000000000005
 51
265.0
  0
LINE
  5
A93
102
{ACAD_REACTORS
330
EBA
102
}
330
A
100
AcDbEntity
  8
1
  6
Continuous
100
AcDbLine
 10
312.2430773872057
 20
1111.11504826291
 30
0.0
 11
314.2354667832057
 21
1110.94073677741
 31
0.0
  0
LINE
  5
A94
102
{ACAD_REACTORS
330
EBA
102
}
330
A
100
AcDbEntity
  8
1
  6
Continuous
100
AcDbLine
 10
312.3738110012057
 20
1112.60934030991
 30
0.0
 11
314.3662003977057
 21
1112.43502882441
 31
0.0
  0
LINE
  5
A95
102
{ACAD_REACTORS
330
EBA
102
}
330
A
100
AcDbEntity
  8
1
  6
Continuous
100
AcDbLine
 10
312.5263335512057
 20
1114.35268103141
 30
0.0
 11
314.5187229472056
 21
1114.178369545909
 31
0.0
  0
LINE
  5
A96
102
{ACAD_REACTORS
330
EBA
102
}
330
A
100
AcDbEntity
  8
1
  6
Continuous
100
AcDbLine
 10
312.0905548372057
 20
1109.37170754091
 30
0.0
 11
314.0829442337056
 21
1109.19739605541
 31
0.0
  0
ARC
  5
A97
102
{ACAD_REACTORS
330
EBA
102
}
330
A
100
AcDbEntity
  8
1
  6
Continuous
100
AcDbCircle
 10
314.3390790337056
 20
1100.65131697191
 30
0.0
 40
1.0
100
AcDbArc
 50
175.0
 51
264.4999999999999
  0
ARC
  5
A9A
102
{ACAD_REACTORS
330
EBA
102
}
330
A
100
AcDbEntity
  8
1
  6
Continuous
100
AcDbCircle
 10
317.8237809127057
 20
1140.48164170991
 30
0.0
 40
1.0
100
AcDbArc
 50
85.49999999999997
 51
175.0
  0
LINE
  5
A9B
102
{ACAD_REACTORS
330
EBA
102
}
330
A
100
AcDbEntity
  8
1
  6
Continuous
100
AcDbLine
 10
315.2473540737056
 20
1099.55923493841
 30
0.0
 11
314.2432332812057
 21
1099.65592077391
 31
0.0
  0
LINE
  5
A9C
102
{ACAD_REACTORS
330
EBA
102
}
330
A
100
AcDbEntity
  8
1
  6
Continuous
100
AcDbLine
 10
317.9022400087057
 20
1141.47855904341
 30
0.0
 11
318.9078952692057
 21
1141.39941225791
 31
0.0
  0
LINE
  5
A9F
102
{ACAD_REACTORS
330
EBA
102
}
330
A
100
AcDbEntity
  8
1
  6
Continuous
100
AcDbLine
 10
313.6907433912057
 20
1104.71451991441
 30
0.0
 11
316.4797271592057
 21
1136.59275025341
 31
0.0
  0
LINE
  5
AA0
102
{ACAD_REACTORS
330
EBA
102
}
330
A
100
AcDbEntity
  8
1
  6
Continuous
100
AcDbLine
 10
316.4797271592057
 20
1136.59275025341
 30
0.0
 11
316.8275862147056
 21
1140.56879745241
 31
0.0
  0
LINE
  5
AA1
102
{ACAD_REACTORS
330
EBA
102
}
330
A
100
AcDbEntity
  8
1
  6
Continuous
100
AcDbLine
 10
313.3428843357056
 20
1100.73847271491
 30
0.0
 11
313.6907433912057
 21
1104.71451991441
 31
0.0
  0
ARC
  5
AA5
102
{ACAD_REACTORS
330
EBA
102
}
330
A
100
AcDbEntity
  8
1
  6
Continuous
100
AcDbCircle
 10
312.3084441942056
 20
1111.86219428641
 30
0.0
 40
0.75
100
AcDbArc
 50
85.00000000000005
 51
265.0
  0
LINE
  5
AA6
102
{ACAD_REACTORS
330
D02
330
EBA
102
}
330
A
100
AcDbEntity
  8
1
  6
Continuous
100
AcDbLine
 10
302.7395673337057
 20
1122.96342037341
 30
0.0
 11
302.0227113497057
 21
1114.76971898141
 31
0.0
  0
ARC
  5
AA7
102
{ACAD_REACTORS
330
EBA
102
}
330
A
100
AcDbEntity
  8
1
  6
Continuous
100
AcDbCircle
 10
311.2072222677057
 20
1122.22259655991
 30
0.0
 40
8.5
100
AcDbArc
 50
85.00000000000005
 51
175.0
  0
LINE
  5
AA9
102
{ACAD_REACTORS
330
EBA
102
}
330
A
100
AcDbEntity
  8
1
  6
Continuous
100
AcDbLine
 10
315.9328248732056
 20
1130.34162852241
 30
0.0
 11
311.9480460812057
 21
1130.69025149341
 31
0.0
  0
LINE
  5
AAB
102
{ACAD_REACTORS
330
EBA
102
}
330
A
100
AcDbEntity
  8
1
  6
Continuous
100
AcDbLine
 10
304.8996120427057
 20
1114.51802278491
 30
0.0
 11
302.0227113497057
 21
1114.76971898141
 31
0.0
  0
LINE
  5
AAC
102
{ACAD_REACTORS
330
EBA
102
}
330
A
100
AcDbEntity
  8
1
  6
Continuous
100
AcDbLine
 10
305.7137876862057
 20
1114.44679164591
 30
0.0
 11
310.9884636327056
 21
1113.98531729691
 31
0.0
  0
LINE
  5
AB6
102
{ACAD_REACTORS
330
EBA
102
}
330
A
100
AcDbEntity
  8
1
  6
Continuous
100
AcDbLine
 10
305.7137876862057
 20
1114.44679164591
 30
0.0
 11
304.8996120427057
 21
1114.51802278491
 31
0.0
  0
LINE
  5
AB9
102
{ACAD_REACTORS
330
EBA
102
}
330
A
100
AcDbEntity
  8
1
  6
Continuous
100
AcDbLine
 10
308.8030219872057
 20
1117.68988809691
 30
0.0
 11
309.3011193362057
 21
1117.64631022541
 31
0.0
  0
LINE
  5
ABA
102
{ACAD_REACTORS
330
EBA
102
}
330
A
100
AcDbEntity
  8
1
  6
Continuous
100
AcDbLine
 10
310.7856077022057
 20
1117.51643432241
 30
0.0
 11
311.2935087322057
 21
1117.47199873991
 31
0.0
  0
LINE
  5
ABB
102
{ACAD_REACTORS
330
EBA
102
}
330
A
100
AcDbEntity
  8
1
  6
Continuous
100
AcDbLine
 10
311.9035989312056
 20
1124.44536162641
 30
0.0
 11
311.3964537437057
 21
1124.48973108141
 31
0.0
  0
LINE
  5
ABC
102
{ACAD_REACTORS
330
EBA
102
}
330
A
100
AcDbEntity
  8
1
  6
Continuous
100
AcDbLine
 10
309.9141000342056
 20
1124.61942022641
 30
0.0
 11
309.4131121862056
 21
1124.66325098341
 31
0.0
  0
LINE
  5
ABD
102
{ACAD_REACTORS
330
EBA
102
}
330
A
100
AcDbEntity
  8
1
  6
Continuous
100
AcDbLine
 10
305.9264307427056
 20
1124.96829608291
 30
0.0
 11
305.3163405437056
 21
1117.99493319641
 31
0.0
  0
LINE
  5
ABE
102
{ACAD_REACTORS
330
EBA
102
}
330
A
100
AcDbEntity
  8
1
  6
Continuous
100
AcDbLine
 10
305.7708600212056
 20
1117.45325797591
 30
0.0
 11
306.4681059632057
 21
1125.42281556091
 31
0.0
  0
LINE
  5
ABF
102
{ACAD_REACTORS
330
EBA
102
}
330
A
100
AcDbEntity
  8
1
  6
Continuous
100
AcDbLine
 10
311.2499308607057
 20
1116.97390139091
 30
0.0
 11
311.9471768027056
 21
1124.94345897591
 31
0.0
  0
LINE
  5
AC0
102
{ACAD_REACTORS
330
EBA
102
}
330
A
100
AcDbEntity
  8
1
  6
Continuous
100
AcDbLine
 10
308.7594441157057
 20
1117.19179074791
 30
0.0
 11
309.4566900577057
 21
1125.16134833241
 31
0.0
  0
LINE
  5
AC1
102
{ACAD_REACTORS
330
EBA
102
}
330
A
100
AcDbEntity
  8
1
  6
Continuous
100
AcDbLine
 10
312.2461255587056
 20
1116.88674564841
 30
0.0
 11
312.9433715007056
 21
1124.85630323291
 31
0.0
  0
LINE
  5
AC2
102
{ACAD_REACTORS
330
EBA
102
}
330
A
100
AcDbEntity
  8
1
  6
Continuous
100
AcDbLine
 10
305.3163405437056
 20
1117.99493319641
 30
0.0
 11
305.7708600212056
 21
1117.45325797591
 31
0.0
  0
LINE
  5
AC3
102
{ACAD_REACTORS
330
EBA
102
}
330
A
100
AcDbEntity
  8
1
  6
Continuous
100
AcDbLine
 10
305.7708600212056
 20
1117.45325797591
 30
0.0
 11
308.7594441157057
 21
1117.19179074791
 31
0.0
  0
ARC
  5
AC4
102
{ACAD_REACTORS
330
EBA
102
}
330
A
100
AcDbEntity
  8
1
  6
Continuous
100
AcDbCircle
 10
310.9561273667056
 20
1127.95760357441
 30
0.0
 40
3.497662059
100
AcDbArc
 50
252.6177050681999
 51
277.3806675151999
  0
ARC
  5
AC5
102
{ACAD_REACTORS
330
EBA
102
}
330
A
100
AcDbEntity
  8
1
  6
Continuous
100
AcDbCircle
 10
309.7501769132056
 20
1114.17344784791
 30
0.0
 40
3.5017746645
100
AcDbArc
 50
72.63439782779994
 51
97.36773538959997
  0
LINE
  5
AC6
102
{ACAD_REACTORS
330
EBA
102
}
330
A
100
AcDbEntity
  8
1
  6
Continuous
100
AcDbLine
 10
311.2499308607057
 20
1116.97390139091
 30
0.0
 11
312.2461255587056
 21
1116.88674564841
 31
0.0
  0
LINE
  5
AC7
102
{ACAD_REACTORS
330
EBA
102
}
330
A
100
AcDbEntity
  8
1
  6
Continuous
100
AcDbLine
 10
306.4681059632057
 20
1125.42281556091
 30
0.0
 11
305.9264307427056
 21
1124.96829608291
 31
0.0
  0
LINE
  5
AC8
102
{ACAD_REACTORS
330
EBA
102
}
330
A
100
AcDbEntity
  8
1
  6
Continuous
100
AcDbLine
 10
309.4566900577057
 20
1125.16134833241
 30
0.0
 11
306.4681059632057
 21
1125.42281556091
 31
0.0
  0
LINE
  5
AC9
102
{ACAD_REACTORS
330
EBA
102
}
330
A
100
AcDbEntity
  8
1
  6
Continuous
100
AcDbLine
 10
312.9433715007056
 20
1124.85630323291
 30
0.0
 11
311.9471768027056
 21
1124.94345897591
 31
0.0
  0
LINE
  5
ACA
102
{ACAD_REACTORS
330
EBA
102
}
330
A
100
AcDbEntity
  8
1
  6
Continuous
100
AcDbLine
 10
312.3768591732057
 20
1118.38103769541
 30
0.0
 11
314.8673459182057
 21
1118.16314833841
 31
0.0
  0
LINE
  5
ACB
102
{ACAD_REACTORS
330
EBA
102
}
330
A
100
AcDbEntity
  8
1
  6
Continuous
100
AcDbLine
 10
315.3031246322057
 20
1123.14412182891
 30
0.0
 11
312.8126378867057
 21
1123.36201118591
 31
0.0
  0
ARC
  5
ACD
102
{ACAD_REACTORS
330
EBB
102
}
330
A
100
AcDbEntity
  8
1
  6
Continuous
100
AcDbCircle
 10
1435.158968534705
 20
418.0667035949105
 30
0.0
 40
3.2
100
AcDbArc
 50
180.0
 51
270.0
  0
LINE
  5
ACE
102
{ACAD_REACTORS
330
EBB
102
}
330
A
100
AcDbEntity
  8
1
  6
Continuous
100
AcDbLine
 10
1431.958968534706
 20
418.0667035949105
 30
0.0
 11
1431.958968534706
 21
443.7667035949107
 31
0.0
  0
LINE
  5
AD1
102
{ACAD_REACTORS
330
EBB
102
}
330
A
100
AcDbEntity
  8
1
  6
Continuous
100
AcDbLine
 10
1778.758968534705
 20
414.8667035949106
 30
0.0
 11
1435.158968534705
 21
414.8667035949106
 31
0.0
  0
LINE
  5
AD2
102
{ACAD_REACTORS
330
EBB
102
}
330
A
100
AcDbEntity
  8
1
  6
Continuous
100
AcDbLine
 10
1781.958968534706
 20
443.7667035949107
 30
0.0
 11
1781.958968534706
 21
418.0667035949105
 31
0.0
  0
CIRCLE
  5
AD5
102
{ACAD_REACTORS
330
EBB
102
}
330
A
100
AcDbEntity
  8
1
  6
Continuous
100
AcDbCircle
 10
1536.958968534706
 20
430.8667035949105
 30
0.0
 40
4.0
  0
CIRCLE
  5
AD6
102
{ACAD_REACTORS
330
EBB
102
}
330
A
100
AcDbEntity
  8
1
  6
Continuous
100
AcDbCircle
 10
1676.958968534706
 20
430.8667035949105
 30
0.0
 40
4.0
  0
ARC
  5
AD9
102
{ACAD_REACTORS
330
EBB
102
}
330
A
100
AcDbEntity
  8
1
  6
Continuous
100
AcDbCircle
 10
1778.758968534705
 20
418.0667035949105
 30
0.0
 40
3.2
100
AcDbArc
 50
270.0
 51
0.0
  0
ARC
  5
ADA
102
{ACAD_REACTORS
330
EBB
102
}
330
A
100
AcDbEntity
  8
1
  6
Continuous
100
AcDbCircle
 10
1756.775155367205
 20
398.3930477829106
 30
0.0
 40
16.47468127449999
100
AcDbArc
 50
73.05132640699994
 51
89.36071981900003
  0
ARC
  5
ADB
102
{ACAD_REACTORS
330
EBB
102
}
330
A
100
AcDbEntity
  8
1
  6
Continuous
100
AcDbCircle
 10
1764.018298849705
 20
410.3535777979106
 30
0.0
 40
4.515030317999999
100
AcDbArc
 50
91.66423801140004
 51
122.7200094565999
  0
ARC
  5
ADC
102
{ACAD_REACTORS
330
EBB
102
}
330
A
100
AcDbEntity
  8
1
  6
Continuous
100
AcDbCircle
 10
1763.725781297705
 20
410.2557650069106
 30
0.0
 40
4.6137621895
100
AcDbArc
 50
57.62038109429997
 51
87.99537143770001
  0
LINE
  5
ADD
102
{ACAD_REACTORS
330
EBB
102
}
330
A
100
AcDbEntity
  8
1
  6
Continuous
100
AcDbLine
 10
1748.958968534705
 20
414.8667035949106
 30
0.0
 11
1747.721364227705
 21
414.1521724149106
 31
0.0
  0
LINE
  5
ADE
102
{ACAD_REACTORS
330
EBB
102
}
330
A
100
AcDbEntity
  8
1
  6
Continuous
100
AcDbLine
 10
1766.196572841705
 20
414.1521724149106
 30
0.0
 11
1764.958968534705
 21
414.8667035949106
 31
0.0
  0
ARC
  5
ADF
102
{ACAD_REACTORS
330
EBB
102
}
330
A
100
AcDbEntity
  8
1
  6
Continuous
100
AcDbCircle
 10
1757.144561237705
 20
398.3815446829106
 30
0.0
 40
16.4862035955
100
AcDbArc
 50
90.64501831159997
 51
106.9429354623999
  0
LINE
  5
AE0
102
{ACAD_REACTORS
330
EBB
102
}
330
A
100
AcDbEntity
  8
1
  6
Continuous
100
AcDbLine
 10
1761.577770688206
 20
406.8667035949107
 30
0.0
 11
1761.577770688206
 21
414.1521724149106
 31
0.0
  0
ARC
  5
AE1
102
{ACAD_REACTORS
330
EBB
102
}
330
A
100
AcDbEntity
  8
1
  6
Continuous
100
AcDbCircle
 10
1749.899638219706
 20
410.3535777979106
 30
0.0
 40
4.515030317999999
100
AcDbArc
 50
57.27999054339995
 51
88.33576198859997
  0
ARC
  5
AE2
102
{ACAD_REACTORS
330
EBB
102
}
330
A
100
AcDbEntity
  8
1
  6
Continuous
100
AcDbCircle
 10
1750.192155771705
 20
410.2557650069106
 30
0.0
 40
4.6137621895
100
AcDbArc
 50
92.0046285623
 51
122.3796189056998
  0
LINE
  5
AE3
102
{ACAD_REACTORS
330
EBB
102
}
330
A
100
AcDbEntity
  8
1
  6
Continuous
100
AcDbLine
 10
1752.340166381205
 20
414.1521724149106
 30
0.0
 11
1752.340166381205
 21
406.8667035949107
 31
0.0
  0
LINE
  5
AE4
102
{ACAD_REACTORS
330
EBB
102
}
330
A
100
AcDbEntity
  8
1
  6
Continuous
100
AcDbLine
 10
1747.721364227705
 20
406.8667035949107
 30
0.0
 11
1747.721364227705
 21
414.1521724149106
 31
0.0
  0
LINE
  5
AE5
102
{ACAD_REACTORS
330
EBB
102
}
330
A
100
AcDbEntity
  8
1
  6
Continuous
100
AcDbLine
 10
1766.196572841705
 20
414.1521724149106
 30
0.0
 11
1766.196572841705
 21
406.8667035949107
 31
0.0
  0
ARC
  5
AE6
102
{ACAD_REACTORS
330
EBB
102
}
330
A
100
AcDbEntity
  8
1
  6
Continuous
100
AcDbCircle
 10
1452.225269218205
 20
404.4140227859107
 30
0.0
 40
10.45357062899999
100
AcDbArc
 50
90.74758325110009
 51
111.3203668021
  0
ARC
  5
AE7
102
{ACAD_REACTORS
330
EBB
102
}
330
A
100
AcDbEntity
  8
1
  6
Continuous
100
AcDbCircle
 10
1451.921006465205
 20
404.2525909594107
 30
0.0
 40
10.6154400565
100
AcDbArc
 50
68.83815274670009
 51
89.09389720009997
  0
SPLINE
  5
AE8
102
{ACAD_REACTORS
330
EBB
102
}
330
A
100
AcDbEntity
  8
1
  6
Continuous
100
AcDbSpline
210
0.0
220
0.0
230
1.0
 70
     8
 71
     3
 72
    10
 73
     6
 74
     0
 42
0.0000000001
 43
0.0000000001
 40
0.0
 40
0.0
 40
0.0
 40
0.0
 40
0.5
 40
0.5
 40
1.0
 40
1.0
 40
1.0
 40
1.0
 10
1448.424534986035
 20
414.1521724149791
 30
0.0
 10
1448.523157317486
 20
414.3702881381266
 30
0.0
 10
1448.622500044488
 20
414.5499831438355
 30
0.0
 10
1448.823262424208
 20
414.7986048751899
 30
0.0
 10
1448.924697602193
 20
414.8667035947954
 30
0.0
 10
1449.027409643751
 20
414.8667035947954
 30
0.0
  0
ARC
  5
AE9
102
{ACAD_REACTORS
330
EBB
102
}
330
A
100
AcDbEntity
  8
1
  6
Continuous
100
AcDbCircle
 10
1460.197541395705
 20
400.7097369974107
 30
0.0
 40
14.158074359
100
AcDbArc
 50
90.71673989460006
 51
108.2948580329999
  0
ARC
  5
AEA
102
{ACAD_REACTORS
330
EBB
102
}
330
A
100
AcDbEntity
  8
1
  6
Continuous
100
AcDbCircle
 10
1459.841615995205
 20
400.6994973404107
 30
0.0
 40
14.16833475199999
100
AcDbArc
 50
71.71155715069996
 51
89.27684492169998
  0
SPLINE
  5
AEB
102
{ACAD_REACTORS
330
EBB
102
}
330
A
100
AcDbEntity
  8
1
  6
Continuous
100
AcDbSpline
210
0.0
220
0.0
230
1.0
 70
     8
 71
     3
 72
    10
 73
     6
 74
     0
 42
0.0000000001
 43
0.0000000001
 40
0.0
 40
0.0
 40
0.0
 40
0.0
 40
0.5
 40
0.5
 40
1.0
 40
1.0
 40
1.0
 40
1.0
 10
1464.287652768016
 20
414.1521724149791
 30
0.0
 10
1464.386275099467
 20
414.3702881381266
 30
0.0
 10
1464.485617826469
 20
414.5499831438355
 30
0.0
 10
1464.686380206189
 20
414.7986048751901
 30
0.0
 10
1464.787815384173
 20
414.8667035947954
 30
0.0
 10
1464.890527425732
 20
414.8667035947954
 30
0.0
  0
SPLINE
  5
AEC
102
{ACAD_REACTORS
330
EBB
102
}
330
A
100
AcDbEntity
  8
1
  6
Continuous
100
AcDbSpline
210
0.0
220
0.0
230
1.0
 70
     8
 71
     3
 72
    12
 73
     8
 74
     0
 42
0.0000000001
 43
0.0000000001
 40
0.0
 40
0.0
 40
0.0
 40
0.0
 40
0.2499999999999999
 40
0.2499999999999999
 40
0.5
 40
0.5
 40
1.0
 40
1.0
 40
1.0
 40
1.0
 10
1464.890527425732
 20
414.8667035947954
 30
0.0
 10
1464.941691443764
 20
414.8667035947954
 30
0.0
 10
1464.993084937179
 20
414.8498147373677
 30
0.0
 10
1465.094751987041
 20
414.7844567991557
 30
0.0
 10
1465.145245476755
 20
414.7360505495916
 30
0.0
 10
1465.295829138708
 20
414.5493527499068
 30
0.0
 10
1465.395025993254
 20
414.3697435445337
 30
0.0
 10
1465.49340208345
 20
414.1521724149791
 30
0.0
  0
LINE
  5
AED
102
{ACAD_REACTORS
330
EBB
102
}
330
A
100
AcDbEntity
  8
1
  6
Continuous
100
AcDbLine
 10
1455.753219219205
 20
406.8667035949107
 30
0.0
 11
1455.753219219205
 21
414.1521724149106
 31
0.0
  0
LINE
  5
AEE
102
{ACAD_REACTORS
330
EBB
102
}
330
A
100
AcDbEntity
  8
1
  6
Continuous
100
AcDbLine
 10
1464.287652768205
 20
406.8667035949107
 30
0.0
 11
1464.287652768205
 21
414.1521724149106
 31
0.0
  0
LINE
  5
AEF
102
{ACAD_REACTORS
330
EBB
102
}
330
A
100
AcDbEntity
  8
1
  6
Continuous
100
AcDbLine
 10
1465.493402083205
 20
406.8667035949107
 30
0.0
 11
1465.493402083205
 21
414.1521724149106
 31
0.0
  0
LINE
  5
AF0
102
{ACAD_REACTORS
330
EBB
102
}
330
A
100
AcDbEntity
  8
1
  6
Continuous
100
AcDbLine
 10
1448.424534986205
 20
414.1521724149106
 30
0.0
 11
1448.424534986205
 21
406.8667035949107
 31
0.0
  0
ARC
  5
AF1
102
{ACAD_REACTORS
330
EBB
102
}
330
A
100
AcDbEntity
  8
1
  6
Continuous
100
AcDbCircle
 10
1463.725781297705
 20
410.2557650069106
 30
0.0
 40
4.6137621895
100
AcDbArc
 50
57.62038109429997
 51
70.66613872619997
  0
LINE
  5
AF2
102
{ACAD_REACTORS
330
EBB
102
}
330
A
100
AcDbEntity
  8
1
  6
Continuous
100
AcDbLine
 10
1448.958968534705
 20
414.8667035949106
 30
0.0
 11
1447.721364227705
 21
414.1521724149106
 31
0.0
  0
LINE
  5
AF3
102
{ACAD_REACTORS
330
EBB
102
}
330
A
100
AcDbEntity
  8
1
  6
Continuous
100
AcDbLine
 10
1466.196572841705
 20
414.1521724149106
 30
0.0
 11
1464.958968534705
 21
414.8667035949106
 31
0.0
  0
ARC
  5
AF4
102
{ACAD_REACTORS
330
EBB
102
}
330
A
100
AcDbEntity
  8
1
  6
Continuous
100
AcDbCircle
 10
1450.192155771705
 20
410.2557650069106
 30
0.0
 40
4.6137621895
100
AcDbArc
 50
109.2662850763
 51
122.3796189056998
  0
LINE
  5
AF5
102
{ACAD_REACTORS
330
EBB
102
}
330
A
100
AcDbEntity
  8
1
  6
Continuous
100
AcDbLine
 10
1447.721364227705
 20
406.8667035949107
 30
0.0
 11
1447.721364227705
 21
414.1521724149106
 31
0.0
  0
LINE
  5
AF6
102
{ACAD_REACTORS
330
EBB
102
}
330
A
100
AcDbEntity
  8
1
  6
Continuous
100
AcDbLine
 10
1466.196572841705
 20
414.1521724149106
 30
0.0
 11
1466.196572841705
 21
406.8667035949107
 31
0.0
  0
LINE
  5
AF7
102
{ACAD_REACTORS
330
EBB
102
}
330
A
100
AcDbEntity
  8
1
  6
Continuous
100
AcDbLine
 10
1744.958968534705
 20
385.8667035949106
 30
0.0
 11
1768.958968534706
 21
385.8667035949106
 31
0.0
  0
SPLINE
  5
AF8
102
{ACAD_REACTORS
330
EBB
102
}
330
A
100
AcDbEntity
  8
1
  6
Continuous
100
AcDbSpline
210
0.0
220
0.0
230
1.0
 70
     8
 71
     3
 72
    14
 73
    10
 74
     0
 42
0.0000000001
 43
0.0000000001
 40
0.5000635921715415
 40
0.5000635921715415
 40
0.5000635921715415
 40
0.5000635921715415
 40
0.6249999999999996
 40
0.6249999999999996
 40
0.6874999999999995
 40
0.6874999999999995
 40
0.7499999999999995
 40
0.7499999999999995
 40
1.0
 40
1.0
 40
1.0
 40
1.0
 10
1790.279585936516
 20
400.3909544652933
 30
0.0
 10
1790.279586681114
 20
400.390953932797
 30
0.0
 10
1790.323304953289
 20
400.3564059956729
 30
0.0
 10
1790.455248806365
 20
400.2531001380457
 30
0.0
 10
1790.510562556869
 20
400.2098933393657
 30
0.0
 10
1790.642617520871
 20
400.1072891646606
 30
0.0
 10
1790.719047122116
 20
400.0481351561802
 30
0.0
 10
1791.151006889128
 20
399.7159860167296
 30
0.0
 10
1791.6541307378
 20
399.3349425492133
 30
0.0
 10
1792.302821896791
 20
398.8667035947954
 30
0.0
  0
SPLINE
  5
AF9
102
{ACAD_REACTORS
330
EBB
102
}
330
A
100
AcDbEntity
  8
1
  6
Continuous
100
AcDbSpline
210
0.0
220
0.0
230
1.0
 70
     8
 71
     3
 72
    21
 73
    17
 74
     0
 42
0.0000000001
 43
0.0000000001
 40
0.0
 40
0.0
 40
0.0
 40
0.0
 40
0.2499999999999996
 40
0.2499999999999996
 40
0.3124999999999996
 40
0.3124999999999996
 40
0.3749999999999996
 40
0.3749999999999996
 40
0.4999999999999998
 40
0.6249999999999996
 40
0.6249999999999996
 40
0.6874999999999996
 40
0.6874999999999996
 40
0.7499999999999996
 40
0.7499999999999996
 40
1.0
 40
1.0
 40
1.0
 40
1.0
 10
1788.643942703104
 20
398.8667035947954
 30
0.0
 10
1787.153481765439
 20
399.3348897639924
 30
0.0
 10
1785.723150964626
 20
399.7156132786416
 30
0.0
 10
1784.012317418821
 20
400.0475281400843
 30
0.0
 10
1783.674051910946
 20
400.1066450253819
 30
0.0
 10
1783.005581365442
 20
400.209214080352
 30
0.0
 10
1782.67511109944
 20
400.2526215857703
 30
0.0
 10
1781.711448084207
 20
400.3563024278003
 30
0.0
 10
1780.489910250806
 20
400.4255371423133
 30
0.0
 10
1779.393030252202
 20
400.3564410445937
 30
0.0
 10
1778.617662199948
 20
400.2531001380457
 30
0.0
 10
1778.366310170684
 20
400.2098933393657
 30
0.0
 10
1777.883553399871
 20
400.1072891646606
 30
0.0
 10
1777.652899457419
 20
400.0481351561802
 30
0.0
 10
1776.550795804677
 20
399.7159860167296
 30
0.0
 10
1775.830992281
 20
399.3349425492133
 30
0.0
 10
1775.257751137516
 20
398.8667035947954
 30
0.0
  0
ARC
  5
AFA
102
{ACAD_REACTORS
330
EBB
102
}
330
A
100
AcDbEntity
  8
1
  6
Continuous
100
AcDbCircle
 10
-2296.339733558294
 20
-107.8731999985893
 30
0.0
 40
4116.294081478501
100
AcDbArc
 50
6.95919038909999
 51
7.071384439799992
  0
ARC
  5
AFB
102
{ACAD_REACTORS
330
EBB
102
}
330
A
100
AcDbEntity
  8
1
  6
Continuous
100
AcDbCircle
 10
1756.958968534706
 20
370.1556709994106
 30
0.0
 40
30.23108425149999
100
AcDbArc
 50
71.75362123219996
 51
108.2463787678
  0
SPLINE
  5
AFC
102
{ACAD_REACTORS
330
EBB
102
}
330
A
100
AcDbEntity
  8
1
  6
Continuous
100
AcDbSpline
210
0.0
220
0.0
230
1.0
 70
     8
 71
     3
 72
    15
 73
    11
 74
     0
 42
0.0000000001
 43
0.0000000001
 40
0.0
 40
0.0
 40
0.0
 40
0.0
 40
0.2499999999999999
 40
0.2499999999999999
 40
0.3124999999999999
 40
0.3124999999999999
 40
0.3749999999999998
 40
0.3749999999999998
 40
0.5
 40
0.500063592171539
 40
0.500063592171539
 40
0.500063592171539
 40
0.500063592171539
 10
1721.615115172693
 20
398.8667035947954
 30
0.0
 10
1722.263733203837
 20
399.3348897639924
 30
0.0
 10
1722.766434099082
 20
399.7156132786416
 30
0.0
 10
1723.198103342251
 20
400.0475281400843
 30
0.0
 10
1723.274487919929
 20
400.1066450253818
 30
0.0
 10
1723.406502850624
 20
400.209214080352
 30
0.0
 10
1723.46207608263
 20
400.2526215857703
 30
0.0
 10
1723.594501754571
 20
400.3563024278002
 30
0.0
 10
1723.638329603991
 20
400.3909373962001
 30
0.0
 10
1723.638351133347
 20
400.3909544655644
 30
0.0
 10
1723.638351132968
 20
400.3909544652933
 30
0.0
  0
SPLINE
  5
AFD
102
{ACAD_REACTORS
330
EBB
102
}
330
A
100
AcDbEntity
  8
1
  6
Continuous
100
AcDbSpline
210
0.0
220
0.0
230
1.0
 70
     8
 71
     3
 72
    21
 73
    17
 74
     0
 42
0.0000000001
 43
0.0000000001
 40
0.0
 40
0.0
 40
0.0
 40
0.0
 40
0.2499999999999991
 40
0.2499999999999991
 40
0.3124999999999991
 40
0.3124999999999991
 40
0.3749999999999989
 40
0.3749999999999989
 40
0.499999999999999
 40
0.6249999999999992
 40
0.6249999999999992
 40
0.6874999999999992
 40
0.6874999999999992
 40
0.7499999999999993
 40
0.7499999999999993
 40
1.0
 40
1.0
 40
1.0
 40
1.0
 10
1738.660185931967
 20
398.8667035947954
 30
0.0
 10
1738.087009410747
 20
399.3348897639924
 30
0.0
 10
1737.367605033807
 20
399.7156132786416
 30
0.0
 10
1736.267243986149
 20
400.0475281400843
 30
0.0
 10
1736.037002583984
 20
400.1066450253818
 30
0.0
 10
1735.555229343904
 20
400.209214080352
 30
0.0
 10
1735.30335149631
 20
400.2526215857703
 30
0.0
 10
1734.526966662344
 20
400.3563024278002
 30
0.0
 10
1733.429329117162
 20
400.4255371696104
 30
0.0
 10
1732.208796496824
 20
400.3564410445937
 30
0.0
 10
1731.246768350768
 20
400.2531001380456
 30
0.0
 10
1730.917190865356
 20
400.2098933393657
 30
0.0
 10
1730.247680173473
 20
400.1072891646606
 30
0.0
 10
1729.908938452372
 20
400.0481351561801
 30
0.0
 10
1728.195951438723
 20
399.7159860167296
 30
0.0
 10
1726.7646233447
 20
399.3349425492133
 30
0.0
 10
1725.273994366381
 20
398.8667035947954
 30
0.0
  0
LINE
  5
AFE
102
{ACAD_REACTORS
330
EBB
102
}
330
A
100
AcDbEntity
  8
1
  6
Continuous
100
AcDbLine
 10
1770.958968534706
 20
387.8667035949106
 30
0.0
 11
1742.958968534705
 21
387.8667035949106
 31
0.0
  0
LINE
  5
AFF
102
{ACAD_REACTORS
330
EBB
102
}
330
A
100
AcDbEntity
  8
1
  6
Continuous
100
AcDbLine
 10
1767.958968534705
 20
406.8667035949107
 30
0.0
 11
1745.958968534705
 21
406.8667035949107
 31
0.0
  0
LINE
  5
B00
102
{ACAD_REACTORS
330
EBB
102
}
330
A
100
AcDbEntity
  8
1
  6
Continuous
100
AcDbLine
 10
1745.958968534705
 20
406.8667035949107
 30
0.0
 11
1742.958968534705
 21
402.8667035949106
 31
0.0
  0
ARC
  5
B01
102
{ACAD_REACTORS
330
EBB
102
}
330
A
100
AcDbEntity
  8
1
  6
Continuous
100
AcDbCircle
 10
1744.958968534705
 20
387.8667035949106
 30
0.0
 40
2.0
100
AcDbArc
 50
180.0
 51
270.0
  0
LINE
  5
B02
102
{ACAD_REACTORS
330
EBB
102
}
330
A
100
AcDbEntity
  8
1
  6
Continuous
100
AcDbLine
 10
1728.947612062205
 20
402.8667035949106
 30
0.0
 11
1723.634791355205
 21
400.3892946124107
 31
0.0
  0
LINE
  5
B03
102
{ACAD_REACTORS
330
EBB
102
}
330
A
100
AcDbEntity
  8
1
  6
Continuous
100
AcDbLine
 10
1742.958968534705
 20
390.8667035949106
 30
0.0
 11
1742.958968534705
 21
387.8667035949106
 31
0.0
  0
LINE
  5
B04
102
{ACAD_REACTORS
330
EBB
102
}
330
A
100
AcDbEntity
  8
1
  6
Continuous
100
AcDbLine
 10
1770.958968534706
 20
402.8667035949106
 30
0.0
 11
1767.958968534705
 21
406.8667035949107
 31
0.0
  0
ARC
  5
B05
102
{ACAD_REACTORS
330
EBB
102
}
330
A
100
AcDbEntity
  8
1
  6
Continuous
100
AcDbCircle
 10
1768.958968534706
 20
387.8667035949106
 30
0.0
 40
2.0
100
AcDbArc
 50
270.0
 51
0.0
  0
LINE
  5
B06
102
{ACAD_REACTORS
330
EBB
102
}
330
A
100
AcDbEntity
  8
1
  6
Continuous
100
AcDbLine
 10
1790.283145714206
 20
400.3892946124107
 30
0.0
 11
1784.970325007205
 21
402.8667035949106
 31
0.0
  0
LINE
  5
B07
102
{ACAD_REACTORS
330
EBB
102
}
330
A
100
AcDbEntity
  8
1
  6
Continuous
100
AcDbLine
 10
1770.958968534706
 20
387.8667035949106
 30
0.0
 11
1770.958968534706
 21
390.8667035949106
 31
0.0
  0
LINE
  5
B08
102
{ACAD_REACTORS
330
EBB
102
}
330
A
100
AcDbEntity
  8
1
  6
Continuous
100
AcDbLine
 10
1725.273994366204
 20
398.8667035949106
 30
0.0
 11
1721.615115172705
 21
398.8667035949106
 31
0.0
  0
LINE
  5
B09
102
{ACAD_REACTORS
330
EBB
102
}
330
A
100
AcDbEntity
  8
1
  6
Continuous
100
AcDbLine
 10
1737.549971532705
 20
390.8667035949106
 30
0.0
 11
1724.289551102205
 21
390.8667035949106
 31
0.0
  0
LINE
  5
B0A
102
{ACAD_REACTORS
330
EBB
102
}
330
A
100
AcDbEntity
  8
1
  6
Continuous
100
AcDbLine
 10
1789.628385967205
 20
390.8667035949106
 30
0.0
 11
1793.783968534705
 21
390.8667035949106
 31
0.0
  0
LINE
  5
B0B
102
{ACAD_REACTORS
330
EBB
102
}
330
A
100
AcDbEntity
  8
1
  6
Continuous
100
AcDbLine
 10
1789.628385967205
 20
390.8667035949106
 30
0.0
 11
1776.367965536705
 21
390.8667035949106
 31
0.0
  0
ARC
  5
B0C
102
{ACAD_REACTORS
330
EBB
102
}
330
A
100
AcDbEntity
  8
1
  6
Continuous
100
AcDbCircle
 10
-2363.939656238793
 20
964.1353448839106
 30
0.0
 40
4141.358967996001
100
AcDbArc
 50
352.043267639
 51
352.1550085196
  0
LINE
  5
B0D
102
{ACAD_REACTORS
330
EBB
102
}
330
A
100
AcDbEntity
  8
1
  6
Continuous
100
AcDbLine
 10
1724.289551102205
 20
390.8667035949106
 30
0.0
 11
1725.273994366204
 21
398.8667035949106
 31
0.0
  0
LINE
  5
B0E
102
{ACAD_REACTORS
330
EBB
102
}
330
A
100
AcDbEntity
  8
1
  6
Continuous
100
AcDbLine
 10
1721.615115172705
 20
398.8667035949106
 30
0.0
 11
1720.133968534705
 21
390.8667035949106
 31
0.0
  0
LINE
  5
B0F
102
{ACAD_REACTORS
330
EBB
102
}
330
A
100
AcDbEntity
  8
1
  6
Continuous
100
AcDbLine
 10
1747.582435326705
 20
390.8667035949106
 30
0.0
 11
1747.493501704205
 21
398.8667035949106
 31
0.0
  0
LINE
  5
B10
102
{ACAD_REACTORS
330
EBB
102
}
330
A
100
AcDbEntity
  8
1
  6
Continuous
100
AcDbLine
 10
1793.783968534705
 20
390.8667035949106
 30
0.0
 11
1792.302821896705
 21
398.8667035949106
 31
0.0
  0
ARC
  5
B11
102
{ACAD_REACTORS
330
EBB
102
}
330
A
100
AcDbEntity
  8
1
  6
Continuous
100
AcDbCircle
 10
-1079.747068497294
 20
426.5062519709107
 30
0.0
 40
2846.305706355499
100
AcDbArc
 50
359.2825615801999
 51
359.4436105877
  0
LINE
  5
B12
102
{ACAD_REACTORS
330
EBB
102
}
330
A
100
AcDbEntity
  8
1
  6
Continuous
100
AcDbLine
 10
1775.257751137705
 20
398.8667035949106
 30
0.0
 11
1766.424435365205
 21
398.8667035949106
 31
0.0
  0
LINE
  5
B13
102
{ACAD_REACTORS
330
EBB
102
}
330
A
100
AcDbEntity
  8
1
  6
Continuous
100
AcDbLine
 10
1766.335501742705
 20
390.8667035949106
 30
0.0
 11
1776.367965536705
 21
390.8667035949106
 31
0.0
  0
LINE
  5
B14
102
{ACAD_REACTORS
330
E92
330
EBB
102
}
330
A
100
AcDbEntity
  8
1
  6
Continuous
100
AcDbLine
 10
1766.335501742705
 20
390.8667035949106
 30
0.0
 11
1747.582435326705
 21
390.8667035949106
 31
0.0
  0
LINE
  5
B15
102
{ACAD_REACTORS
330
EBB
102
}
330
A
100
AcDbEntity
  8
1
  6
Continuous
100
AcDbLine
 10
1747.493501704205
 20
398.8667035949106
 30
0.0
 11
1738.660185932205
 21
398.8667035949106
 31
0.0
  0
LINE
  5
B16
102
{ACAD_REACTORS
330
EBB
102
}
330
A
100
AcDbEntity
  8
1
  6
Continuous
100
AcDbLine
 10
1737.549971532705
 20
390.8667035949106
 30
0.0
 11
1747.582435326705
 21
390.8667035949106
 31
0.0
  0
LINE
  5
B17
102
{ACAD_REACTORS
330
EBB
102
}
330
A
100
AcDbEntity
  8
1
  6
Continuous
100
AcDbLine
 10
1792.302821896705
 20
398.8667035949106
 30
0.0
 11
1788.643942703204
 21
398.8667035949106
 31
0.0
  0
LINE
  5
B18
102
{ACAD_REACTORS
330
EBB
102
}
330
A
100
AcDbEntity
  8
1
  6
Continuous
100
AcDbLine
 10
1720.133968534705
 20
390.8667035949106
 30
0.0
 11
1724.289551102205
 21
390.8667035949106
 31
0.0
  0
LINE
  5
B19
102
{ACAD_REACTORS
330
EBB
102
}
330
A
100
AcDbEntity
  8
1
  6
Continuous
100
AcDbLine
 10
1728.947612062205
 20
402.8667035949106
 30
0.0
 11
1784.970325007205
 21
402.8667035949106
 31
0.0
  0
LINE
  5
B1A
102
{ACAD_REACTORS
330
EBB
102
}
330
A
100
AcDbEntity
  8
1
  6
Continuous
100
AcDbLine
 10
1776.367965536705
 20
390.8667035949106
 30
0.0
 11
1775.257751137705
 21
398.8667035949106
 31
0.0
  0
LINE
  5
B1B
102
{ACAD_REACTORS
330
EBB
102
}
330
A
100
AcDbEntity
  8
1
  6
Continuous
100
AcDbLine
 10
1444.958968534705
 20
385.8667035949106
 30
0.0
 11
1468.958968534705
 21
385.8667035949106
 31
0.0
  0
LINE
  5
B1D
102
{ACAD_REACTORS
330
EBB
102
}
330
A
100
AcDbEntity
  8
1
  6
Continuous
100
AcDbLine
 10
1467.958968534705
 20
406.8667035949107
 30
0.0
 11
1445.958968534706
 21
406.8667035949107
 31
0.0
  0
LINE
  5
B1E
102
{ACAD_REACTORS
330
EBB
102
}
330
A
100
AcDbEntity
  8
1
  6
Continuous
100
AcDbLine
 10
1445.958968534706
 20
406.8667035949107
 30
0.0
 11
1442.958968534705
 21
402.8667035949106
 31
0.0
  0
ARC
  5
B1F
102
{ACAD_REACTORS
330
EBB
102
}
330
A
100
AcDbEntity
  8
1
  6
Continuous
100
AcDbCircle
 10
1444.958968534705
 20
387.8667035949106
 30
0.0
 40
2.0
100
AcDbArc
 50
180.0
 51
270.0
  0
LINE
  5
B20
102
{ACAD_REACTORS
330
EBB
102
}
330
A
100
AcDbEntity
  8
1
  6
Continuous
100
AcDbLine
 10
1428.947612062205
 20
402.8667035949106
 30
0.0
 11
1423.634791355206
 21
400.3892946124107
 31
0.0
  0
LINE
  5
B21
102
{ACAD_REACTORS
330
EBB
102
}
330
A
100
AcDbEntity
  8
1
  6
Continuous
100
AcDbLine
 10
1442.958968534705
 20
390.8667035949106
 30
0.0
 11
1442.958968534705
 21
387.8667035949106
 31
0.0
  0
LINE
  5
B22
102
{ACAD_REACTORS
330
EBB
102
}
330
A
100
AcDbEntity
  8
1
  6
Continuous
100
AcDbLine
 10
1470.958968534706
 20
402.8667035949106
 30
0.0
 11
1467.958968534705
 21
406.8667035949107
 31
0.0
  0
ARC
  5
B23
102
{ACAD_REACTORS
330
EBB
102
}
330
A
100
AcDbEntity
  8
1
  6
Continuous
100
AcDbCircle
 10
1468.958968534705
 20
387.8667035949106
 30
0.0
 40
2.0
100
AcDbArc
 50
270.0
 51
0.0
  0
LINE
  5
B24
102
{ACAD_REACTORS
330
EBB
102
}
330
A
100
AcDbEntity
  8
1
  6
Continuous
100
AcDbLine
 10
1490.283145714205
 20
400.3892946124107
 30
0.0
 11
1484.970325007205
 21
402.8667035949106
 31
0.0
  0
LINE
  5
B25
102
{ACAD_REACTORS
330
EBB
102
}
330
A
100
AcDbEntity
  8
1
  6
Continuous
100
AcDbLine
 10
1470.958968534706
 20
387.8667035949106
 30
0.0
 11
1470.958968534706
 21
390.8667035949106
 31
0.0
  0
LINE
  5
B26
102
{ACAD_REACTORS
330
EBB
102
}
330
A
100
AcDbEntity
  8
1
  6
Continuous
100
AcDbLine
 10
1425.273994366205
 20
398.8667035949106
 30
0.0
 11
1421.615115172705
 21
398.8667035949106
 31
0.0
  0
LINE
  5
B27
102
{ACAD_REACTORS
330
EBB
102
}
330
A
100
AcDbEntity
  8
1
  6
Continuous
100
AcDbLine
 10
1437.549971532705
 20
390.8667035949106
 30
0.0
 11
1424.289551102205
 21
390.8667035949106
 31
0.0
  0
LINE
  5
B28
102
{ACAD_REACTORS
330
EBB
102
}
330
A
100
AcDbEntity
  8
1
  6
Continuous
100
AcDbLine
 10
1489.628385967205
 20
390.8667035949106
 30
0.0
 11
1493.783968534705
 21
390.8667035949106
 31
0.0
  0
ARC
  5
B29
102
{ACAD_REACTORS
330
EBB
102
}
330
A
100
AcDbEntity
  8
1
  6
Continuous
100
AcDbCircle
 10
1456.958968534705
 20
370.1556709994106
 30
0.0
 40
30.23108425149999
100
AcDbArc
 50
71.75362123219996
 51
108.2463787678
  0
SPLINE
  5
B2A
102
{ACAD_REACTORS
330
EBB
102
}
330
A
100
AcDbEntity
  8
1
  6
Continuous
100
AcDbSpline
210
0.0
220
0.0
230
1.0
 70
     8
 71
     3
 72
    15
 73
    11
 74
     0
 42
0.0000000001
 43
0.0000000001
 40
0.0
 40
0.0
 40
0.0
 40
0.0
 40
0.2499999999999999
 40
0.2499999999999999
 40
0.3124999999999999
 40
0.3124999999999999
 40
0.3749999999999998
 40
0.3749999999999998
 40
0.5
 40
0.500063592171539
 40
0.500063592171539
 40
0.500063592171539
 40
0.500063592171539
 10
1421.615115172693
 20
398.8667035947954
 30
0.0
 10
1422.263733203838
 20
399.3348897639924
 30
0.0
 10
1422.766434099082
 20
399.7156132786418
 30
0.0
 10
1423.19810334225
 20
400.0475281400843
 30
0.0
 10
1423.274487919929
 20
400.1066450253819
 30
0.0
 10
1423.406502850624
 20
400.2092140803521
 30
0.0
 10
1423.46207608263
 20
400.2526215857703
 30
0.0
 10
1423.594501754571
 20
400.3563024278003
 30
0.0
 10
1423.638329603991
 20
400.3909373962001
 30
0.0
 10
1423.638351133347
 20
400.3909544655644
 30
0.0
 10
1423.638351132968
 20
400.3909544652933
 30
0.0
  0
SPLINE
  5
B2B
102
{ACAD_REACTORS
330
EBB
102
}
330
A
100
AcDbEntity
  8
1
  6
Continuous
100
AcDbSpline
210
0.0
220
0.0
230
1.0
 70
     8
 71
     3
 72
    21
 73
    17
 74
     0
 42
0.0000000001
 43
0.0000000001
 40
0.0
 40
0.0
 40
0.0
 40
0.0
 40
0.2499999999999991
 40
0.2499999999999991
 40
0.3124999999999991
 40
0.3124999999999991
 40
0.3749999999999989
 40
0.3749999999999989
 40
0.499999999999999
 40
0.6249999999999992
 40
0.6249999999999992
 40
0.6874999999999992
 40
0.6874999999999992
 40
0.7499999999999993
 40
0.7499999999999993
 40
1.0
 40
1.0
 40
1.0
 40
1.0
 10
1438.660185931968
 20
398.8667035947955
 30
0.0
 10
1438.087009410747
 20
399.3348897639924
 30
0.0
 10
1437.367605033806
 20
399.7156132786418
 30
0.0
 10
1436.26724398615
 20
400.0475281400843
 30
0.0
 10
1436.037002583984
 20
400.1066450253819
 30
0.0
 10
1435.555229343904
 20
400.2092140803521
 30
0.0
 10
1435.30335149631
 20
400.2526215857703
 30
0.0
 10
1434.526966662343
 20
400.3563024278003
 30
0.0
 10
1433.429329117162
 20
400.4255371696106
 30
0.0
 10
1432.208796496824
 20
400.3564410445937
 30
0.0
 10
1431.246768350768
 20
400.2531001380457
 30
0.0
 10
1430.917190865356
 20
400.2098933393659
 30
0.0
 10
1430.247680173473
 20
400.1072891646606
 30
0.0
 10
1429.908938452373
 20
400.0481351561802
 30
0.0
 10
1428.195951438723
 20
399.7159860167296
 30
0.0
 10
1426.7646233447
 20
399.3349425492133
 30
0.0
 10
1425.273994366381
 20
398.8667035947954
 30
0.0
  0
SPLINE
  5
B2C
102
{ACAD_REACTORS
330
EBB
102
}
330
A
100
AcDbEntity
  8
1
  6
Continuous
100
AcDbSpline
210
0.0
220
0.0
230
1.0
 70
     8
 71
     3
 72
    14
 73
    10
 74
     0
 42
0.0000000001
 43
0.0000000001
 40
0.5000635921715415
 40
0.5000635921715415
 40
0.5000635921715415
 40
0.5000635921715415
 40
0.6249999999999996
 40
0.6249999999999996
 40
0.6874999999999995
 40
0.6874999999999995
 40
0.7499999999999995
 40
0.7499999999999995
 40
1.0
 40
1.0
 40
1.0
 40
1.0
 10
1490.279585936515
 20
400.3909544652933
 30
0.0
 10
1490.279586681114
 20
400.3909539327972
 30
0.0
 10
1490.32330495329
 20
400.3564059956729
 30
0.0
 10
1490.455248806365
 20
400.2531001380457
 30
0.0
 10
1490.510562556869
 20
400.2098933393657
 30
0.0
 10
1490.642617520871
 20
400.1072891646606
 30
0.0
 10
1490.719047122116
 20
400.0481351561802
 30
0.0
 10
1491.151006889128
 20
399.7159860167296
 30
0.0
 10
1491.6541307378
 20
399.3349425492133
 30
0.0
 10
1492.302821896791
 20
398.8667035947954
 30
0.0
  0
SPLINE
  5
B2D
102
{ACAD_REACTORS
330
EBB
102
}
330
A
100
AcDbEntity
  8
1
  6
Continuous
100
AcDbSpline
210
0.0
220
0.0
230
1.0
 70
     8
 71
     3
 72
    21
 73
    17
 74
     0
 42
0.0000000001
 43
0.0000000001
 40
0.0
 40
0.0
 40
0.0
 40
0.0
 40
0.2499999999999996
 40
0.2499999999999996
 40
0.3124999999999996
 40
0.3124999999999996
 40
0.3749999999999996
 40
0.3749999999999996
 40
0.4999999999999998
 40
0.6249999999999996
 40
0.6249999999999996
 40
0.6874999999999996
 40
0.6874999999999996
 40
0.7499999999999996
 40
0.7499999999999996
 40
1.0
 40
1.0
 40
1.0
 40
1.0
 10
1488.643942703103
 20
398.8667035947954
 30
0.0
 10
1487.153481765438
 20
399.3348897639924
 30
0.0
 10
1485.723150964626
 20
399.7156132786418
 30
0.0
 10
1484.01231741882
 20
400.0475281400843
 30
0.0
 10
1483.674051910946
 20
400.1066450253819
 30
0.0
 10
1483.005581365442
 20
400.2092140803521
 30
0.0
 10
1482.67511109944
 20
400.2526215857703
 30
0.0
 10
1481.711448084207
 20
400.3563024278003
 30
0.0
 10
1480.489910250806
 20
400.4255371423134
 30
0.0
 10
1479.393030252202
 20
400.3564410445937
 30
0.0
 10
1478.617662199948
 20
400.2531001380457
 30
0.0
 10
1478.366310170684
 20
400.2098933393659
 30
0.0
 10
1477.883553399871
 20
400.1072891646606
 30
0.0
 10
1477.652899457419
 20
400.0481351561802
 30
0.0
 10
1476.550795804677
 20
399.7159860167296
 30
0.0
 10
1475.830992280999
 20
399.3349425492133
 30
0.0
 10
1475.257751137516
 20
398.8667035947955
 30
0.0
  0
ARC
  5
B2E
102
{ACAD_REACTORS
330
EBB
102
}
330
A
100
AcDbEntity
  8
1
  6
Continuous
100
AcDbCircle
 10
-2596.339733559794
 20
-107.8731999990892
 30
0.0
 40
4116.29408148
100
AcDbArc
 50
6.95919038909999
 51
7.071384439799992
  0
LINE
  5
B2F
102
{ACAD_REACTORS
330
EBB
102
}
330
A
100
AcDbEntity
  8
1
  6
Continuous
100
AcDbLine
 10
1489.628385967205
 20
390.8667035949106
 30
0.0
 11
1476.367965536705
 21
390.8667035949106
 31
0.0
  0
ARC
  5
B30
102
{ACAD_REACTORS
330
EBB
102
}
330
A
100
AcDbEntity
  8
1
  6
Continuous
100
AcDbCircle
 10
-2663.939656238794
 20
964.1353448839106
 30
0.0
 40
4141.358967996001
100
AcDbArc
 50
352.043267639
 51
352.1550085196
  0
LINE
  5
B31
102
{ACAD_REACTORS
330
EBB
102
}
330
A
100
AcDbEntity
  8
1
  6
Continuous
100
AcDbLine
 10
1424.289551102205
 20
390.8667035949106
 30
0.0
 11
1425.273994366205
 21
398.8667035949106
 31
0.0
  0
LINE
  5
B32
102
{ACAD_REACTORS
330
EBB
102
}
330
A
100
AcDbEntity
  8
1
  6
Continuous
100
AcDbLine
 10
1421.615115172705
 20
398.8667035949106
 30
0.0
 11
1420.133968534705
 21
390.8667035949106
 31
0.0
  0
LINE
  5
B33
102
{ACAD_REACTORS
330
EBB
102
}
330
A
100
AcDbEntity
  8
1
  6
Continuous
100
AcDbLine
 10
1447.582435326705
 20
390.8667035949106
 30
0.0
 11
1447.493501704205
 21
398.8667035949106
 31
0.0
  0
LINE
  5
B34
102
{ACAD_REACTORS
330
EBB
102
}
330
A
100
AcDbEntity
  8
1
  6
Continuous
100
AcDbLine
 10
1493.783968534705
 20
390.8667035949106
 30
0.0
 11
1492.302821896705
 21
398.8667035949106
 31
0.0
  0
ARC
  5
B35
102
{ACAD_REACTORS
330
EBB
102
}
330
A
100
AcDbEntity
  8
1
  6
Continuous
100
AcDbCircle
 10
-1379.747068497294
 20
426.5062519709107
 30
0.0
 40
2846.305706355499
100
AcDbArc
 50
359.2825615801999
 51
359.4436105877
  0
LINE
  5
B36
102
{ACAD_REACTORS
330
EBB
102
}
330
A
100
AcDbEntity
  8
1
  6
Continuous
100
AcDbLine
 10
1475.257751137705
 20
398.8667035949106
 30
0.0
 11
1466.424435365206
 21
398.8667035949106
 31
0.0
  0
LINE
  5
B37
102
{ACAD_REACTORS
330
EBB
102
}
330
A
100
AcDbEntity
  8
1
  6
Continuous
100
AcDbLine
 10
1466.335501742705
 20
390.8667035949106
 30
0.0
 11
1476.367965536705
 21
390.8667035949106
 31
0.0
  0
LINE
  5
B38
102
{ACAD_REACTORS
330
E92
330
EBB
102
}
330
A
100
AcDbEntity
  8
1
  6
Continuous
100
AcDbLine
 10
1466.335501742705
 20
390.8667035949106
 30
0.0
 11
1447.582435326705
 21
390.8667035949106
 31
0.0
  0
LINE
  5
B39
102
{ACAD_REACTORS
330
EBB
102
}
330
A
100
AcDbEntity
  8
1
  6
Continuous
100
AcDbLine
 10
1447.493501704205
 20
398.8667035949106
 30
0.0
 11
1438.660185932205
 21
398.8667035949106
 31
0.0
  0
LINE
  5
B3A
102
{ACAD_REACTORS
330
EBB
102
}
330
A
100
AcDbEntity
  8
1
  6
Continuous
100
AcDbLine
 10
1437.549971532705
 20
390.8667035949106
 30
0.0
 11
1447.582435326705
 21
390.8667035949106
 31
0.0
  0
LINE
  5
B3B
102
{ACAD_REACTORS
330
EBB
102
}
330
A
100
AcDbEntity
  8
1
  6
Continuous
100
AcDbLine
 10
1492.302821896705
 20
398.8667035949106
 30
0.0
 11
1488.643942703205
 21
398.8667035949106
 31
0.0
  0
LINE
  5
B3C
102
{ACAD_REACTORS
330
EBB
102
}
330
A
100
AcDbEntity
  8
1
  6
Continuous
100
AcDbLine
 10
1420.133968534705
 20
390.8667035949106
 30
0.0
 11
1424.289551102205
 21
390.8667035949106
 31
0.0
  0
LINE
  5
B3D
102
{ACAD_REACTORS
330
EBB
102
}
330
A
100
AcDbEntity
  8
1
  6
Continuous
100
AcDbLine
 10
1428.947612062205
 20
402.8667035949106
 30
0.0
 11
1484.970325007205
 21
402.8667035949106
 31
0.0
  0
LINE
  5
B3E
102
{ACAD_REACTORS
330
EBB
102
}
330
A
100
AcDbEntity
  8
1
  6
Continuous
100
AcDbLine
 10
1476.367965536705
 20
390.8667035949106
 30
0.0
 11
1475.257751137705
 21
398.8667035949106
 31
0.0
  0
LINE
  5
B41
102
{ACAD_REACTORS
330
EBB
102
}
330
A
100
AcDbEntity
  8
1
  6
Continuous
100
AcDbLine
 10
1411.958968534706
 20
443.7667035949107
 30
0.0
 11
1411.958968534706
 21
502.2667035949107
 31
0.0
  0
LINE
  5
B42
102
{ACAD_REACTORS
330
EBB
102
}
330
A
100
AcDbEntity
  8
1
  6
Continuous
100
AcDbLine
 10
1801.958968534705
 20
502.2667035949107
 30
0.0
 11
1801.958968534705
 21
443.7667035949107
 31
0.0
  0
LINE
  5
B46
102
{ACAD_REACTORS
330
EBB
102
}
330
A
100
AcDbEntity
  8
1
  6
Continuous
100
AcDbLine
 10
1456.958968534705
 20
513.7667035949106
 30
0.0
 11
1756.958968534706
 21
513.7667035949106
 31
0.0
  0
LINE
  5
B47
102
{ACAD_REACTORS
330
EBB
102
}
330
A
100
AcDbEntity
  8
1
  6
Continuous
100
AcDbLine
 10
1423.458968534706
 20
513.7667035949106
 30
0.0
 11
1456.958968534705
 21
513.7667035949106
 31
0.0
  0
LINE
  5
B48
102
{ACAD_REACTORS
330
EBB
102
}
330
A
100
AcDbEntity
  8
1
  6
Continuous
100
AcDbLine
 10
1756.958968534706
 20
513.7667035949106
 30
0.0
 11
1790.458968534705
 21
513.7667035949106
 31
0.0
  0
LINE
  5
B4A
102
{ACAD_REACTORS
330
EBB
102
}
330
A
100
AcDbEntity
  8
1
  6
Continuous
100
AcDbLine
 10
1456.958968534705
 20
443.7667035949107
 30
0.0
 11
1411.958968534706
 21
443.7667035949107
 31
0.0
  0
LINE
  5
B4C
102
{ACAD_REACTORS
330
EBB
102
}
330
A
100
AcDbEntity
  8
1
  6
Continuous
100
AcDbLine
 10
1801.958968534705
 20
443.7667035949107
 30
0.0
 11
1756.958968534706
 21
443.7667035949107
 31
0.0
  0
LINE
  5
B4D
102
{ACAD_REACTORS
330
EBB
102
}
330
A
100
AcDbEntity
  8
1
  6
Continuous
100
AcDbLine
 10
1456.958968534705
 20
443.7667035949107
 30
0.0
 11
1756.958968534706
 21
443.7667035949107
 31
0.0
  0
ARC
  5
B4F
102
{ACAD_REACTORS
330
E7A
330
EBB
102
}
330
A
100
AcDbEntity
  8
1
  6
Continuous
100
AcDbCircle
 10
1790.458968534705
 20
502.2667035949107
 30
0.0
 40
11.49999999999999
100
AcDbArc
 50
0.0
 51
90.0
  0
ARC
  5
B51
102
{ACAD_REACTORS
330
E7A
330
EBB
102
}
330
A
100
AcDbEntity
  8
1
  6
Continuous
100
AcDbCircle
 10
1423.458968534706
 20
502.2667035949107
 30
0.0
 40
11.49999999999999
100
AcDbArc
 50
90.0
 51
180.0
  0
LINE
  5
B52
102
{ACAD_REACTORS
330
EAA
330
EBB
102
}
330
A
100
AcDbEntity
  8
1
  6
Continuous
100
AcDbLine
 10
1626.958968534706
 20
1031.06670359491
 30
0.0
 11
1626.958968534706
 21
533.0667035949106
 31
0.0
  0
LINE
  5
B53
102
{ACAD_REACTORS
330
EAA
330
EBB
102
}
330
A
100
AcDbEntity
  8
1
  6
Continuous
100
AcDbLine
 10
1586.958968534706
 20
1031.06670359491
 30
0.0
 11
1586.958968534706
 21
533.0667035949106
 31
0.0
  0
LINE
  5
B55
102
{ACAD_REACTORS
330
EBB
102
}
330
A
100
AcDbEntity
  8
1
  6
Continuous
100
AcDbLine
 10
1626.958968534706
 20
533.0667035949106
 30
0.0
 11
1626.958968534706
 21
513.7667035949106
 31
0.0
  0
LINE
  5
B56
102
{ACAD_REACTORS
330
EBB
102
}
330
A
100
AcDbEntity
  8
1
  6
Continuous
100
AcDbLine
 10
1586.958968534706
 20
513.7667035949106
 30
0.0
 11
1586.958968534706
 21
533.0667035949106
 31
0.0
  0
LINE
  5
B57
102
{ACAD_REACTORS
330
EBB
102
}
330
A
100
AcDbEntity
  8
1
  6
Continuous
100
AcDbLine
 10
1586.958968534706
 20
393.0667035949106
 30
0.0
 11
1587.458968534705
 21
393.0667035949106
 31
0.0
  0
LINE
  5
B58
102
{ACAD_REACTORS
330
EBB
102
}
330
A
100
AcDbEntity
  8
1
  6
Continuous
100
AcDbLine
 10
1626.458968534705
 20
393.0667035949106
 30
0.0
 11
1626.958968534706
 21
393.0667035949106
 31
0.0
  0
LINE
  5
B59
102
{ACAD_REACTORS
330
EBB
102
}
330
A
100
AcDbEntity
  8
1
  6
Continuous
100
AcDbLine
 10
1626.958968534706
 20
393.0667035949106
 30
0.0
 11
1626.958968534706
 21
393.5667035949106
 31
0.0
  0
LINE
  5
B5A
102
{ACAD_REACTORS
330
EBB
102
}
330
A
100
AcDbEntity
  8
1
  6
Continuous
100
AcDbLine
 10
1586.958968534706
 20
393.5667035949106
 30
0.0
 11
1586.958968534706
 21
393.0667035949106
 31
0.0
  0
LINE
  5
B5B
102
{ACAD_REACTORS
330
EBB
102
}
330
A
100
AcDbEntity
  8
1
  6
Continuous
100
AcDbLine
 10
1626.958968534706
 20
1006.67142717791
 30
0.0
 11
1632.958968534705
 21
1006.60859302791
 31
0.0
  0
LINE
  5
B5C
102
{ACAD_REACTORS
330
EBB
102
}
330
A
100
AcDbEntity
  8
1
  6
Continuous
100
AcDbLine
 10
1632.958968534705
 20
1029.52481416141
 30
0.0
 11
1626.958968534706
 21
1029.46198001141
 31
0.0
  0
LINE
  5
B5D
102
{ACAD_REACTORS
330
EBB
102
}
330
A
100
AcDbEntity
  8
1
  6
Continuous
100
AcDbLine
 10
1586.958968534706
 20
1029.46198001141
 30
0.0
 11
1580.958968534706
 21
1029.52481416141
 31
0.0
  0
LINE
  5
B5E
102
{ACAD_REACTORS
330
EBB
102
}
330
A
100
AcDbEntity
  8
1
  6
Continuous
100
AcDbLine
 10
1580.958968534706
 20
1006.60859302791
 30
0.0
 11
1586.958968534706
 21
1006.67142717791
 31
0.0
  0
LINE
  5
B63
102
{ACAD_REACTORS
330
EBB
102
}
330
A
100
AcDbEntity
  8
1
  6
Continuous
100
AcDbLine
 10
1634.458968534706
 20
1040.96670359491
 30
0.0
 11
1634.412755021205
 21
1040.92226620341
 31
0.0
  0
LINE
  5
B65
102
{ACAD_REACTORS
330
EBB
102
}
330
A
100
AcDbEntity
  8
1
  6
Continuous
100
AcDbLine
 10
1643.458968534706
 20
1040.65464100241
 30
0.0
 11
1643.458968534706
 21
1044.06670359491
 31
0.0
  0
LINE
  5
B66
102
{ACAD_REACTORS
330
EBB
102
}
330
A
100
AcDbEntity
  8
1
  6
Continuous
100
AcDbLine
 10
1642.658968534705
 20
1044.06670359491
 30
0.0
 11
1642.658968534705
 21
1040.67831870741
 31
0.0
  0
LINE
  5
B67
102
{ACAD_REACTORS
330
EBB
102
}
330
A
100
AcDbEntity
  8
1
  6
Continuous
100
AcDbLine
 10
1571.258968534706
 20
1040.67831870741
 30
0.0
 11
1571.258968534706
 21
1044.06670359491
 31
0.0
  0
LINE
  5
B68
102
{ACAD_REACTORS
330
EBB
102
}
330
A
100
AcDbEntity
  8
1
  6
Continuous
100
AcDbLine
 10
1570.458968534705
 20
1044.06670359491
 30
0.0
 11
1570.458968534705
 21
1040.65464100241
 31
0.0
  0
LINE
  5
B6A
102
{ACAD_REACTORS
330
EBB
102
}
330
A
100
AcDbEntity
  8
1
  6
Continuous
100
AcDbLine
 10
1561.458968534705
 20
994.0533726629102
 30
0.0
 11
1561.458968534705
 21
1042.08003452641
 31
0.0
  0
ARC
  5
B6B
102
{ACAD_REACTORS
330
EBB
102
}
330
A
100
AcDbEntity
  8
1
  6
Continuous
100
AcDbCircle
 10
1561.958968534706
 20
1042.08003452641
 30
0.0
 40
0.5
100
AcDbArc
 50
91.54815769900006
 51
180.0
  0
LINE
  5
B6C
102
{ACAD_REACTORS
330
EBB
102
}
330
A
100
AcDbEntity
  8
1
  6
Continuous
100
AcDbLine
 10
1566.958968534706
 20
1042.71535224341
 30
0.0
 11
1561.945459954205
 21
1042.57985201141
 31
0.0
  0
ARC
  5
B6D
102
{ACAD_REACTORS
330
EBB
102
}
330
A
100
AcDbEntity
  8
1
  6
Continuous
100
AcDbCircle
 10
1579.958968534706
 20
994.0667035949108
 30
0.0
 40
1.0
100
AcDbArc
 50
270.0
 51
0.0
  0
LINE
  5
B6E
102
{ACAD_REACTORS
330
EBB
102
}
330
A
100
AcDbEntity
  8
1
  6
Continuous
100
AcDbLine
 10
1580.958968534706
 20
1039.83801499291
 30
0.0
 11
1580.958968534706
 21
1039.52435302291
 31
0.0
  0
LINE
  5
B6F
102
{ACAD_REACTORS
330
EBB
102
}
330
A
100
AcDbEntity
  8
1
  6
Continuous
100
AcDbLine
 10
1566.958968534706
 20
1040.55105104391
 30
0.0
 11
1566.958968534706
 21
1042.71535224341
 31
0.0
  0
ARC
  5
B70
102
{ACAD_REACTORS
330
EBB
102
}
330
A
100
AcDbEntity
  8
1
  6
Continuous
100
AcDbCircle
 10
1561.958968534706
 20
994.0533726629102
 30
0.0
 40
0.5
100
AcDbArc
 50
180.0
 51
268.4518423009999
  0
LINE
  5
B71
102
{ACAD_REACTORS
330
EBB
102
}
330
A
100
AcDbEntity
  8
1
  6
Continuous
100
AcDbLine
 10
1561.945459954205
 20
993.5535551779107
 30
0.0
 11
1579.958968534706
 21
993.0667035949108
 31
0.0
  0
LINE
  5
B72
102
{ACAD_REACTORS
330
EBB
102
}
330
A
100
AcDbEntity
  8
1
  6
Continuous
100
AcDbLine
 10
1579.958968534706
 20
1040.93567821091
 30
0.0
 11
1579.958968534706
 21
993.0667035949108
 31
0.0
  0
SPLINE
  5
B73
102
{ACAD_REACTORS
330
EBB
102
}
330
A
100
AcDbEntity
  8
1
  6
Continuous
100
AcDbSpline
210
0.0
220
0.0
230
1.0
 70
     8
 71
     3
 72
    11
 73
     7
 74
     0
 42
0.0000000001
 43
0.0000000001
 40
0.0
 40
0.0
 40
0.0
 40
0.0
 40
0.7479459833743065
 40
0.7479459833743065
 40
0.7479459833743065
 40
1.0
 40
1.0
 40
1.0
 40
1.0
 10
1566.958968534742
 20
1040.551051043732
 30
0.0
 10
1570.200063777401
 20
1040.647080151951
 30
0.0
 10
1573.441162078831
 20
1040.743006074412
 30
0.0
 10
1576.682263315219
 20
1040.838832673483
 30
0.0
 10
1577.774498056311
 20
1040.871125753208
 30
0.0
 10
1578.866733131006
 20
1040.903407551509
 30
0.0
 10
1579.958968534743
 20
1040.935678211074
 30
0.0
  0
LINE
  5
B74
102
{ACAD_REACTORS
330
EBB
102
}
330
A
100
AcDbEntity
  8
1
  6
Continuous
100
AcDbLine
 10
1580.958968534706
 20
1039.83801499291
 30
0.0
 11
1580.958968534706
 21
994.0667035949108
 31
0.0
  0
LINE
  5
B75
102
{ACAD_REACTORS
330
EBB
102
}
330
A
100
AcDbEntity
  8
1
  6
Continuous
100
AcDbLine
 10
1580.958968534706
 20
996.6090541664101
 30
0.0
 11
1580.958968534706
 21
995.5667035949108
 31
0.0
  0
ARC
  5
B76
102
{ACAD_REACTORS
330
EBB
102
}
330
A
100
AcDbEntity
  8
1
  6
Continuous
100
AcDbCircle
 10
1579.909053142205
 20
1039.88585924691
 30
0.0
 40
1.0510049495
100
AcDbArc
 50
357.3908576846998
 51
87.27782675439994
  0
SPLINE
  5
B78
102
{ACAD_REACTORS
330
EBB
102
}
330
A
100
AcDbEntity
  8
1
  6
Continuous
100
AcDbSpline
210
0.0
220
0.0
230
1.0
 70
     8
 71
     3
 72
    12
 73
     8
 74
     0
 42
0.0000000001
 43
0.0000000001
 40
0.0
 40
0.0
 40
0.0
 40
0.0
 40
0.2500000000000001
 40
0.2500000000000001
 40
0.5000000000000001
 40
0.5000000000000001
 40
1.0
 40
1.0
 40
1.0
 40
1.0
 10
1633.958968534742
 20
1040.935678211073
 30
0.0
 10
1633.821430743421
 20
1040.935678211073
 30
0.0
 10
1633.683637624832
 20
1040.903898219545
 30
0.0
 10
1633.434355902106
 20
1040.784896822205
 30
0.0
 10
1633.324329434583
 20
1040.69909970497
 30
0.0
 10
1633.054661883992
 20
1040.388444049337
 30
0.0
 10
1632.958968534742
 20
1040.111196236517
 30
0.0
 10
1632.958968534742
 20
1039.838014993054
 30
0.0
  0
LINE
  5
B79
102
{ACAD_REACTORS
330
EBB
102
}
330
A
100
AcDbEntity
  8
1
  6
Continuous
100
AcDbLine
 10
1652.458968534705
 20
1042.08003452641
 30
0.0
 11
1652.458968534705
 21
994.0533726629102
 31
0.0
  0
ARC
  5
B7A
102
{ACAD_REACTORS
330
EBB
102
}
330
A
100
AcDbEntity
  8
1
  6
Continuous
100
AcDbCircle
 10
1651.958968534706
 20
994.0533726629102
 30
0.0
 40
0.5
100
AcDbArc
 50
271.548157699
 51
0.0
  0
LINE
  5
B7B
102
{ACAD_REACTORS
330
EBB
102
}
330
A
100
AcDbEntity
  8
1
  6
Continuous
100
AcDbLine
 10
1633.958968534705
 20
993.0667035949108
 30
0.0
 11
1651.972477115205
 21
993.5535551779107
 31
0.0
  0
ARC
  5
B7C
102
{ACAD_REACTORS
330
EBB
102
}
330
A
100
AcDbEntity
  8
1
  6
Continuous
100
AcDbCircle
 10
1633.958968534705
 20
994.0667035949108
 30
0.0
 40
1.0
100
AcDbArc
 50
180.0
 51
270.0
  0
LINE
  5
B7D
102
{ACAD_REACTORS
330
EBB
102
}
330
A
100
AcDbEntity
  8
1
  6
Continuous
100
AcDbLine
 10
1646.958968534706
 20
1042.71535224341
 30
0.0
 11
1646.958968534706
 21
1040.55105104391
 31
0.0
  0
ARC
  5
B7E
102
{ACAD_REACTORS
330
EBB
102
}
330
A
100
AcDbEntity
  8
1
  6
Continuous
100
AcDbCircle
 10
1651.958968534706
 20
1042.08003452641
 30
0.0
 40
0.5
100
AcDbArc
 50
0.0
 51
88.45184230099995
  0
LINE
  5
B7F
102
{ACAD_REACTORS
330
EBB
102
}
330
A
100
AcDbEntity
  8
1
  6
Continuous
100
AcDbLine
 10
1651.972477115205
 20
1042.57985201141
 30
0.0
 11
1646.958968534706
 21
1042.71535224341
 31
0.0
  0
SPLINE
  5
B80
102
{ACAD_REACTORS
330
EBB
102
}
330
A
100
AcDbEntity
  8
1
  6
Continuous
100
AcDbSpline
210
0.0
220
0.0
230
1.0
 70
     8
 71
     3
 72
    11
 73
     7
 74
     0
 42
0.0000000001
 43
0.0000000001
 40
0.0
 40
0.0
 40
0.0
 40
0.0
 40
0.2520540166256879
 40
0.2520540166256879
 40
0.2520540166256879
 40
1.0
 40
1.0
 40
1.0
 40
1.0
 10
1633.958968534742
 20
1040.935678211073
 30
0.0
 10
1635.051203938479
 20
1040.903407551509
 30
0.0
 10
1636.143439013174
 20
1040.871125753208
 30
0.0
 10
1637.235673754265
 20
1040.838832673483
 30
0.0
 10
1640.476774990654
 20
1040.743006074412
 30
0.0
 10
1643.717873292084
 20
1040.647080151951
 30
0.0
 10
1646.958968534742
 20
1040.551051043732
 30
0.0
  0
LINE
  5
B81
102
{ACAD_REACTORS
330
EBB
102
}
330
A
100
AcDbEntity
  8
1
  6
Continuous
100
AcDbLine
 10
1633.958968534705
 20
1040.93567821091
 30
0.0
 11
1633.958968534705
 21
993.0667035949108
 31
0.0
  0
LINE
  5
B82
102
{ACAD_REACTORS
330
EBB
102
}
330
A
100
AcDbEntity
  8
1
  6
Continuous
100
AcDbLine
 10
1632.958968534705
 20
1039.83801499291
 30
0.0
 11
1632.958968534705
 21
994.0667035949108
 31
0.0
  0
LINE
  5
B83
102
{ACAD_REACTORS
330
EBB
102
}
330
A
100
AcDbEntity
  8
1
  6
Continuous
100
AcDbLine
 10
1632.958968534705
 20
996.6090541664101
 30
0.0
 11
1632.958968534705
 21
995.5667035949108
 31
0.0
  0
LINE
  5
B84
102
{ACAD_REACTORS
330
EBB
102
}
330
A
100
AcDbEntity
  8
1
  6
Continuous
100
AcDbLine
 10
1632.958968534705
 20
1039.83801499291
 30
0.0
 11
1632.958968534705
 21
1039.52435302291
 31
0.0
  0
ARC
  5
B85
102
{ACAD_REACTORS
330
EBB
102
}
330
A
100
AcDbEntity
  8
1
  6
Continuous
100
AcDbCircle
 10
1587.458968534705
 20
393.5667035949106
 30
0.0
 40
0.5
100
AcDbArc
 50
180.0
 51
270.0
  0
LINE
  5
B86
102
{ACAD_REACTORS
330
EBB
102
}
330
A
100
AcDbEntity
  8
1
  6
Continuous
100
AcDbLine
 10
1586.958968534706
 20
393.5667035949106
 30
0.0
 11
1586.958968534706
 21
414.8667035949106
 31
0.0
  0
LINE
  5
B87
102
{ACAD_REACTORS
330
EBB
102
}
330
A
100
AcDbEntity
  8
1
  6
Continuous
100
AcDbLine
 10
1626.958968534706
 20
414.8667035949106
 30
0.0
 11
1626.958968534706
 21
393.5667035949106
 31
0.0
  0
LINE
  5
B88
102
{ACAD_REACTORS
330
EBB
102
}
330
A
100
AcDbEntity
  8
1
  6
Continuous
100
AcDbLine
 10
1624.958968534705
 20
395.0667035949106
 30
0.0
 11
1624.958968534705
 21
414.8667035949106
 31
0.0
  0
LINE
  5
B89
102
{ACAD_REACTORS
330
EBB
102
}
330
A
100
AcDbEntity
  8
1
  6
Continuous
100
AcDbLine
 10
1588.958968534705
 20
395.0667035949106
 30
0.0
 11
1624.958968534705
 21
395.0667035949106
 31
0.0
  0
LINE
  5
B8A
102
{ACAD_REACTORS
330
EBB
102
}
330
A
100
AcDbEntity
  8
1
  6
Continuous
100
AcDbLine
 10
1588.958968534705
 20
414.8667035949106
 30
0.0
 11
1588.958968534705
 21
395.0667035949106
 31
0.0
  0
LINE
  5
B8B
102
{ACAD_REACTORS
330
EBB
102
}
330
A
100
AcDbEntity
  8
1
  6
Continuous
100
AcDbLine
 10
1626.458968534705
 20
393.0667035949106
 30
0.0
 11
1587.458968534705
 21
393.0667035949106
 31
0.0
  0
ARC
  5
B8C
102
{ACAD_REACTORS
330
EBB
102
}
330
A
100
AcDbEntity
  8
1
  6
Continuous
100
AcDbCircle
 10
1626.458968534705
 20
393.5667035949106
 30
0.0
 40
0.5
100
AcDbArc
 50
270.0
 51
0.0
  0
LINE
  5
B8D
102
{ACAD_REACTORS
330
EBB
102
}
330
A
100
AcDbEntity
  8
1
  6
Continuous
100
AcDbLine
 10
1626.958968534706
 20
393.5667035949106
 30
0.0
 11
1624.958968534705
 21
395.0667035949106
 31
0.0
  0
LINE
  5
B8E
102
{ACAD_REACTORS
330
EBB
102
}
330
A
100
AcDbEntity
  8
1
  6
Continuous
100
AcDbLine
 10
1588.958968534705
 20
395.0667035949106
 30
0.0
 11
1587.458968534705
 21
393.0667035949106
 31
0.0
  0
LINE
  5
B8F
102
{ACAD_REACTORS
330
EBB
102
}
330
A
100
AcDbEntity
  8
1
  6
Continuous
100
AcDbLine
 10
1588.958968534705
 20
395.0667035949106
 30
0.0
 11
1586.958968534706
 21
393.5667035949106
 31
0.0
  0
LINE
  5
B90
102
{ACAD_REACTORS
330
EBB
102
}
330
A
100
AcDbEntity
  8
1
  6
Continuous
100
AcDbLine
 10
1626.458968534705
 20
393.0667035949106
 30
0.0
 11
1624.958968534705
 21
395.0667035949106
 31
0.0
  0
ARC
  5
B91
102
{ACAD_REACTORS
330
EBB
102
}
330
A
100
AcDbEntity
  8
1
  6
Continuous
100
AcDbCircle
 10
1645.937770589705
 20
1045.06670359491
 30
0.0
 40
1.0
100
AcDbArc
 50
270.0
 51
357.0
  0
LINE
  5
B94
102
{ACAD_REACTORS
330
EBB
102
}
330
A
100
AcDbEntity
  8
1
  6
Continuous
100
AcDbLine
 10
1629.333713219706
 20
1031.06670359491
 30
0.0
 11
1626.118357586704
 21
1031.06670359491
 31
0.0
  0
LINE
  5
B95
102
{ACAD_REACTORS
330
EBB
102
}
330
A
100
AcDbEntity
  8
1
  6
Continuous
100
AcDbLine
 10
1587.799579482705
 20
1031.06670359491
 30
0.0
 11
1584.584223849705
 21
1031.06670359491
 31
0.0
  0
LINE
  5
B96
102
{ACAD_REACTORS
330
EBB
102
}
330
A
100
AcDbEntity
  8
1
  6
Continuous
100
AcDbLine
 10
1626.118357586704
 20
1031.06670359491
 30
0.0
 11
1587.799579482705
 21
1031.06670359491
 31
0.0
  0
LINE
  5
B97
102
{ACAD_REACTORS
330
EBB
102
}
330
A
100
AcDbEntity
  8
1
  6
Continuous
100
AcDbLine
 10
1648.458968534706
 20
1074.06670359491
 30
0.0
 11
1646.936400124205
 21
1045.01436763841
 31
0.0
  0
LINE
  5
B99
102
{ACAD_REACTORS
330
EBB
102
}
330
A
100
AcDbEntity
  8
1
  6
Continuous
100
AcDbLine
 10
1566.981536945205
 20
1045.01436763841
 30
0.0
 11
1565.458968534705
 21
1074.06670359491
 31
0.0
  0
LINE
  5
B9B
102
{ACAD_REACTORS
330
EBB
102
}
330
A
100
AcDbEntity
  8
1
  6
Continuous
100
AcDbLine
 10
1629.708968534706
 20
1074.06670359491
 30
0.0
 11
1629.333713219706
 21
1031.06670359491
 31
0.0
  0
LINE
  5
BA0
102
{ACAD_REACTORS
330
EBB
102
}
330
A
100
AcDbEntity
  8
1
  6
Continuous
100
AcDbLine
 10
1559.331308612205
 20
1075.96203168241
 30
0.0
 11
1558.958968534705
 21
1083.06670359491
 31
0.0
  0
LINE
  5
BA1
102
{ACAD_REACTORS
330
EBB
102
}
330
A
100
AcDbEntity
  8
1
  6
Continuous
100
AcDbLine
 10
1652.589369387705
 20
1074.06670359491
 30
0.0
 11
1561.328567681705
 21
1074.06670359491
 31
0.0
  0
LINE
  5
BA2
102
{ACAD_REACTORS
330
EBB
102
}
330
A
100
AcDbEntity
  8
1
  6
Continuous
100
AcDbLine
 10
1654.958968534705
 20
1083.06670359491
 30
0.0
 11
1654.586628457205
 21
1075.96203168241
 31
0.0
  0
ARC
  5
BA3
102
{ACAD_REACTORS
330
EBB
102
}
330
A
100
AcDbEntity
  8
1
  6
Continuous
100
AcDbCircle
 10
1652.589369387705
 20
1076.06670359491
 30
0.0
 40
2.0
100
AcDbArc
 50
270.0
 51
357.0
  0
ARC
  5
BA5
102
{ACAD_REACTORS
330
EBB
102
}
330
A
100
AcDbEntity
  8
1
  6
Continuous
100
AcDbCircle
 10
1561.328567681705
 20
1076.06670359491
 30
0.0
 40
2.0
100
AcDbArc
 50
183.0
 51
270.0
  0
ARC
  5
BA8
102
{ACAD_REACTORS
330
EBB
102
}
330
A
100
AcDbEntity
  8
1
  6
Continuous
100
AcDbCircle
 10
1567.980166479705
 20
1045.06670359491
 30
0.0
 40
1.0
100
AcDbArc
 50
183.0
 51
270.0
  0
LINE
  5
BAB
102
{ACAD_REACTORS
330
EBB
102
}
330
A
100
AcDbEntity
  8
1
  6
Continuous
100
AcDbLine
 10
1584.470774568705
 20
1044.06670359491
 30
0.0
 11
1568.978796014705
 21
1044.06670359491
 31
0.0
  0
LINE
  5
BAC
102
{ACAD_REACTORS
330
EBB
102
}
330
A
100
AcDbEntity
  8
1
  6
Continuous
100
AcDbLine
 10
1645.937770589705
 20
1044.06670359491
 30
0.0
 11
1644.939141054705
 21
1044.06670359491
 31
0.0
  0
LINE
  5
BAD
102
{ACAD_REACTORS
330
EBB
102
}
330
A
100
AcDbEntity
  8
1
  6
Continuous
100
AcDbLine
 10
1644.939141054705
 20
1044.06670359491
 30
0.0
 11
1629.447162501205
 21
1044.06670359491
 31
0.0
  0
LINE
  5
BB1
102
{ACAD_REACTORS
330
EBB
102
}
330
A
100
AcDbEntity
  8
1
  6
Continuous
100
AcDbLine
 10
1584.584223849705
 20
1031.06670359491
 30
0.0
 11
1584.208968534705
 21
1074.06670359491
 31
0.0
  0
LINE
  5
BB3
102
{ACAD_REACTORS
330
EBB
102
}
330
A
100
AcDbEntity
  8
1
  6
Continuous
100
AcDbLine
 10
1568.978796014705
 20
1044.06670359491
 30
0.0
 11
1567.980166479705
 21
1044.06670359491
 31
0.0
  0
ELLIPSE
  5
BB4
102
{ACAD_REACTORS
330
EBB
102
}
330
A
100
AcDbEntity
  8
1
  6
Continuous
100
AcDbEllipse
 10
1588.942177742706
 20
990.0667035949107
 30
0.0
 11
-1.999923846128345
 21
-0.0174530709968755
 31
0.0
210
0.0
220
0.0
230
1.0
 40
0.0516303435
 41
0.0
 42
0.1289279893077695
  0
ARC
  5
BB5
102
{ACAD_REACTORS
330
EBB
102
}
330
A
100
AcDbEntity
  8
1
  6
Continuous
100
AcDbCircle
 10
1624.975759326706
 20
990.0667035949107
 30
0.0
 40
2.0
100
AcDbArc
 50
352.5704496208
 51
359.5
  0
LINE
  5
BB6
102
{ACAD_REACTORS
330
EBB
102
}
330
A
100
AcDbEntity
  8
1
  6
Continuous
100
AcDbLine
 10
1584.584223849705
 20
1031.06670359491
 30
0.0
 11
1584.598012290205
 21
1029.48670479141
 31
0.0
  0
LINE
  5
BB7
102
{ACAD_REACTORS
330
EBB
102
}
330
A
100
AcDbEntity
  8
1
  6
Continuous
100
AcDbLine
 10
1584.797315757205
 20
1006.64878957541
 30
0.0
 11
1584.942330050205
 21
990.0317974529109
 31
0.0
  0
LINE
  5
BB8
102
{ACAD_REACTORS
330
EBB
102
}
330
A
100
AcDbEntity
  8
1
  6
Continuous
100
AcDbLine
 10
1629.333713219706
 20
1031.06670359491
 30
0.0
 11
1629.319924779206
 21
1029.48670479141
 31
0.0
  0
LINE
  5
BB9
102
{ACAD_REACTORS
330
EBB
102
}
330
A
100
AcDbEntity
  8
1
  6
Continuous
100
AcDbLine
 10
1629.120621312204
 20
1006.64878957541
 30
0.0
 11
1628.975607019205
 21
990.0317974529109
 31
0.0
  0
LINE
  5
BBA
102
{ACAD_REACTORS
330
EBB
102
}
330
A
100
AcDbEntity
  8
1
  6
Continuous
100
AcDbLine
 10
1627.333637063205
 20
1031.06670359491
 30
0.0
 11
1627.319665816705
 21
1029.46575736291
 31
0.0
  0
LINE
  5
BBB
102
{ACAD_REACTORS
330
EBB
102
}
330
A
100
AcDbEntity
  8
1
  6
Continuous
100
AcDbLine
 10
1627.120727927705
 20
1006.66973317591
 30
0.0
 11
1626.975683172705
 21
990.0492505239101
 31
0.0
  0
LINE
  5
BBC
102
{ACAD_REACTORS
330
EBB
102
}
330
A
100
AcDbEntity
  8
1
  6
Continuous
100
AcDbLine
 10
1586.584300006705
 20
1031.06670359491
 30
0.0
 11
1586.598271252705
 21
1029.46575736291
 31
0.0
  0
LINE
  5
BBD
102
{ACAD_REACTORS
330
EBB
102
}
330
A
100
AcDbEntity
  8
1
  6
Continuous
100
AcDbLine
 10
1586.797209141705
 20
1006.66973317591
 30
0.0
 11
1586.942253896705
 21
990.0492505239101
 31
0.0
  0
ARC
  5
BBE
102
{ACAD_REACTORS
330
EBB
102
}
330
A
100
AcDbEntity
  8
1
  6
Continuous
100
AcDbCircle
 10
1624.975759326706
 20
990.0667035949107
 30
0.0
 40
4.0
100
AcDbArc
 50
299.7226689622999
 51
359.5
  0
ARC
  5
BBF
102
{ACAD_REACTORS
330
EBB
102
}
330
A
100
AcDbEntity
  8
1
  6
Continuous
100
AcDbCircle
 10
1588.942177742706
 20
990.0667035949107
 30
0.0
 40
4.0
100
AcDbArc
 50
180.4999999999999
 51
240.2773310377
  0
ELLIPSE
  5
BC0
102
{ACAD_REACTORS
330
EBB
102
}
330
A
100
AcDbEntity
  8
1
  6
Continuous
100
AcDbEllipse
 10
1624.975759326706
 20
990.0667035949107
 30
0.0
 11
-1.999923846128345
 21
0.0174530709967645
 31
0.0
210
0.0
220
0.0
230
1.0
 40
0.0516303435
 41
3.012664664277604
 42
3.141592653589792
  0
ARC
  5
BC1
102
{ACAD_REACTORS
330
EBB
102
}
330
A
100
AcDbEntity
  8
1
  6
Continuous
100
AcDbCircle
 10
1588.942177742706
 20
990.0667035949107
 30
0.0
 40
2.0
100
AcDbArc
 50
180.4999999999999
 51
187.4295503791
  0
LINE
  5
BD0
102
{ACAD_REACTORS
330
EBB
102
}
330
A
100
AcDbEntity
  8
1
  6
Continuous
100
AcDbLine
 10
1499.958968534705
 20
1156.82428981341
 30
0.0
 11
1499.958968534705
 21
1166.01797537491
 31
0.0
  0
LINE
  5
BD1
102
{ACAD_REACTORS
330
EBB
102
}
330
A
100
AcDbEntity
  8
1
  6
Continuous
100
AcDbLine
 10
1708.958968534705
 20
1166.90827356591
 30
0.0
 11
1504.958968534706
 21
1166.90827356591
 31
0.0
  0
ELLIPSE
  5
BD2
102
{ACAD_REACTORS
330
EBB
102
}
330
A
100
AcDbEntity
  8
1
  6
Continuous
100
AcDbEllipse
 10
1504.958968534706
 20
1166.51607272391
 30
0.0
 11
4.499999999999989
 21
0.0
 31
0.0
210
0.0
220
0.0
230
1.0
 40
0.0871557427
 41
1.570796326794896
 42
3.141592653589792
  0
ELLIPSE
  5
BD8
102
{ACAD_REACTORS
330
EBB
102
}
330
A
100
AcDbEntity
  8
1
  6
Continuous
100
AcDbEllipse
 10
1708.958968534705
 20
1166.51607272391
 30
0.0
 11
4.499999999998935
 21
0.0
 31
0.0
210
0.0
220
0.0
230
1.0
 40
0.0871557427
 41
0.0
 42
1.570796326794896
  0
LINE
  5
BDA
102
{ACAD_REACTORS
330
EBB
102
}
330
A
100
AcDbEntity
  8
1
  6
Continuous
100
AcDbLine
 10
1713.958968534705
 20
1166.01797537491
 30
0.0
 11
1713.958968534705
 21
1156.82428981341
 31
0.0
  0
ELLIPSE
  5
BDB
102
{ACAD_REACTORS
330
EBB
102
}
330
A
100
AcDbEntity
  8
1
  6
Continuous
100
AcDbEllipse
 10
1708.958968534705
 20
1156.82428981341
 30
0.0
 11
4.999999999999796
 21
-0.000000000000222
 31
0.0
210
0.0
220
0.0
230
1.0
 40
0.0871557427
 41
4.781269345598731
 42
6.283185307179584
  0
ELLIPSE
  5
BDC
102
{ACAD_REACTORS
330
EBB
102
}
330
A
100
AcDbEntity
  8
1
  6
Continuous
100
AcDbEllipse
 10
1504.958968534706
 20
1156.82428981341
 30
0.0
 11
5.000000000000499
 21
-0.000000000000111
 31
0.0
210
0.0
220
0.0
230
1.0
 40
0.0871557427
 41
3.141592653589722
 42
4.64350861517015
  0
ELLIPSE
  5
BDD
102
{ACAD_REACTORS
330
EBB
102
}
330
A
100
AcDbEntity
  8
1
  6
Continuous
100
AcDbEllipse
 10
1606.958968534706
 20
1285.68281016591
 30
0.0
 11
1486.999999991941
 21
-0.0000000000228705
 31
0.0
210
0.0
220
0.0
230
1.0
 40
0.0871557427
 41
4.643508615169753
 42
4.781269345599445
  0
LINE
  5
BDE
102
{ACAD_REACTORS
330
EBB
102
}
330
A
100
AcDbEntity
  8
1
  6
Continuous
100
AcDbLine
 10
1504.958968534706
 20
1166.91017621691
 30
0.0
 11
1504.958968534706
 21
1166.90827356591
 31
0.0
  0
ELLIPSE
  5
BDF
102
{ACAD_REACTORS
330
EBB
102
}
330
A
100
AcDbEntity
  8
1
  6
Continuous
100
AcDbEllipse
 10
1500.458968534705
 20
1166.01797537491
 30
0.0
 11
0.499999999999959
 21
0.0
 31
0.0
210
0.0
220
0.0
230
1.0
 40
0.9961946981
 41
1.570796326794896
 42
3.141592653589792
  0
LINE
  5
BE2
102
{ACAD_REACTORS
330
EBB
102
}
330
A
100
AcDbEntity
  8
1
  6
Continuous
100
AcDbLine
 10
1708.958968534705
 20
1166.91017621691
 30
0.0
 11
1708.958968534705
 21
1166.90827356591
 31
0.0
  0
ELLIPSE
  5
BE3
102
{ACAD_REACTORS
330
EBB
102
}
330
A
100
AcDbEntity
  8
1
  6
Continuous
100
AcDbEllipse
 10
1713.458968534705
 20
1166.01797537491
 30
0.0
 11
-0.499999999999959
 21
0.0
 31
0.0
210
0.0
220
0.0
230
1.0
 40
0.9961946981
 41
3.141592653589792
 42
4.712388980384688
  0
ELLIPSE
  5
BE5
102
{ACAD_REACTORS
330
EBB
102
}
330
A
100
AcDbEntity
  8
1
  6
Continuous
100
AcDbEllipse
 10
1502.958968534705
 20
1158.32343324641
 30
0.0
 11
1.499999999999959
 21
0.0
 31
0.0
210
0.0
220
0.0
230
1.0
 40
0.0871557427
 41
3.141592653589792
 42
4.712388980384688
  0
LINE
  5
BE6
102
{ACAD_REACTORS
330
EBB
102
}
330
A
100
AcDbEntity
  8
1
  6
Continuous
100
AcDbLine
 10
1501.458968534704
 20
1158.32343324641
 30
0.0
 11
1501.458968534704
 21
1166.51607306441
 31
0.0
  0
ELLIPSE
  5
BE8
102
{ACAD_REACTORS
330
EBB
102
}
330
A
100
AcDbEntity
  8
1
  6
Continuous
100
AcDbEllipse
 10
1504.958968534706
 20
1166.51607306441
 30
0.0
 11
-3.500000000000045
 21
0.0
 31
0.0
210
0.0
220
0.0
230
1.0
 40
0.0871557427
 41
4.712388980384688
 42
6.283185307179584
  0
LINE
  5
BE9
102
{ACAD_REACTORS
330
EBB
102
}
330
A
100
AcDbEntity
  8
1
  6
Continuous
100
AcDbLine
 10
1504.958968534706
 20
1166.82111816391
 30
0.0
 11
1708.958968534705
 21
1166.82111816391
 31
0.0
  0
ELLIPSE
  5
BEA
102
{ACAD_REACTORS
330
EBB
102
}
330
A
100
AcDbEntity
  8
1
  6
Continuous
100
AcDbEllipse
 10
1708.958968534705
 20
1166.51607306441
 30
0.0
 11
-3.500000000000045
 21
0.0
 31
0.0
210
0.0
220
0.0
230
1.0
 40
0.0871557427
 41
3.141592653589792
 42
4.712388980384688
  0
LINE
  5
BEB
102
{ACAD_REACTORS
330
EBB
102
}
330
A
100
AcDbEntity
  8
1
  6
Continuous
100
AcDbLine
 10
1712.458968534705
 20
1166.51607306441
 30
0.0
 11
1712.458968534705
 21
1158.32343324641
 31
0.0
  0
ELLIPSE
  5
BEC
102
{ACAD_REACTORS
330
EBB
102
}
330
A
100
AcDbEntity
  8
1
  6
Continuous
100
AcDbEllipse
 10
1710.958968534706
 20
1158.32343324641
 30
0.0
 11
1.500000000000014
 21
0.0
 31
0.0
210
0.0
220
0.0
230
1.0
 40
0.0871557427
 41
4.712388980384688
 42
6.283185307179584
  0
LINE
  5
BEF
102
{ACAD_REACTORS
330
EBB
102
}
330
A
100
AcDbEntity
  8
1
  6
Continuous
100
AcDbLine
 10
1710.958968534706
 20
1158.19269963191
 30
0.0
 11
1502.958968534705
 21
1158.19269963191
 31
0.0
  0
ELLIPSE
  5
BF2
102
{ACAD_REACTORS
330
EBB
102
}
330
A
100
AcDbEntity
  8
1
  6
Continuous
100
AcDbEllipse
 10
1708.958968534705
 20
1157.32238749891
 30
0.0
 11
3.500000000003583
 21
0.0
 31
0.0
210
0.0
220
0.0
230
1.0
 40
0.0871557427
 41
4.781097670067746
 42
6.283185307179584
  0
ELLIPSE
  5
BF3
102
{ACAD_REACTORS
330
EBB
102
}
330
A
100
AcDbEntity
  8
1
  6
Continuous
100
AcDbEllipse
 10
1606.958968532705
 20
1286.18090785891
 30
0.0
 11
1485.500000010405
 21
0.0000000000618395
 31
0.0
210
0.0
220
0.0
230
1.0
 40
0.0871557427
 41
4.643508615171914
 42
4.781268941111393
  0
ELLIPSE
  5
BF4
102
{ACAD_REACTORS
330
EBB
102
}
330
A
100
AcDbEntity
  8
1
  6
Continuous
100
AcDbEllipse
 10
1504.958968534706
 20
1157.32238750341
 30
0.0
 11
3.500000000001794
 21
-0.000000000000111
 31
0.0
210
0.0
220
0.0
230
1.0
 40
0.0871557427
 41
3.141592653589691
 42
4.643508615170063
  0
LINE
  5
BF5
102
{ACAD_REACTORS
330
EBB
102
}
330
A
100
AcDbEntity
  8
1
  6
Continuous
100
AcDbLine
 10
1501.458968534704
 20
1157.32238750341
 30
0.0
 11
1501.458968534704
 21
1157.88765453241
 31
0.0
  0
ELLIPSE
  5
BF6
102
{ACAD_REACTORS
330
EBB
102
}
330
A
100
AcDbEntity
  8
1
  6
Continuous
100
AcDbEllipse
 10
1502.958968534705
 20
1157.88765453241
 30
0.0
 11
-1.500000000000029
 21
-0.000000000000111
 31
0.0
210
0.0
220
0.0
230
1.0
 40
0.0871557427
 41
4.712388980384683
 42
6.283185307178737
  0
LINE
  5
BF7
102
{ACAD_REACTORS
330
EBB
102
}
330
A
100
AcDbEntity
  8
1
  6
Continuous
100
AcDbLine
 10
1502.958968534705
 20
1158.01838814641
 30
0.0
 11
1710.958968534706
 21
1158.01838814641
 31
0.0
  0
ELLIPSE
  5
BF8
102
{ACAD_REACTORS
330
EBB
102
}
330
A
100
AcDbEntity
  8
1
  6
Continuous
100
AcDbEllipse
 10
1710.958968534706
 20
1157.88765453241
 30
0.0
 11
-1.499999999999959
 21
0.0
 31
0.0
210
0.0
220
0.0
230
1.0
 40
0.0871557427
 41
3.141592653589792
 42
4.712388980384688
  0
LINE
  5
BF9
102
{ACAD_REACTORS
330
EBB
102
}
330
A
100
AcDbEntity
  8
1
  6
Continuous
100
AcDbLine
 10
1712.458968534705
 20
1157.88765453241
 30
0.0
 11
1712.458968534705
 21
1157.32238749891
 31
0.0
  0
ELLIPSE
  5
BFC
102
{ACAD_REACTORS
330
EBB
102
}
330
A
100
AcDbEntity
  8
1
  6
Continuous
100
AcDbEllipse
 10
1708.958968534705
 20
1155.82809511541
 30
0.0
 11
-4.999999999999753
 21
0.0
 31
0.0
210
0.0
220
0.0
230
1.0
 40
0.0871557427
 41
1.639676692008879
 42
3.141592653589792
  0
ELLIPSE
  5
BFD
102
{ACAD_REACTORS
330
EBB
102
}
330
A
100
AcDbEntity
  8
1
  6
Continuous
100
AcDbEllipse
 10
1504.958968534706
 20
1155.82809511541
 30
0.0
 11
-5.000000000000555
 21
-0.000000000000111
 31
0.0
210
0.0
220
0.0
230
1.0
 40
0.0871557427
 41
0.0000000000000713
 42
1.501915961580353
  0
ELLIPSE
  5
BFE
102
{ACAD_REACTORS
330
EBB
102
}
330
A
100
AcDbEntity
  8
1
  6
Continuous
100
AcDbEllipse
 10
1606.958968336205
 20
1284.68661513041
 30
0.0
 11
-1486.999998047881
 21
0.00000001714362
 31
0.0
210
0.0
220
0.0
230
1.0
 40
0.0871557426
 41
1.501915961624773
 42
1.53412016719375
  0
ELLIPSE
  5
BFF
102
{ACAD_REACTORS
330
EBB
102
}
330
A
100
AcDbEntity
  8
1
  6
Continuous
100
AcDbEllipse
 10
1606.958968534205
 20
1284.68661548591
 30
0.0
 11
-1487.00000009704
 21
0.000000000178413
 31
0.0
210
0.0
220
0.0
230
1.0
 40
0.0871557428
 41
1.534120167110076
 42
1.607472486480664
  0
ELLIPSE
  5
C00
102
{ACAD_REACTORS
330
EBB
102
}
330
A
100
AcDbEntity
  8
1
  6
Continuous
100
AcDbEllipse
 10
1606.958968623206
 20
1284.68661535191
 30
0.0
 11
1486.999999321734
 21
0.000000009044099
 31
0.0
210
0.0
220
0.0
230
1.0
 40
0.0871557427
 41
4.749065140029228
 42
4.781269345570663
  0
LINE
  5
C01
102
{ACAD_REACTORS
330
EBB
102
}
330
A
100
AcDbEntity
  8
1
  6
Continuous
100
AcDbLine
 10
1713.958968534705
 20
1156.82428981341
 30
0.0
 11
1713.958968534705
 21
1155.82809511541
 31
0.0
  0
LINE
  5
C04
102
{ACAD_REACTORS
330
EBB
102
}
330
A
100
AcDbEntity
  8
1
  6
Continuous
100
AcDbLine
 10
1499.958968534705
 20
1156.82428981341
 30
0.0
 11
1499.958968534705
 21
1155.82809511541
 31
0.0
  0
LINE
  5
C07
102
{ACAD_REACTORS
330
EBB
102
}
330
A
100
AcDbEntity
  8
1
  6
Continuous
100
AcDbLine
 10
1717.453581889705
 20
1155.17318174641
 30
0.0
 11
1717.722139136205
 21
1155.35789571941
 31
0.0
  0
LINE
  5
C0B
102
{ACAD_REACTORS
330
EBB
102
}
330
A
100
AcDbEntity
  8
1
  6
Continuous
100
AcDbLine
 10
1496.464355179705
 20
1155.17318174641
 30
0.0
 11
1552.433745013706
 21
1155.17318174641
 31
0.0
  0
ARC
  5
C0C
102
{ACAD_REACTORS
330
EBB
102
}
330
A
100
AcDbEntity
  8
1
  6
Continuous
100
AcDbCircle
 10
1710.137550866705
 20
1184.95829535741
 30
0.0
 40
30.6704630345
100
AcDbArc
 50
269.7246477188
 51
283.8001912665999
  0
ARC
  5
C0D
102
{ACAD_REACTORS
330
EBB
102
}
330
A
100
AcDbEntity
  8
1
  6
Continuous
100
AcDbCircle
 10
1606.958968534706
 20
7866.302099931911
 30
0.0
 40
6712.804644819995
100
AcDbArc
 50
269.1205637184999
 51
270.8794362815
  0
LINE
  5
C0E
102
{ACAD_REACTORS
330
EBB
102
}
330
A
100
AcDbEntity
  8
1
  6
Continuous
100
AcDbLine
 10
1721.164561384204
 20
1162.63687974591
 30
0.0
 11
1721.161521194205
 21
1162.52983035541
 31
0.0
  0
LINE
  5
C0F
102
{ACAD_REACTORS
330
EBB
102
}
330
A
100
AcDbEntity
  8
1
  6
Continuous
100
AcDbLine
 10
1496.195797933205
 20
1155.35789571941
 30
0.0
 11
1496.464355179705
 21
1155.17318174641
 31
0.0
  0
ARC
  5
C13
102
{ACAD_REACTORS
330
EBB
102
}
330
A
100
AcDbEntity
  8
1
  6
Continuous
100
AcDbCircle
 10
1503.701519354205
 20
1184.29318789741
 30
0.0
 40
30.00585448799999
100
AcDbArc
 50
256.0431116668999
 51
270.4320493477999
  0
SPLINE
  5
C19
102
{ACAD_REACTORS
330
EBB
102
}
330
A
100
AcDbEntity
  8
1
  6
Continuous
100
AcDbSpline
210
0.0
220
0.0
230
1.0
 70
     8
 71
     3
 72
    10
 73
     6
 74
     0
 42
0.0000000001
 43
0.0000000001
 40
0.6169774244963735
 40
0.6169774244963735
 40
0.6169774244963735
 40
0.6169774244963735
 40
0.6250000000000055
 40
0.6250000000000055
 40
0.6410089718129379
 40
0.6410089718129379
 40
0.6410089718129379
 40
0.6410089718129379
 10
1497.536691672798
 20
1165.636028623235
 30
0.0
 10
1497.517932222629
 20
1165.636172583765
 30
0.0
 10
1497.499379651504
 20
1165.636296098085
 30
0.0
 10
1497.444444374002
 20
1165.636603178949
 30
0.0
 10
1497.408635246683
 20
1165.636725544403
 30
0.0
 10
1497.373608358713
 20
1165.636762774097
 30
0.0
  0
LINE
  5
C1C
102
{ACAD_REACTORS
330
EBB
102
}
330
A
100
AcDbEntity
  8
1
  6
Continuous
100
AcDbLine
 10
1721.958968534706
 20
1145.84475372191
 30
0.0
 11
1721.958968534706
 21
1156.08229882841
 31
0.0
  0
LINE
  5
C1D
102
{ACAD_REACTORS
330
EBB
102
}
330
A
100
AcDbEntity
  8
1
  6
Continuous
100
AcDbLine
 10
1491.958968534706
 20
1156.08229882841
 30
0.0
 11
1491.958968534706
 21
1145.84475372191
 31
0.0
  0
ELLIPSE
  5
C1F
102
{ACAD_REACTORS
330
EBB
102
}
330
A
100
AcDbEntity
  8
1
  6
Continuous
100
AcDbEllipse
 10
1541.890445271705
 20
1150.16807936641
 30
0.0
 11
-36.91937103421777
 21
36.03600648955851
 31
0.0
210
0.0
220
0.0
230
0.9999999999999996
 40
0.9356985243
 41
0.5540639811476185
 42
0.6877604459459938
  0
SPLINE
  5
C20
102
{ACAD_REACTORS
330
EBB
102
}
330
A
100
AcDbEntity
  8
1
  6
Continuous
100
AcDbSpline
210
0.0
220
0.0
230
1.0
 70
     8
 71
     3
 72
    12
 73
     8
 74
     0
 42
0.0000000001
 43
0.0000000001
 40
0.0
 40
0.0
 40
0.0
 40
0.0
 40
0.25
 40
0.25
 40
0.5
 40
0.5
 40
1.0
 40
1.0
 40
1.0
 40
1.0
 10
1503.112892886109
 20
1144.802824075763
 30
0.0
 10
1501.60377027077
 20
1144.81195180253
 30
0.0
 10
1500.145719532602
 20
1144.845446259058
 30
0.0
 10
1497.429587030793
 20
1144.958161528332
 30
0.0
 10
1496.203657769112
 20
1145.036523113923
 30
0.0
 10
1493.137394108695
 20
1145.322796678638
 30
0.0
 10
1491.958968534744
 20
1145.581061698547
 30
0.0
 10
1491.958968534743
 20
1145.844753721875
 30
0.0
  0
ELLIPSE
  5
C22
102
{ACAD_REACTORS
330
EBB
102
}
330
A
100
AcDbEntity
  8
1
  6
Continuous
100
AcDbEllipse
 10
1606.958968534706
 20
1275.22276583941
 30
0.0
 11
-1500.000000013307
 21
-0.0000000000122125
 31
0.0
210
0.0
220
0.0
230
1.0
 40
0.0871557427
 41
1.501510187517884
 42
1.640082466071958
  0
ELLIPSE
  5
C23
102
{ACAD_REACTORS
330
EBB
102
}
330
A
100
AcDbEntity
  8
1
  6
Continuous
100
AcDbEllipse
 10
1672.027491796705
 20
1150.16807936641
 30
0.0
 11
36.91937103795324
 21
36.03600648714166
 31
0.0
210
0.0
220
0.0
230
1.0
 40
0.9356985243
 41
5.595424861318376
 42
5.729121326115188
  0
SPLINE
  5
C25
102
{ACAD_REACTORS
330
EBB
102
}
330
A
100
AcDbEntity
  8
1
  6
Continuous
100
AcDbSpline
210
0.0
220
0.0
230
1.0
 70
     8
 71
     3
 72
    12
 73
     8
 74
     0
 42
0.0000000001
 43
0.0000000001
 40
0.0
 40
0.0
 40
0.0
 40
0.0
 40
0.2499999999999991
 40
0.2499999999999991
 40
0.4999999999999984
 40
0.4999999999999984
 40
1.0
 40
1.0
 40
1.0
 40
1.0
 10
1721.958968534744
 20
1145.844753721876
 30
0.0
 10
1721.958968534744
 20
1145.712908680441
 30
0.0
 10
1721.676526722909
 20
1145.583817240166
 30
0.0
 10
1720.574406804059
 20
1145.33985531943
 30
0.0
 10
1719.762337629771
 20
1145.227839875514
 30
0.0
 10
1716.697877334657
 20
1144.941419666548
 30
0.0
 10
1713.823311624062
 20
1144.821079663632
 30
0.0
 10
1710.805044183377
 20
1144.802824075763
 30
0.0
  0
LINE
  5
C27
102
{ACAD_REACTORS
330
EBB
102
}
330
A
100
AcDbEntity
  8
1
  6
Continuous
100
AcDbLine
 10
1716.407561945704
 20
1165.63677478141
 30
0.0
 11
1713.958968534705
 21
1165.63677478141
 31
0.0
  0
LINE
  5
C28
102
{ACAD_REACTORS
330
EBB
102
}
330
A
100
AcDbEntity
  8
1
  6
Continuous
100
AcDbLine
 10
1499.958968534705
 20
1165.63677478141
 30
0.0
 11
1497.447708752706
 21
1165.63677478141
 31
0.0
  0
LINE
  5
C29
102
{ACAD_REACTORS
330
EBB
102
}
330
A
100
AcDbEntity
  8
1
  6
Continuous
100
AcDbLine
 10
1708.958968534705
 20
1166.91017621691
 30
0.0
 11
1504.958968534706
 21
1166.91017621691
 31
0.0
  0
SPLINE
  5
C2A
102
{ACAD_REACTORS
330
EBB
102
}
330
A
100
AcDbEntity
  8
1
  6
Continuous
100
AcDbSpline
210
0.0
220
0.0
230
1.0
 70
     8
 71
     3
 72
    15
 73
    11
 74
     0
 42
0.0000000001
 43
0.0000000001
 40
0.1662634620373201
 40
0.1662634620373201
 40
0.1662634620373201
 40
0.1662634620373201
 40
0.2219022964514072
 40
0.3089462663217701
 40
0.3889940257946254
 40
0.4639840002804097
 40
0.5400062789927062
 40
0.6274621932672054
 40
0.7476808948744825
 40
0.9305370730369061
 40
0.9305370730369061
 40
0.9305370730369061
 40
0.9305370730369061
 10
1720.609403485008
 20
1163.984154004953
 30
0.0
 10
1720.519645552365
 20
1164.116646568851
 30
0.0
 10
1720.272183109851
 20
1164.438432037356
 30
0.0
 10
1719.796388612292
 20
1164.865221067678
 30
0.0
 10
1719.223908217091
 20
1165.206741380123
 30
0.0
 10
1718.678781757725
 20
1165.417566465516
 30
0.0
 10
1718.189503846251
 20
1165.534674204021
 30
0.0
 10
1717.712087706279
 20
1165.599703277723
 30
0.0
 10
1717.149433150587
 20
1165.633328043359
 30
0.0
 10
1716.69313257953
 20
1165.639942007093
 30
0.0
 10
1716.381375825045
 20
1165.63677478141
 30
0.0
  0
SPLINE
  5
C2B
102
{ACAD_REACTORS
330
EBB
102
}
330
A
100
AcDbEntity
  8
1
  6
Continuous
100
AcDbSpline
210
0.0
220
0.0
230
1.0
 70
     8
 71
     3
 72
    16
 73
    12
 74
     0
 42
0.0000000001
 43
0.0000000001
 40
0.0
 40
0.0
 40
0.0
 40
0.0
 40
0.0576953902320179
 40
0.2766488117692607
 40
0.4039636080905713
 40
0.4982090919980114
 40
0.5850070772272159
 40
0.6804341778412714
 40
0.7849834812248605
 40
0.8964620481260309
 40
0.9816778358528022
 40
0.9816778358528022
 40
0.9816778358528022
 40
0.9816778358528022
 10
1497.583085932369
 20
1165.63308872511
 30
0.0
 10
1497.475808040969
 20
1165.634793225251
 30
0.0
 10
1497.033636650396
 20
1165.640703787897
 30
0.0
 10
1496.49716647115
 20
1165.62560199317
 30
0.0
 10
1495.852272950283
 20
1165.559258421064
 30
0.0
 10
1495.272160239105
 20
1165.430497931592
 30
0.0
 10
1494.655431828734
 20
1165.192104806736
 30
0.0
 10
1494.01638213521
 20
1164.793153604595
 30
0.0
 10
1493.421488078406
 20
1164.202129301704
 30
0.0
 10
1492.977324358998
 20
1163.480354899165
 30
0.0
 10
1492.846231018682
 20
1162.99291533253
 30
0.0
 10
1492.791623509129
 20
1162.755454756507
 30
0.0
  0
LINE
  5
C2C
102
{ACAD_REACTORS
330
EBB
102
}
330
A
100
AcDbEntity
  8
1
  6
Continuous
100
AcDbLine
 10
1677.958968534706
 20
1083.06670359491
 30
0.0
 11
1677.958968534706
 21
1080.56670359491
 31
0.0
  0
LINE
  5
C2D
102
{ACAD_REACTORS
330
EBB
102
}
330
A
100
AcDbEntity
  8
1
  6
Continuous
100
AcDbLine
 10
1499.971207894705
 20
1134.56568516941
 30
0.0
 11
1603.006060275205
 21
1134.56568516941
 31
0.0
  0
ARC
  5
C2E
102
{ACAD_REACTORS
330
EBB
102
}
330
A
100
AcDbEntity
  8
1
  6
Continuous
100
AcDbCircle
 10
1524.919556675205
 20
1146.12752001691
 30
0.0
 40
32.970364435
100
AcDbArc
 50
182.2292365749
 51
188.1430989266
  0
ARC
  5
C2F
102
{ACAD_REACTORS
330
EBB
102
}
330
A
100
AcDbEntity
  8
1
  6
Continuous
100
AcDbCircle
 10
1681.349979561206
 20
1146.17095656691
 30
0.0
 40
40.570628061
100
AcDbArc
 50
347.9827072374
 51
354.5234550666999
  0
LINE
  5
C30
102
{ACAD_REACTORS
330
EBB
102
}
330
A
100
AcDbEntity
  8
1
  6
Continuous
100
AcDbLine
 10
1710.371350464705
 20
1086.38481551091
 30
0.0
 11
1710.916186138206
 21
1096.86836035691
 31
0.0
  0
LINE
  5
C31
102
{ACAD_REACTORS
330
EBB
102
}
330
A
100
AcDbEntity
  8
1
  6
Continuous
100
AcDbLine
 10
1693.958968534706
 20
1080.56670359491
 30
0.0
 11
1677.958968534706
 21
1080.56670359491
 31
0.0
  0
LINE
  5
C35
102
{ACAD_REACTORS
330
EBB
102
}
330
A
100
AcDbEntity
  8
1
  6
Continuous
100
AcDbLine
 10
1721.158968534705
 20
1144.84855902391
 30
0.0
 11
1721.158968534705
 21
1145.47470493741
 31
0.0
  0
ARC
  5
C36
102
{ACAD_REACTORS
330
EBB
102
}
330
A
100
AcDbEntity
  8
1
  6
Continuous
100
AcDbCircle
 10
1500.780959554705
 20
1174.52214318791
 30
0.0
 40
30.73880181549999
100
AcDbArc
 50
254.8722078297
 51
263.5447666276579
  0
LINE
  5
C38
102
{ACAD_REACTORS
330
EBB
102
}
330
A
100
AcDbEntity
  8
1
  6
Continuous
100
AcDbLine
 10
1492.758968534705
 20
1144.84855902391
 30
0.0
 11
1492.758968534705
 21
1145.47709632841
 31
0.0
  0
ARC
  5
C3E
102
{ACAD_REACTORS
330
EBB
102
}
330
A
100
AcDbEntity
  8
1
  6
Continuous
100
AcDbCircle
 10
1706.875990782205
 20
1086.56669992841
 30
0.0
 40
3.499996333999999
100
AcDbArc
 50
270.0
 51
357.0487462062
  0
SPLINE
  5
C45
102
{ACAD_REACTORS
330
EBB
102
}
330
A
100
AcDbEntity
  8
1
  6
Continuous
100
AcDbSpline
210
0.0
220
0.0
230
1.0
 70
     8
 71
     3
 72
    12
 73
     8
 74
     0
 42
0.0000000001
 43
0.0000000001
 40
0.0
 40
0.0
 40
0.0
 40
0.0
 40
0.2499999999999996
 40
0.2499999999999996
 40
0.4999999999999992
 40
0.4999999999999992
 40
1.0
 40
1.0
 40
1.0
 40
1.0
 10
1491.958968534742
 20
1144.848559023783
 30
0.0
 10
1491.958968534742
 20
1144.71671398235
 30
0.0
 10
1492.241410346576
 20
1144.587622542074
 30
0.0
 10
1493.343530265426
 20
1144.343660621338
 30
0.0
 10
1494.155599439713
 20
1144.231645177422
 30
0.0
 10
1497.220059734829
 20
1143.945224968456
 30
0.0
 10
1500.094625445422
 20
1143.82488496554
 30
0.0
 10
1503.112892886109
 20
1143.806629377671
 30
0.0
  0
SPLINE
  5
C49
102
{ACAD_REACTORS
330
EBB
102
}
330
A
100
AcDbEntity
  8
1
  6
Continuous
100
AcDbSpline
210
0.0
220
0.0
230
1.0
 70
     8
 71
     3
 72
    10
 73
     6
 74
     0
 42
0.0000000001
 43
0.0000000001
 40
0.40020130517669
 40
0.40020130517669
 40
0.40020130517669
 40
0.40020130517669
 40
0.5
 40
0.5
 40
0.6539188427648968
 40
0.6539188427648968
 40
0.6539188427648968
 40
0.6539188427648968
 10
1500.043837453677
 20
1134.56568516941
 30
0.0
 10
1499.755609867993
 20
1134.565470461521
 30
0.0
 10
1499.479938896522
 20
1134.566120426865
 30
0.0
 10
1498.810702784897
 20
1134.5711827896
 30
0.0
 10
1498.445686529825
 20
1134.577431190389
 30
0.0
 10
1498.120540359948
 20
1134.588537898993
 30
0.0
  0
ARC
  5
C4B
102
{ACAD_REACTORS
330
EBB
102
}
330
A
100
AcDbEntity
  8
1
  6
Continuous
100
AcDbCircle
 10
1606.957963535705
 20
1093.47832181941
 30
0.0
 40
41.29306968499999
100
AcDbArc
 50
84.36372058650004
 51
95.64123001680002
  0
ARC
  5
C4C
102
{ACAD_REACTORS
330
EBB
102
}
330
A
100
AcDbEntity
  8
1
  6
Continuous
100
AcDbCircle
 10
1507.041946287206
 20
1086.56669992841
 30
0.0
 40
3.499996333999999
100
AcDbArc
 50
182.9512537938
 51
270.0
  0
LINE
  5
C4F
102
{ACAD_REACTORS
330
EBB
102
}
330
A
100
AcDbEntity
  8
1
  6
Continuous
100
AcDbLine
 10
1698.080989408205
 20
1083.06670359491
 30
0.0
 11
1515.836947661705
 21
1083.06670359491
 31
0.0
  0
LINE
  5
C50
102
{ACAD_REACTORS
330
EBB
102
}
330
A
100
AcDbEntity
  8
1
  6
Continuous
100
AcDbLine
 10
1515.836947661705
 20
1083.06670359491
 30
0.0
 11
1507.041860215205
 21
1083.06670359491
 31
0.0
  0
LINE
  5
C51
102
{ACAD_REACTORS
330
EBB
102
}
330
A
100
AcDbEntity
  8
1
  6
Continuous
100
AcDbLine
 10
1706.876080505705
 20
1083.06670359491
 30
0.0
 11
1698.080989408205
 21
1083.06670359491
 31
0.0
  0
SPLINE
  5
C5B
102
{ACAD_REACTORS
330
EBB
102
}
330
A
100
AcDbEntity
  8
1
  6
Continuous
100
AcDbSpline
210
0.0
220
0.0
230
1.0
 70
     8
 71
     3
 72
    12
 73
     8
 74
     0
 42
0.0000000001
 43
0.0000000001
 40
0.0
 40
0.0
 40
0.0
 40
0.0
 40
0.2499999999999992
 40
0.2499999999999992
 40
0.4999999999999984
 40
0.4999999999999984
 40
1.0
 40
1.0
 40
1.0
 40
1.0
 10
1710.805044183377
 20
1143.806629377671
 30
0.0
 10
1712.314166798715
 20
1143.815757104438
 30
0.0
 10
1713.772217536884
 20
1143.849251560966
 30
0.0
 10
1716.488350038694
 20
1143.96196683024
 30
0.0
 10
1717.714279300374
 20
1144.040328415832
 30
0.0
 10
1720.78054296079
 20
1144.326601980547
 30
0.0
 10
1721.958968534742
 20
1144.584867000455
 30
0.0
 10
1721.958968534742
 20
1144.848559023784
 30
0.0
  0
ELLIPSE
  5
C5C
102
{ACAD_REACTORS
330
EBB
102
}
330
A
100
AcDbEntity
  8
1
  6
Continuous
100
AcDbEllipse
 10
1606.958968534706
 20
1274.22657114141
 30
0.0
 11
1500.000000011586
 21
-0.0000000000173195
 31
0.0
210
0.0
220
0.0
230
1.0
 40
0.0871557427
 41
4.643102841107516
 42
4.781675119661738
  0
LINE
  5
C5D
102
{ACAD_REACTORS
330
EBB
102
}
330
A
100
AcDbEntity
  8
1
  6
Continuous
100
AcDbLine
 10
1721.958968534706
 20
1145.84475372191
 30
0.0
 11
1721.958968534706
 21
1144.84855902391
 31
0.0
  0
LINE
  5
C5E
102
{ACAD_REACTORS
330
EBB
102
}
330
A
100
AcDbEntity
  8
1
  6
Continuous
100
AcDbLine
 10
1491.958968534706
 20
1144.84855902391
 30
0.0
 11
1491.958968534706
 21
1145.84475372191
 31
0.0
  0
LINE
  5
C5F
102
{ACAD_REACTORS
330
EBB
102
}
330
A
100
AcDbEntity
  8
1
  6
Continuous
100
AcDbLine
 10
1717.958968534705
 20
1084.621567443909
 30
0.0
 11
1717.958968534705
 21
1133.97041121191
 31
0.0
  0
LINE
  5
C61
102
{ACAD_REACTORS
330
EBB
102
}
330
A
100
AcDbEntity
  8
1
  6
Continuous
100
AcDbLine
 10
1717.958968534705
 20
1133.97041121191
 30
0.0
 11
1717.958968534705
 21
1134.79672071541
 31
0.0
  0
ARC
  5
C62
102
{ACAD_REACTORS
330
EBB
102
}
330
A
100
AcDbEntity
  8
1
  6
Continuous
100
AcDbCircle
 10
2084.487903436705
 20
1087.84830997991
 30
0.0
 40
373.6850358915
100
AcDbArc
 50
175.4096497968999
 51
178.6404119987999
  0
ARC
  5
C6F
102
{ACAD_REACTORS
330
EBB
102
}
330
A
100
AcDbEntity
  8
1
  6
Continuous
100
AcDbCircle
 10
1497.916321691705
 20
1143.93965637341
 30
0.0
 40
9.348468357499999
100
AcDbArc
 50
255.7708318191
 51
270.5854298942
  0
LINE
  5
C70
102
{ACAD_REACTORS
330
EBB
102
}
330
A
100
AcDbEntity
  8
1
  6
Continuous
100
AcDbLine
 10
1693.958968534706
 20
1080.56670359491
 30
0.0
 11
1693.958968534706
 21
1083.06670359491
 31
0.0
  0
ARC
  5
C71
102
{ACAD_REACTORS
330
EBB
102
}
330
A
100
AcDbEntity
  8
1
  6
Continuous
100
AcDbCircle
 10
1715.891455718205
 20
1144.80988984441
 30
0.0
 40
10.22325156249999
100
AcDbArc
 50
269.3327241820999
 51
283.5861889433998
  0
LINE
  5
C72
102
{ACAD_REACTORS
330
EBB
102
}
330
A
100
AcDbEntity
  8
1
  6
Continuous
100
AcDbLine
 10
1610.909173472205
 20
1134.56568516941
 30
0.0
 11
1713.957869198705
 21
1134.56568516941
 31
0.0
  0
ARC
  5
C73
102
{ACAD_REACTORS
330
EBB
102
}
330
A
100
AcDbEntity
  8
1
  6
Continuous
100
AcDbCircle
 10
1532.153857561705
 20
1145.90423284491
 30
0.0
 40
40.11944238549999
100
AcDbArc
 50
186.3637271633
 51
191.7689989798
  0
ARC
  5
C74
102
{ACAD_REACTORS
330
EBB
102
}
330
A
100
AcDbEntity
  8
1
  6
Continuous
100
AcDbCircle
 10
1717.427796824705
 20
1138.46365596541
 30
0.0
 40
3.6872657075
100
AcDbArc
 50
286.6803991252999
 51
348.3579824757
  0
ARC
  5
C75
102
{ACAD_REACTORS
330
EBB
102
}
330
A
100
AcDbEntity
  8
1
  6
Continuous
100
AcDbCircle
 10
1688.198016308705
 20
1146.31103340591
 30
0.0
 40
33.7765291845
100
AcDbArc
 50
353.1781465661
 51
357.5134271491999
  0
ARC
  5
C76
102
{ACAD_REACTORS
330
EBB
102
}
330
A
100
AcDbEntity
  8
1
  6
Continuous
100
AcDbCircle
 10
1496.513136957205
 20
1138.49797679791
 30
0.0
 40
3.727073540999999
100
AcDbArc
 50
192.0776826416999
 51
253.1545924882998
  0
LINE
  5
C77
102
{ACAD_REACTORS
330
EBB
102
}
330
A
100
AcDbEntity
  8
1
  6
Continuous
100
AcDbLine
 10
1711.991498311205
 20
1117.55915563691
 30
0.0
 11
1712.875337137705
 21
1134.56568516941
 31
0.0
  0
LINE
  5
C78
102
{ACAD_REACTORS
330
EBB
102
}
330
A
100
AcDbEntity
  8
1
  6
Continuous
100
AcDbLine
 10
1501.042599931705
 20
1134.56568516941
 30
0.0
 11
1503.546586998205
 21
1086.38480794141
 31
0.0
  0
LINE
  5
C79
102
{ACAD_REACTORS
330
EBB
102
}
330
A
100
AcDbEntity
  8
1
  6
Continuous
100
AcDbLine
 10
1710.122752480705
 20
1084.55318182241
 30
0.0
 11
1717.958968534705
 21
1084.621567443909
 31
0.0
  0
ARC
  5
C7A
102
{ACAD_REACTORS
330
EBB
102
}
330
A
100
AcDbEntity
  8
1
  6
Continuous
100
AcDbCircle
 10
1710.078367247206
 20
1083.67505561141
 30
0.0
 40
0.8694553785
100
AcDbArc
 50
87.11051192610005
 51
128.9962481540999
  0
LINE
  5
C81
102
{ACAD_REACTORS
330
EBB
102
}
330
A
100
AcDbEntity
  8
1
  6
Continuous
100
AcDbLine
 10
1724.458968534706
 20
1127.61670828191
 30
0.0
 11
1724.458968534706
 21
1127.00319922641
 31
0.0
  0
LINE
  5
C85
102
{ACAD_REACTORS
330
EBB
102
}
330
A
100
AcDbEntity
  8
1
  6
Continuous
100
AcDbLine
 10
1724.458968534706
 20
1127.00319922641
 30
0.0
 11
1724.458968534706
 21
1094.29410545241
 31
0.0
  0
LINE
  5
C8A
102
{ACAD_REACTORS
330
EBB
102
}
330
A
100
AcDbEntity
  8
1
  6
Continuous
100
AcDbLine
 10
1717.958968534705
 20
1092.25080269591
 30
0.0
 11
1722.478152059705
 21
1092.29412976641
 31
0.0
  0
LINE
  5
C8B
102
{ACAD_REACTORS
330
EBB
102
}
330
A
100
AcDbEntity
  8
1
  6
Continuous
100
AcDbLine
 10
1722.478151028205
 20
1129.61667516041
 30
0.0
 11
1717.958968534705
 21
1129.66001313941
 31
0.0
  0
ARC
  5
C8C
102
{ACAD_REACTORS
330
EBB
102
}
330
A
100
AcDbEntity
  8
1
  6
Continuous
100
AcDbCircle
 10
1722.458968534705
 20
1094.29410545241
 30
0.0
 40
2.0
100
AcDbArc
 50
270.5493476665998
 51
0.0
  0
ARC
  5
C8D
102
{ACAD_REACTORS
330
EBB
102
}
330
A
100
AcDbEntity
  8
1
  6
Continuous
100
AcDbCircle
 10
1722.458968534705
 20
1127.61670828191
 30
0.0
 40
2.0
100
AcDbArc
 50
0.0
 51
89.4506523334001
  0
LINE
  5
C8E
102
{ACAD_REACTORS
330
EBB
102
}
330
A
100
AcDbEntity
  8
1
  6
Continuous
100
AcDbLine
 10
1535.958968534706
 20
1080.56670359491
 30
0.0
 11
1519.958968534705
 21
1080.56670359491
 31
0.0
  0
LINE
  5
C8F
102
{ACAD_REACTORS
330
EBB
102
}
330
A
100
AcDbEntity
  8
1
  6
Continuous
100
AcDbLine
 10
1535.958968534706
 20
1080.56670359491
 30
0.0
 11
1535.958968534706
 21
1083.06670359491
 31
0.0
  0
LINE
  5
C90
102
{ACAD_REACTORS
330
EBB
102
}
330
A
100
AcDbEntity
  8
1
  6
Continuous
100
AcDbLine
 10
1519.958968534705
 20
1083.06670359491
 30
0.0
 11
1519.958968534705
 21
1080.56670359491
 31
0.0
  0
ELLIPSE
  5
C91
102
{ACAD_REACTORS
330
EBB
102
}
330
A
100
AcDbEntity
  8
1
  6
Continuous
100
AcDbEllipse
 10
1708.758968534706
 20
1166.02544909341
 30
0.0
 11
-3.499999999999989
 21
0.0
 31
0.0
210
0.0
220
0.0
230
1.0
 40
0.0871557427
 41
3.141592653589792
 42
4.712388980384688
  0
LINE
  5
C92
102
{ACAD_REACTORS
330
EBB
102
}
330
A
100
AcDbEntity
  8
1
  6
Continuous
100
AcDbLine
 10
1712.258968534706
 20
1166.02544909341
 30
0.0
 11
1712.258968534706
 21
1158.25821186041
 31
0.0
  0
ELLIPSE
  5
C93
102
{ACAD_REACTORS
330
EBB
102
}
330
A
100
AcDbEntity
  8
1
  6
Continuous
100
AcDbEllipse
 10
1518.958968534705
 20
1164.26239679291
 30
0.0
 11
-1.000000000000001
 21
0.0
 31
0.0
210
0.0
220
0.0
230
1.0
 40
0.0871557427
 41
4.712388980384688
 42
6.283185307179584
  0
LINE
  5
C94
102
{ACAD_REACTORS
330
EBB
102
}
330
A
100
AcDbEntity
  8
1
  6
Continuous
100
AcDbLine
 10
1518.958968534705
 20
1164.34955253541
 30
0.0
 11
1628.958968534704
 21
1164.34955253541
 31
0.0
  0
ELLIPSE
  5
C95
102
{ACAD_REACTORS
330
EBB
102
}
330
A
100
AcDbEntity
  8
1
  6
Continuous
100
AcDbEllipse
 10
1628.958968534704
 20
1164.26239679291
 30
0.0
 11
-1.000000000000011
 21
0.0
 31
0.0
210
0.0
220
0.0
230
1.0
 40
0.0871557427
 41
3.141592653589792
 42
4.712388980384688
  0
ELLIPSE
  5
C96
102
{ACAD_REACTORS
330
EBB
102
}
330
A
100
AcDbEntity
  8
1
  6
Continuous
100
AcDbEllipse
 10
1505.158968534705
 20
1166.02544909341
 30
0.0
 11
-3.499999999999989
 21
0.0
 31
0.0
210
0.0
220
0.0
230
1.0
 40
0.0871557427
 41
4.712388980384688
 42
6.283185307179584
  0
LINE
  5
C98
102
{ACAD_REACTORS
330
EBB
102
}
330
A
100
AcDbEntity
  8
1
  6
Continuous
100
AcDbLine
 10
1518.958968534705
 20
1164.47407687291
 30
0.0
 11
1518.958968534705
 21
1164.34955253541
 31
0.0
  0
ELLIPSE
  5
C99
102
{ACAD_REACTORS
330
EBB
102
}
330
A
100
AcDbEntity
  8
1
  6
Continuous
100
AcDbEllipse
 10
1518.958968534705
 20
1164.38692112991
 30
0.0
 11
-1.000000000000001
 21
0.0
 31
0.0
210
0.0
220
0.0
230
1.0
 40
0.0871557427
 41
4.712388980384688
 42
6.283185307179584
  0
ELLIPSE
  5
C9A
102
{ACAD_REACTORS
330
EBB
102
}
330
A
100
AcDbEntity
  8
1
  6
Continuous
100
AcDbEllipse
 10
1518.958968534705
 20
1161.42362587641
 30
0.0
 11
1.000000000000014
 21
0.0
 31
0.0
210
0.0
220
0.0
230
1.0
 40
0.0871557427
 41
3.141592653589792
 42
4.712388980384688
  0
LINE
  5
C9B
102
{ACAD_REACTORS
330
EBB
102
}
330
A
100
AcDbEntity
  8
1
  6
Continuous
100
AcDbLine
 10
1628.958968534704
 20
1161.33647013391
 30
0.0
 11
1518.958968534705
 21
1161.33647013391
 31
0.0
  0
ELLIPSE
  5
C9C
102
{ACAD_REACTORS
330
EBB
102
}
330
A
100
AcDbEntity
  8
1
  6
Continuous
100
AcDbEllipse
 10
1628.958968534704
 20
1161.42362587641
 30
0.0
 11
1.000000000000001
 21
0.0
 31
0.0
210
0.0
220
0.0
230
1.0
 40
0.0871557427
 41
4.712388980384688
 42
6.283185307179584
  0
LINE
  5
C9D
102
{ACAD_REACTORS
330
EBB
102
}
330
A
100
AcDbEntity
  8
1
  6
Continuous
100
AcDbLine
 10
1629.958968534706
 20
1164.38692112991
 30
0.0
 11
1629.958968534706
 21
1161.42362587641
 31
0.0
  0
ELLIPSE
  5
C9E
102
{ACAD_REACTORS
330
EBB
102
}
330
A
100
AcDbEntity
  8
1
  6
Continuous
100
AcDbEllipse
 10
1628.958968534704
 20
1164.38692112991
 30
0.0
 11
-1.000000000000011
 21
0.0
 31
0.0
210
0.0
220
0.0
230
1.0
 40
0.0871557427
 41
3.141592653589792
 42
4.712388980384688
  0
LINE
  5
C9F
102
{ACAD_REACTORS
330
EBB
102
}
330
A
100
AcDbEntity
  8
1
  6
Continuous
100
AcDbLine
 10
1518.958968534705
 20
1164.47407687291
 30
0.0
 11
1628.958968534704
 21
1164.47407687291
 31
0.0
  0
LINE
  5
CA0
102
{ACAD_REACTORS
330
EBB
102
}
330
A
100
AcDbEntity
  8
1
  6
Continuous
100
AcDbLine
 10
1501.658968534705
 20
1158.25821186041
 30
0.0
 11
1501.658968534705
 21
1166.02544909341
 31
0.0
  0
LINE
  5
CA1
102
{ACAD_REACTORS
330
EBB
102
}
330
A
100
AcDbEntity
  8
1
  6
Continuous
100
AcDbLine
 10
1517.958968534705
 20
1161.42362587641
 30
0.0
 11
1517.958968534705
 21
1164.38692112991
 31
0.0
  0
LINE
  5
CA2
102
{ACAD_REACTORS
330
EBB
102
}
330
A
100
AcDbEntity
  8
1
  6
Continuous
100
AcDbLine
 10
1505.158968534705
 20
1166.33049419341
 30
0.0
 11
1708.758968534706
 21
1166.33049419341
 31
0.0
  0
ELLIPSE
  5
CA3
102
{ACAD_REACTORS
330
EBB
102
}
330
A
100
AcDbEntity
  8
1
  6
Continuous
100
AcDbEllipse
 10
1518.958968534705
 20
1164.06315785291
 30
0.0
 11
-1.000000000000014
 21
0.0
 31
0.0
210
0.0
220
0.0
230
1.0
 40
0.0871557427
 41
4.712388980384688
 42
6.283185307179584
  0
ELLIPSE
  5
CA4
102
{ACAD_REACTORS
330
EBB
102
}
330
A
100
AcDbEntity
  8
1
  6
Continuous
100
AcDbEllipse
 10
1628.958968534704
 20
1164.06315785291
 30
0.0
 11
-1.000000000000018
 21
0.0
 31
0.0
210
0.0
220
0.0
230
1.0
 40
0.0871557427
 41
3.141592653589792
 42
4.712388980384688
  0
LINE
  5
CA5
102
{ACAD_REACTORS
330
EBB
102
}
330
A
100
AcDbEntity
  8
1
  6
Continuous
100
AcDbLine
 10
1518.958968534705
 20
1164.15031359591
 30
0.0
 11
1628.958968534704
 21
1164.15031359591
 31
0.0
  0
ELLIPSE
  5
CA6
102
{ACAD_REACTORS
330
EBB
102
}
330
A
100
AcDbEntity
  8
1
  6
Continuous
100
AcDbEllipse
 10
1628.958968534704
 20
1164.26239679291
 30
0.0
 11
-1.000000000000011
 21
0.0
 31
0.0
210
0.0
220
0.0
230
1.0
 40
0.0871557427
 41
3.141592653589792
 42
4.712388980384688
  0
LINE
  5
CA7
102
{ACAD_REACTORS
330
EBB
102
}
330
A
100
AcDbEntity
  8
1
  6
Continuous
100
AcDbLine
 10
1518.958968534705
 20
1164.34955253541
 30
0.0
 11
1628.958968534704
 21
1164.34955253541
 31
0.0
  0
ELLIPSE
  5
CA8
102
{ACAD_REACTORS
330
EBB
102
}
330
A
100
AcDbEntity
  8
1
  6
Continuous
100
AcDbEllipse
 10
1518.958968534705
 20
1164.26239679291
 30
0.0
 11
-1.000000000000014
 21
0.0
 31
0.0
210
0.0
220
0.0
230
1.0
 40
0.0871557427
 41
4.712388980384688
 42
6.283185307179584
  0
LINE
  5
CA9
102
{ACAD_REACTORS
330
EBB
102
}
330
A
100
AcDbEntity
  8
1
  6
Continuous
100
AcDbLine
 10
1518.958968534705
 20
1164.15031359591
 30
0.0
 11
1518.958968534705
 21
1164.34955253541
 31
0.0
  0
LINE
  5
CAB
102
{ACAD_REACTORS
330
EBB
102
}
330
A
100
AcDbEntity
  8
1
  6
Continuous
100
AcDbLine
 10
1501.659056773205
 20
1157.22527399041
 30
0.0
 11
1501.659056773205
 21
1157.39703039841
 31
0.0
  0
LINE
  5
CAC
102
{ACAD_REACTORS
330
EBB
102
}
330
A
100
AcDbEntity
  8
1
  6
Continuous
100
AcDbLine
 10
1503.159056773205
 20
1157.52776401241
 30
0.0
 11
1710.759056773206
 21
1157.52776401241
 31
0.0
  0
ELLIPSE
  5
CAD
102
{ACAD_REACTORS
330
EBB
102
}
330
A
100
AcDbEntity
  8
1
  6
Continuous
100
AcDbEllipse
 10
1710.759056773206
 20
1157.39703039841
 30
0.0
 11
-1.500000000000001
 21
0.0
 31
0.0
210
0.0
220
0.0
230
1.0
 40
0.0871557427
 41
3.141592653589792
 42
4.712388980384688
  0
LINE
  5
CAE
102
{ACAD_REACTORS
330
EBB
102
}
330
A
100
AcDbEntity
  8
1
  6
Continuous
100
AcDbLine
 10
1712.259056773205
 20
1157.39703039841
 30
0.0
 11
1712.259056773205
 21
1157.23658245091
 31
0.0
  0
ELLIPSE
  5
CAF
102
{ACAD_REACTORS
330
EBB
102
}
330
A
100
AcDbEntity
  8
1
  6
Continuous
100
AcDbEllipse
 10
1503.159056773205
 20
1157.39703039841
 30
0.0
 11
-1.500000000000001
 21
0.0
 31
0.0
210
0.0
220
0.0
230
1.0
 40
0.0871557427
 41
4.712388980384688
 42
6.283185307179584
  0
DIMENSION
  5
CB2
102
{ACAD_XDICTIONARY
360
CBF
102
}
102
{ACAD_REACTORS
330
CC9
102
}
330
A
100
AcDbEntity
  8
MEASURE
  6
Continuous
100
AcDbDimension
  2
*D23
 10
220.5229960386597
 20
1166.91017621691
 30
0.0
 11
209.2729960386595
 21
776.3884399059104
 31
0.0
 70
    32
 71
     5
 42
781.0434726219993
  3
AD-STANDARD
100
AcDbAlignedDimension
 13
579.0731269707053
 23
385.8667035949106
 33
0.0
 14
325.6132428507056
 24
1166.91017621691
 34
0.0
 50
90.0
100
AcDbRotatedDimension
1001
ACAD
1000
DSTYLE
1002
{
1070
   271
1070
     0
1070
    40
1040
5.0
1002
}
  0
DIMENSION
  5
CD3
102
{ACAD_XDICTIONARY
360
CE0
102
}
102
{ACAD_REACTORS
330
CEA
102
}
330
A
100
AcDbEntity
  8
MEASURE
  6
Continuous
100
AcDbDimension
  2
*D24
 10
1076.073126970705
 20
647.0253306918229
 30
0.0
 11
811.0731269707057
 21
658.2753306918229
 31
0.0
 70
    32
 71
     5
 42
530.0
  3
AD-STANDARD
100
AcDbAlignedDimension
 13
546.0731269707057
 23
502.2667035949107
 33
0.0
 14
1076.073126970705
 24
502.2667035949107
 34
0.0
100
AcDbRotatedDimension
1001
ACAD
1000
DSTYLE
1002
{
1070
    40
1040
5.0
1002
}
  0
DIMENSION
  5
CEB
102
{ACAD_XDICTIONARY
360
CF8
102
}
102
{ACAD_REACTORS
330
D02
102
}
330
A
100
AcDbEntity
  8
MEASURE
  6
Continuous
100
AcDbDimension
  2
*D25
 10
591.0731269707055
 20
284.3537367499784
 30
0.0
 11
446.5479191602056
 21
295.6037367499784
 31
0.0
 70
    32
 71
     5
 42
289.0504156209997
  3
AD-STANDARD
100
AcDbAlignedDimension
 13
302.0227113497057
 23
1114.76971898141
 33
0.0
 14
591.0731269707055
 24
390.8667035949106
 34
0.0
100
AcDbRotatedDimension
1001
ACAD
1000
DSTYLE
1002
{
1070
   271
1070
     0
1070
    40
1040
5.0
1002
}
  0
DIMENSION
  5
D03
102
{ACAD_XDICTIONARY
360
D10
102
}
102
{ACAD_REACTORS
330
D1A
102
}
330
A
100
AcDbEntity
  8
MEASURE
  6
Continuous
100
AcDbDimension
  2
*D26
 10
1031.073126970705
 20
284.3537367499784
 30
0.0
 11
811.0731269707056
 21
295.6037367499784
 31
0.0
 70
    32
 71
     5
 42
440.0
  3
AD-STANDARD
100
AcDbAlignedDimension
 13
591.0731269707055
 23
390.8667035949106
 33
0.0
 14
1031.073126970705
 24
390.8667035949106
 34
0.0
100
AcDbRotatedDimension
1001
ACAD
1000
DSTYLE
1002
{
1070
   279
1070
     1
1070
    40
1040
5.0
1002
}
  0
DIMENSION
  5
D24
102
{ACAD_XDICTIONARY
360
D31
102
}
102
{ACAD_REACTORS
330
D3B
102
}
330
A
100
AcDbEntity
  8
MEASURE
  6
Continuous
100
AcDbDimension
  2
*D27
 10
401.2731269707058
 20
703.31497298879
 30
0.0
 11
381.2731269707057
 21
714.56497298879
 31
0.0
 70
    32
 71
     5
 42
40.00000000000006
  3
AD-STANDARD
100
AcDbAlignedDimension
 13
361.2731269707057
 23
782.0667035949107
 33
0.0
 14
401.2731269707058
 24
764.6008474951607
 34
0.0
100
AcDbRotatedDimension
1001
ACAD
1000
DSTYLE
1002
{
1070
    76
1070
     1
1070
    75
1070
     1
1070
    40
1040
5.0
1002
}
  0
DIMENSION
  5
D4B
102
{ACAD_XDICTIONARY
360
D58
102
}
102
{ACAD_REACTORS
330
D62
102
}
330
A
100
AcDbEntity
  8
MEASURE
  6
Continuous
100
AcDbDimension
  2
*D28
 10
1196.852222237265
 20
513.7667035949106
 30
0.0
 11
1185.602222237265
 21
449.8167035949108
 31
0.0
 70
    32
 71
     5
 42
127.8999999999999
  3
AD-STANDARD
100
AcDbAlignedDimension
 13
1043.073126970705
 23
385.8667035949106
 33
0.0
 14
1064.573126970705
 24
513.7667035949106
 34
0.0
 50
90.0
100
AcDbRotatedDimension
1001
ACAD
1000
DSTYLE
1002
{
1070
   271
1070
     0
1070
    40
1040
5.0
1002
}
  0
DIMENSION
  5
D63
102
{ACAD_XDICTIONARY
360
D72
102
}
102
{ACAD_REACTORS
330
D7E
102
}
330
A
100
AcDbEntity
  8
MEASURE
  6
Continuous
100
AcDbDimension
  2
*D29
 10
1155.727882975983
 20
414.8667035949105
 30
0.0
 11
1144.477882975983
 21
400.3667035949107
 31
0.0
 70
    32
 71
     5
 42
28.99999999999994
  3
AD-STANDARD
100
AcDbAlignedDimension
 13
1043.073126970705
 23
385.8667035949106
 33
0.0
 14
1052.873126970705
 24
414.8667035949105
 34
0.0
 50
90.0
100
AcDbRotatedDimension
1001
ACAD
1000
DSTYLE
1002
{
1070
    40
1040
5.0
1002
}
  0
DIMENSION
  5
D7F
102
{ACAD_XDICTIONARY
360
D8C
102
}
102
{ACAD_REACTORS
330
D96
102
}
330
A
100
AcDbEntity
  8
MEASURE
  6
Continuous
100
AcDbDimension
  2
*D30
 10
1155.727882975983
 20
513.7667035949106
 30
0.0
 11
1144.477882975983
 21
464.3167035949107
 31
0.0
 70
    32
 71
     5
 42
98.90000000000004
  3
AD-STANDARD
100
AcDbAlignedDimension
 13
1052.873126970705
 23
414.8667035949105
 33
0.0
 14
1064.573126970705
 24
513.7667035949106
 34
0.0
 50
90.0
100
AcDbRotatedDimension
1001
ACAD
1000
DSTYLE
1002
{
1070
   271
1070
     0
1070
   279
1070
     1
1070
    40
1040
5.0
1002
}
  0
LINE
  5
DAA
102
{ACAD_REACTORS
330
EBA
102
}
330
A
100
AcDbEntity
  8
1
  6
HIDDEN2
 62
     8
100
AcDbLine
 10
415.2731269707057
 20
1008.56670359491
 30
0.0
 11
412.0174862762056
 21
1008.56670359491
 31
0.0
  0
LINE
  5
DAB
102
{ACAD_REACTORS
330
EBA
102
}
330
A
100
AcDbEntity
  8
1
  6
HIDDEN2
 62
     8
100
AcDbLine
 10
415.2731269707057
 20
1027.56670359491
 30
0.0
 11
412.0174862762056
 21
1027.56670359491
 31
0.0
  0
LINE
  5
DB2
102
{ACAD_REACTORS
330
EBA
102
}
330
A
100
AcDbEntity
  8
1
  6
HIDDEN2
 62
     8
100
AcDbLine
 10
415.2731269707057
 20
1006.88790153991
 30
0.0
 11
415.2731269707057
 21
1007.88653107491
 31
0.0
  0
LINE
  5
DB3
102
{ACAD_REACTORS
330
EBA
102
}
330
A
100
AcDbEntity
  8
1
  6
HIDDEN2
 62
     8
100
AcDbLine
 10
415.2731269707057
 20
1028.24687611491
 30
0.0
 11
415.2731269707057
 21
1029.24550564941
 31
0.0
  0
ARC
  5
DB4
102
{ACAD_REACTORS
330
EBA
102
}
330
A
100
AcDbEntity
  8
1
  6
HIDDEN2
 62
     8
100
AcDbCircle
 10
447.2731269707057
 20
1075.19710444791
 30
0.0
 40
2.0
100
AcDbArc
 50
93.00000000000006
 51
180.0
  0
ARC
  5
DB5
102
{ACAD_REACTORS
330
EBA
102
}
330
A
100
AcDbEntity
  8
1
  6
HIDDEN2
 62
     8
100
AcDbCircle
 10
447.2731269707057
 20
983.9363027419107
 30
0.0
 40
2.0
100
AcDbArc
 50
180.0
 51
266.9999999999999
  0
LINE
  5
DB6
102
{ACAD_REACTORS
330
EBA
102
}
330
A
100
AcDbEntity
  8
1
  6
HIDDEN2
 62
     8
100
AcDbLine
 10
445.2731269707057
 20
983.9363027419107
 30
0.0
 11
445.2731269707057
 21
1075.19710444791
 31
0.0
  0
LINE
  5
DB7
102
{ACAD_REACTORS
330
EBA
102
}
330
A
100
AcDbEntity
  8
1
  6
HIDDEN2
 62
     8
100
AcDbLine
 10
447.1684550582056
 20
1077.19436351741
 30
0.0
 11
454.2731269707057
 21
1077.56670359491
 31
0.0
  0
LINE
  5
DB8
102
{ACAD_REACTORS
330
EBA
102
}
330
A
100
AcDbEntity
  8
1
  6
HIDDEN2
 62
     8
100
AcDbLine
 10
454.2731269707057
 20
981.5667035949108
 30
0.0
 11
447.1684550582056
 21
981.9390436724107
 31
0.0
  0
LINE
  5
DB9
102
{ACAD_REACTORS
330
EBA
102
}
330
A
100
AcDbEntity
  8
1
  6
HIDDEN2
 62
     8
100
AcDbLine
 10
445.2731269707057
 20
1004.36670359491
 30
0.0
 11
416.2207910147056
 21
1005.88927200541
 31
0.0
  0
LINE
  5
DBA
102
{ACAD_REACTORS
330
EBA
102
}
330
A
100
AcDbEntity
  8
1
  6
HIDDEN2
 62
     8
100
AcDbLine
 10
416.2207910147056
 20
1030.24413518441
 30
0.0
 11
445.2731269707057
 21
1031.76670359491
 31
0.0
  0
LINE
  5
DBB
102
{ACAD_REACTORS
330
EBA
102
}
330
A
100
AcDbEntity
  8
1
  6
HIDDEN2
 62
     8
100
AcDbLine
 10
402.2731269707056
 20
1049.69144827991
 30
0.0
 11
445.2731269707057
 21
1050.06670359491
 31
0.0
  0
LINE
  5
DBC
102
{ACAD_REACTORS
330
EBA
102
}
330
A
100
AcDbEntity
  8
1
  6
HIDDEN2
 62
     8
100
AcDbLine
 10
402.2731269707056
 20
1039.42086009891
 30
0.0
 11
402.2731269707056
 21
1049.69144827991
 31
0.0
  0
LINE
  5
DBD
102
{ACAD_REACTORS
330
EBA
102
}
330
A
100
AcDbEntity
  8
1
  6
HIDDEN2
 62
     8
100
AcDbLine
 10
402.2731269707056
 20
996.7125470909103
 30
0.0
 11
402.2731269707056
 21
995.8202381039102
 31
0.0
  0
ARC
  5
DBE
102
{ACAD_REACTORS
330
EBA
102
}
330
A
100
AcDbEntity
  8
1
  6
HIDDEN2
 62
     8
100
AcDbCircle
 10
416.2731269707057
 20
1006.88790153991
 30
0.0
 40
1.0
100
AcDbArc
 50
180.0
 51
266.9999999999999
  0
ARC
  5
DBF
102
{ACAD_REACTORS
330
EBA
102
}
330
A
100
AcDbEntity
  8
1
  6
HIDDEN2
 62
     8
100
AcDbCircle
 10
416.2731269707057
 20
1029.24550564941
 30
0.0
 40
1.0
100
AcDbArc
 50
93.00000000000006
 51
180.0
  0
LINE
  5
DC0
102
{ACAD_REACTORS
330
EBA
102
}
330
A
100
AcDbEntity
  8
1
  6
HIDDEN2
 62
     8
100
AcDbLine
 10
402.2731269707056
 20
995.8202381039102
 30
0.0
 11
445.2731269707057
 21
993.5667035949107
 31
0.0
  0
LINE
  5
DC1
102
{ACAD_REACTORS
330
EBA
102
}
330
A
100
AcDbEntity
  8
1
  6
HIDDEN2
 62
     8
100
AcDbLine
 10
415.2731269707057
 20
1007.88653107491
 30
0.0
 11
415.2731269707057
 21
1028.24687611491
 31
0.0
  0
LINE
  5
DC2
102
{ACAD_REACTORS
330
EBA
102
}
330
A
100
AcDbEntity
  8
1
  6
HIDDEN2
 62
     8
100
AcDbLine
 10
439.2731269707057
 20
1065.25225691891
 30
0.0
 11
437.7731269707057
 21
1065.17364525041
 31
0.0
  0
LINE
  5
DC3
102
{ACAD_REACTORS
330
EBA
102
}
330
A
100
AcDbEntity
  8
1
  6
HIDDEN2
 62
     8
100
AcDbLine
 10
430.7731269707057
 20
1064.80679079541
 30
0.0
 11
361.0637831457057
 21
1061.15347888991
 31
0.0
  0
ARC
  5
DC6
102
{ACAD_REACTORS
330
EBA
102
}
330
A
100
AcDbEntity
  8
1
  6
HIDDEN2
 62
     8
100
AcDbCircle
 10
445.0967468837056
 20
1061.80358358891
 30
0.0
 40
3.7060507975
100
AcDbArc
 50
87.27212225169997
 51
95.00956454729992
  0
ARC
  5
DC7
102
{ACAD_REACTORS
330
EBA
102
}
330
A
100
AcDbEntity
  8
1
  6
HIDDEN2
 62
     8
100
AcDbCircle
 10
434.0490966247056
 20
1069.60769800091
 30
0.0
 40
4.303374938
100
AcDbArc
 50
266.3231755373
 51
279.6859172621999
  0
LINE
  5
DC8
102
{ACAD_REACTORS
330
EBA
102
}
330
A
100
AcDbEntity
  8
1
  6
HIDDEN2
 62
     8
100
AcDbLine
 10
434.7731269707057
 20
1064.86421853591
 30
0.0
 11
434.7731269707057
 21
1065.36566830791
 31
0.0
  0
LINE
  5
DC9
102
{ACAD_REACTORS
330
EBA
102
}
330
A
100
AcDbEntity
  8
1
  6
HIDDEN2
 62
     8
100
AcDbLine
 10
433.7731269707058
 20
1065.31318096091
 30
0.0
 11
433.7731269707058
 21
1065.46470030591
 31
0.0
  0
LINE
  5
DCA
102
{ACAD_REACTORS
330
EBA
102
}
330
A
100
AcDbEntity
  8
1
  6
HIDDEN2
 62
     8
100
AcDbLine
 10
434.7731269707057
 20
1065.51710808541
 30
0.0
 11
434.7731269707057
 21
1065.36566830791
 31
0.0
  0
ARC
  5
DCB
102
{ACAD_REACTORS
330
EBA
102
}
330
A
100
AcDbEntity
  8
1
  6
HIDDEN2
 62
     8
100
AcDbCircle
 10
434.0502263632057
 20
1069.08465865941
 30
0.0
 40
4.281903797
100
AcDbArc
 50
266.2895644045
 51
279.7196204172
  0
LINE
  5
DCC
102
{ACAD_REACTORS
330
EBA
102
}
330
A
100
AcDbEntity
  8
1
  6
HIDDEN2
 62
     8
100
AcDbLine
 10
430.7731269707057
 20
1065.15571841641
 30
0.0
 11
430.7731269707057
 21
1065.30747696841
 31
0.0
  0
LINE
  5
DCD
102
{ACAD_REACTORS
330
EBA
102
}
330
A
100
AcDbEntity
  8
1
  6
HIDDEN2
 62
     8
100
AcDbLine
 10
431.7731269707057
 20
1065.35988474741
 30
0.0
 11
431.7731269707057
 21
1065.20820601491
 31
0.0
  0
ARC
  5
DCE
102
{ACAD_REACTORS
330
EBA
102
}
330
A
100
AcDbEntity
  8
1
  6
HIDDEN2
 62
     8
100
AcDbCircle
 10
431.0494513762058
 20
1069.44345635841
 30
0.0
 40
4.296632615999999
100
AcDbArc
 50
266.3126574460998
 51
279.6964641000999
  0
LINE
  5
DCF
102
{ACAD_REACTORS
330
EBA
102
}
330
A
100
AcDbEntity
  8
1
  6
HIDDEN2
 62
     8
100
AcDbLine
 10
431.7731269707057
 20
1064.70675382341
 30
0.0
 11
431.7731269707057
 21
1065.20820601491
 31
0.0
  0
LINE
  5
DD0
102
{ACAD_REACTORS
330
EBA
102
}
330
A
100
AcDbEntity
  8
1
  6
HIDDEN2
 62
     8
100
AcDbLine
 10
433.7731269707058
 20
1064.81173038341
 30
0.0
 11
433.7731269707058
 21
1065.31318096091
 31
0.0
  0
ARC
  5
DD1
102
{ACAD_REACTORS
330
EBA
102
}
330
A
100
AcDbEntity
  8
1
  6
HIDDEN2
 62
     8
100
AcDbCircle
 10
431.0505811267058
 20
1068.92041426141
 30
0.0
 40
4.275161609499999
100
AcDbArc
 50
266.2789400312999
 51
279.7302739754
  0
LINE
  5
DD2
102
{ACAD_REACTORS
330
EBA
102
}
330
A
100
AcDbEntity
  8
1
  6
HIDDEN2
 62
     8
100
AcDbLine
 10
436.7731269707057
 20
1065.47064275191
 30
0.0
 11
436.7731269707057
 21
1065.62192364391
 31
0.0
  0
ARC
  5
DD3
102
{ACAD_REACTORS
330
EBA
102
}
330
A
100
AcDbEntity
  8
1
  6
HIDDEN2
 62
     8
100
AcDbCircle
 10
437.0487418772056
 20
1069.77193878641
 30
0.0
 40
4.3101173015
100
AcDbArc
 50
266.3336605831999
 51
279.6754036052999
  0
LINE
  5
DD4
102
{ACAD_REACTORS
330
EBA
102
}
330
A
100
AcDbEntity
  8
1
  6
HIDDEN2
 62
     8
100
AcDbLine
 10
436.7731269707057
 20
1064.96919458591
 30
0.0
 11
436.7731269707057
 21
1065.47064275191
 31
0.0
  0
ARC
  5
DD6
102
{ACAD_REACTORS
330
EBA
102
}
330
A
100
AcDbEntity
  8
1
  6
HIDDEN2
 62
     8
100
AcDbCircle
 10
437.0498716032058
 20
1069.24890218791
 30
0.0
 40
4.288646027499999
100
AcDbArc
 50
266.3001552305998
 51
279.7090005447
  0
LINE
  5
DD7
102
{ACAD_REACTORS
330
EBA
102
}
330
A
100
AcDbEntity
  8
1
  6
HIDDEN2
 62
     8
100
AcDbLine
 10
437.7731269707057
 20
1065.67433142341
 30
0.0
 11
437.7731269707057
 21
1065.52312984841
 31
0.0
  0
LINE
  5
DD8
102
{ACAD_REACTORS
330
EBA
102
}
330
A
100
AcDbEntity
  8
1
  6
HIDDEN2
 62
     8
100
AcDbLine
 10
430.7731269707057
 20
1064.65426541541
 30
0.0
 11
430.7731269707057
 21
1065.15571841641
 31
0.0
  0
LINE
  5
DD9
102
{ACAD_REACTORS
330
EBA
102
}
330
A
100
AcDbEntity
  8
1
  6
HIDDEN2
 62
     8
100
AcDbLine
 10
437.7731269707057
 20
1065.02168248441
 30
0.0
 11
437.7731269707057
 21
1065.52312984841
 31
0.0
  0
LINE
  5
DDA
102
{ACAD_REACTORS
330
EBA
102
}
330
A
100
AcDbEntity
  8
MP4015660_CABLE_
  6
HIDDEN2
 62
     7
100
AcDbLine
 10
402.2731269707056
 20
1049.69144827991
 30
0.0
 11
402.2731269707056
 21
1047.566703594909
 31
0.0
  0
LINE
  5
DDB
102
{ACAD_REACTORS
330
EBA
102
}
330
A
100
AcDbEntity
  8
1
  6
HIDDEN2
 62
     8
100
AcDbLine
 10
402.2731269707056
 20
1049.69144827991
 30
0.0
 11
445.2731269707057
 21
1050.06670359491
 31
0.0
  0
LINE
  5
DDC
102
{ACAD_REACTORS
330
EBA
102
}
330
A
100
AcDbEntity
  8
1
  6
HIDDEN2
 62
     8
100
AcDbLine
 10
357.2731269707057
 20
1055.36946981341
 30
0.0
 11
357.2731269707057
 21
1057.15896075091
 31
0.0
  0
LINE
  5
DDD
102
{ACAD_REACTORS
330
EBA
102
}
330
A
100
AcDbEntity
  8
1
  6
HIDDEN2
 62
     8
100
AcDbLine
 10
357.2731269707057
 20
1047.566703594909
 30
0.0
 11
357.2731269707057
 21
1055.36946981341
 31
0.0
  0
LINE
  5
DDE
102
{ACAD_REACTORS
330
EBA
102
}
330
A
100
AcDbEntity
  8
1
  6
HIDDEN2
 62
     8
100
AcDbLine
 10
402.2731269707056
 20
1047.566703594909
 30
0.0
 11
361.2382208287057
 21
1047.566703594909
 31
0.0
  0
LINE
  5
DDF
102
{ACAD_REACTORS
330
EBA
102
}
330
A
100
AcDbEntity
  8
1
  6
HIDDEN2
 62
     8
100
AcDbLine
 10
357.2731269707057
 20
1047.566703594909
 30
0.0
 11
361.2382208287057
 21
1047.566703594909
 31
0.0
  0
LINE
  5
DE0
102
{ACAD_REACTORS
330
EBA
102
}
330
A
100
AcDbEntity
  8
1
  6
HIDDEN2
 62
     8
100
AcDbLine
 10
439.2731269707057
 20
1065.24724102091
 30
0.0
 11
439.2731269707057
 21
1065.25225691891
 31
0.0
  0
LINE
  5
DE1
102
{ACAD_REACTORS
330
EBA
102
}
330
A
100
AcDbEntity
  8
1
  6
HIDDEN2
 62
     8
100
AcDbLine
 10
444.7731269707056
 20
1065.49547777291
 30
0.0
 11
441.2731269707058
 21
1065.31196775191
 31
0.0
  0
ARC
  5
DE2
102
{ACAD_REACTORS
330
EBA
102
}
330
A
100
AcDbEntity
  8
1
  6
HIDDEN2
 62
     8
100
AcDbCircle
 10
439.0659632082058
 20
1102.57992048741
 30
0.0
 40
37.33325425099999
100
AcDbArc
 50
270.3179382675999
 51
273.3893362820999
  0
LINE
  5
DE3
102
{ACAD_REACTORS
330
EBA
102
}
330
A
100
AcDbEntity
  8
1
  6
HIDDEN2
 62
     8
100
AcDbLine
 10
436.7731269707057
 20
1065.12123747091
 30
0.0
 11
434.7731269707057
 21
1065.01642191241
 31
0.0
  0
LINE
  5
DE4
102
{ACAD_REACTORS
330
EBA
102
}
330
A
100
AcDbEntity
  8
1
  6
HIDDEN2
 62
     8
100
AcDbLine
 10
433.7731269707058
 20
1064.96401413291
 30
0.0
 11
431.7731269707057
 21
1064.85919857441
 31
0.0
  0
ARC
  5
DE5
102
{ACAD_REACTORS
330
EBA
102
}
330
A
100
AcDbEntity
  8
1
  6
HIDDEN2
 62
     8
100
AcDbCircle
 10
361.2731269707057
 20
1057.15896075091
 30
0.0
 40
4.0
100
AcDbArc
 50
93.00000000000006
 51
180.0
  0
LINE
  5
DE6
102
{ACAD_REACTORS
330
EBA
102
}
330
A
100
AcDbEntity
  8
1
  6
HIDDEN2
 62
     8
100
AcDbLine
 10
434.7731269707057
 20
1065.51710808541
 30
0.0
 11
433.7731269707058
 21
1065.46470030591
 31
0.0
  0
LINE
  5
DE7
102
{ACAD_REACTORS
330
EBA
102
}
330
A
100
AcDbEntity
  8
1
  6
HIDDEN2
 62
     8
100
AcDbLine
 10
431.7731269707057
 20
1065.35988474741
 30
0.0
 11
430.7731269707057
 21
1065.30747696841
 31
0.0
  0
LINE
  5
DE8
102
{ACAD_REACTORS
330
EBA
102
}
330
A
100
AcDbEntity
  8
1
  6
HIDDEN2
 62
     8
100
AcDbLine
 10
437.7731269707057
 20
1065.67433142341
 30
0.0
 11
436.7731269707057
 21
1065.62192364391
 31
0.0
  0
ARC
  5
DE9
102
{ACAD_REACTORS
330
EBA
102
}
330
A
100
AcDbEntity
  8
1
  6
HIDDEN2
 62
     8
100
AcDbCircle
 10
521.2926567212057
 20
955.2714924549102
 30
0.0
 40
3.5
100
AcDbArc
 50
341.6823773998999
 51
346.4413708473
  0
LINE
  5
DEA
102
{ACAD_REACTORS
330
EBA
102
}
330
A
100
AcDbEntity
  8
1
  6
HIDDEN2
 62
     8
100
AcDbLine
 10
526.2924493792056
 20
963.76467173391
 30
0.0
 11
527.2886440777057
 21
963.6775159914101
 31
0.0
  0
ARC
  5
DEB
102
{ACAD_REACTORS
330
EBA
102
}
330
A
100
AcDbEntity
  8
1
  6
HIDDEN2
 62
     8
100
AcDbCircle
 10
527.3322219487056
 20
964.1756133404101
 30
0.0
 40
0.5
100
AcDbArc
 50
265.0
 51
354.9999999999999
  0
ARC
  5
DEC
102
{ACAD_REACTORS
330
EBA
102
}
330
A
100
AcDbEntity
  8
1
  6
HIDDEN2
 62
     8
100
AcDbCircle
 10
517.4405499267057
 20
1001.61166156591
 30
0.0
 40
50.0
100
AcDbArc
 50
267.9999999999999
 51
274.7732640699
  0
LINE
  5
DED
102
{ACAD_REACTORS
330
EBA
102
}
330
A
100
AcDbEntity
  8
1
  6
HIDDEN2
 62
     8
100
AcDbLine
 10
536.5768270237055
 20
1081.31564610891
 30
0.0
 11
526.5643190957057
 21
966.8721568084102
 31
0.0
  0
ARC
  5
DEE
102
{ACAD_REACTORS
330
EBA
102
}
330
A
100
AcDbEntity
  8
1
  6
HIDDEN2
 62
     8
100
AcDbCircle
 10
521.3745027422057
 20
1046.57694800091
 30
0.0
 40
50.0
100
AcDbArc
 50
75.24811428740003
 51
82.00000000000004
  0
LINE
  5
DEF
102
{ACAD_REACTORS
330
EBA
102
}
330
A
100
AcDbEntity
  8
1
  6
HIDDEN2
 62
     8
100
AcDbLine
 10
527.2887222042056
 20
1084.15239806341
 30
0.0
 11
528.3331577902056
 21
1096.09035143841
 31
0.0
  0
LINE
  5
DF0
102
{ACAD_REACTORS
330
EBA
102
}
330
A
100
AcDbEntity
  8
1
  6
HIDDEN2
 62
     8
100
AcDbLine
 10
516.0092474517057
 20
955.2274116949106
 30
0.0
 11
517.0511770977056
 21
967.1367220459107
 31
0.0
  0
LINE
  5
DF1
102
{ACAD_REACTORS
330
EBA
102
}
330
A
100
AcDbEntity
  8
1
  6
HIDDEN2
 62
     8
100
AcDbLine
 10
527.2887222042056
 20
1084.15239806341
 30
0.0
 11
517.0511770977056
 21
967.1367220459107
 31
0.0
  0
LINE
  5
DF2
102
{ACAD_REACTORS
330
EBA
102
}
330
A
100
AcDbEntity
  8
1
  6
HIDDEN2
 62
     8
100
AcDbLine
 10
515.6955750917059
 20
951.6421202149102
 30
0.0
 11
516.0092474517057
 21
955.2274116949106
 31
0.0
  0
ARC
  5
DF3
102
{ACAD_REACTORS
330
EBA
102
}
330
A
100
AcDbEntity
  8
1
  6
HIDDEN2
 62
     8
100
AcDbCircle
 10
466.8431981572056
 20
1087.41654810091
 30
0.0
 40
70.0
100
AcDbArc
 50
356.2172573875999
 51
3.55862915329999
  0
ARC
  5
DF4
102
{ACAD_REACTORS
330
EBA
102
}
330
A
100
AcDbEntity
  8
1
  6
HIDDEN2
 62
     8
100
AcDbCircle
 10
456.6459762557055
 20
970.8617684244108
 30
0.0
 40
70.0
100
AcDbArc
 50
349.5937929795
 51
354.9999999999999
  0
LINE
  5
DF5
102
{ACAD_REACTORS
330
EBA
102
}
330
A
100
AcDbEntity
  8
1
  6
HIDDEN2
 62
     8
100
AcDbLine
 10
526.5643190957057
 20
966.8721568084102
 30
0.0
 11
526.3796051222056
 21
964.7608664319106
 31
0.0
  0
LINE
  5
DF6
102
{ACAD_REACTORS
330
EBA
102
}
330
A
100
AcDbEntity
  8
1
  6
HIDDEN2
 62
     8
100
AcDbLine
 10
536.6906950802057
 20
1082.79841280591
 30
0.0
 11
536.5768270237055
 21
1081.31564610891
 31
0.0
  0
ARC
  5
DF7
102
{ACAD_REACTORS
330
EBA
102
}
330
A
100
AcDbEntity
  8
1
  6
HIDDEN2
 62
     8
100
AcDbCircle
 10
456.6459762557055
 20
970.8617684244108
 30
0.0
 40
70.0
100
AcDbArc
 50
346.4413708899998
 51
349.5937929795
  0
LINE
  5
DF8
102
{ACAD_REACTORS
330
EBA
102
}
330
A
100
AcDbEntity
  8
1
  6
HIDDEN2
 62
     8
100
AcDbLine
 10
537.6601774647057
 20
1082.22468506391
 30
0.0
 11
536.6639827662056
 21
1082.31184080691
 31
0.0
  0
ARC
  5
DF9
102
{ACAD_REACTORS
330
EBA
102
}
330
A
100
AcDbEntity
  8
1
  6
HIDDEN2
 62
     8
100
AcDbCircle
 10
537.6165995932056
 20
1081.72658771491
 30
0.0
 40
0.5
100
AcDbArc
 50
354.9999999999999
 51
85.00000000000005
  0
LINE
  5
DFA
102
{ACAD_REACTORS
330
EBA
102
}
330
A
100
AcDbEntity
  8
1
  6
HIDDEN2
 62
     8
100
AcDbLine
 10
537.7224960997057
 20
1077.20013370241
 30
0.0
 11
528.5288105387056
 21
972.1158268814107
 31
0.0
  0
LINE
  5
DFB
102
{ACAD_REACTORS
330
EBA
102
}
330
A
100
AcDbEntity
  8
1
  6
HIDDEN2
 62
     8
100
AcDbLine
 10
538.1146969422056
 20
1081.68300984391
 30
0.0
 11
537.7224960997057
 21
1077.20013370241
 31
0.0
  0
LINE
  5
DFC
102
{ACAD_REACTORS
330
EBA
102
}
330
A
100
AcDbEntity
  8
1
  6
HIDDEN2
 62
     8
100
AcDbLine
 10
528.5288105387056
 20
972.1158268814107
 30
0.0
 11
528.1375397277056
 21
967.6435810499102
 31
0.0
  0
LINE
  5
DFD
102
{ACAD_REACTORS
330
EBA
102
}
330
A
100
AcDbEntity
  8
1
  6
HIDDEN2
 62
     8
100
AcDbLine
 10
527.8303192977057
 20
964.1320354689106
 30
0.0
 11
528.1375397277056
 21
967.6435810499102
 31
0.0
  0
ARC
  5
DFE
102
{ACAD_REACTORS
330
EBA
102
}
330
A
100
AcDbEntity
  8
1
  6
HIDDEN2
 62
     8
100
AcDbCircle
 10
533.2149732977057
 20
1091.54419449241
 30
0.0
 40
3.5
100
AcDbArc
 50
3.55862915329999
 51
75.24811428740003
  0
ARC
  5
DFF
102
{ACAD_REACTORS
330
EBA
102
}
330
A
100
AcDbEntity
  8
1
  6
HIDDEN2
 62
     8
100
AcDbCircle
 10
521.2926567212057
 20
955.2714924549102
 30
0.0
 40
3.5
100
AcDbArc
 50
275.1728258285
 51
341.6823773998999
  0
ARC
  5
E00
102
{ACAD_REACTORS
330
EBA
102
}
330
A
100
AcDbEntity
  8
1
  6
HIDDEN2
 62
     8
100
AcDbCircle
 10
514.9948967312055
 20
1084.10233883491
 30
0.0
 40
1.0
100
AcDbArc
 50
175.5
 51
270.0
  0
LINE
  5
E01
102
{ACAD_REACTORS
330
EBA
102
}
330
A
100
AcDbEntity
  8
1
  6
HIDDEN2
 62
     8
100
AcDbLine
 10
516.0092474517057
 20
955.2274116949106
 30
0.0
 11
516.0788047542057
 21
956.0224552979102
 31
0.0
  0
LINE
  5
E02
102
{ACAD_REACTORS
330
EBA
102
}
330
A
100
AcDbEntity
  8
1
  6
HIDDEN2
 62
     8
100
AcDbLine
 10
527.2672384977056
 20
1095.38055142241
 30
0.0
 11
528.2634331962056
 21
1095.29339567991
 31
0.0
  0
ARC
  5
E03
102
{ACAD_REACTORS
330
EBA
102
}
330
A
100
AcDbEntity
  8
1
  6
HIDDEN2
 62
     8
100
AcDbCircle
 10
457.7731269707057
 20
978.5431840369108
 30
0.0
 40
3.5
100
AcDbArc
 50
180.0
 51
260.0621890536998
  0
LINE
  5
E04
102
{ACAD_REACTORS
330
EBA
102
}
330
A
100
AcDbEntity
  8
1
  6
HIDDEN2
 62
     8
100
AcDbLine
 10
457.7731269707057
 20
1083.102338834909
 30
0.0
 11
515.2575305197055
 21
1083.102338834909
 31
0.0
  0
ARC
  5
E05
102
{ACAD_REACTORS
330
EBA
102
}
330
A
100
AcDbEntity
  8
1
  6
HIDDEN2
 62
     8
100
AcDbCircle
 10
515.1957260597056
 20
1083.21382683941
 30
0.0
 40
0.9656793785000001
100
AcDbArc
 50
267.6803005390999
 51
352.9874185518
  0
ARC
  5
E06
102
{ACAD_REACTORS
330
EBA
102
}
330
A
100
AcDbEntity
  8
1
  6
HIDDEN2
 62
     8
100
AcDbCircle
 10
515.2575305197055
 20
1084.10233883491
 30
0.0
 40
1.0
100
AcDbArc
 50
270.0
 51
353.440246014
  0
LINE
  5
E07
102
{ACAD_REACTORS
330
EBA
102
}
330
A
100
AcDbEntity
  8
1
  6
HIDDEN2
 62
     8
100
AcDbLine
 10
505.0727717527056
 20
966.7025906049101
 30
0.0
 11
457.1690999052058
 21
975.0956992574106
 31
0.0
  0
LINE
  5
E08
102
{ACAD_REACTORS
330
EBA
102
}
330
A
100
AcDbEntity
  8
1
  6
HIDDEN2
 62
     8
100
AcDbLine
 10
516.0549823997057
 20
967.22387778841
 30
0.0
 11
515.0130527537057
 21
955.3145674374103
 31
0.0
  0
SPLINE
  5
E09
102
{ACAD_REACTORS
330
EBA
102
}
330
A
100
AcDbEntity
  8
1
  6
HIDDEN2
 62
     8
100
AcDbSpline
210
0.0
220
0.0
230
1.0
 70
     8
 71
     3
 72
    16
 73
    12
 74
     0
 42
0.0000000001
 43
0.0000000001
 40
0.0
 40
0.0
 40
0.0
 40
0.0
 40
0.125
 40
0.125
 40
0.25
 40
0.25
 40
0.5
 40
0.5
 40
0.75
 40
0.75
 40
1.0
 40
1.0
 40
1.0
 40
1.0
 10
518.9556786488387
 20
1082.83150723942
 30
0.0
 10
518.7610508115027
 20
1082.850052007715
 30
0.0
 10
518.5671902707624
 20
1082.868547674913
 30
0.0
 10
518.1967925440155
 20
1082.903931595467
 30
0.0
 10
518.0180297301742
 20
1082.921032361253
 30
0.0
 10
517.5016883405385
 20
1082.970503842751
 30
0.0
 10
517.1994940695847
 20
1082.999563424431
 30
0.0
 10
516.689924448191
 20
1083.048818810256
 30
0.0
 10
516.4935737997375
 20
1083.067948565049
 30
0.0
 10
516.2227705167289
 20
1083.094736976957
 30
0.0
 10
516.1547846260988
 20
1083.101754911872
 30
0.0
 10
516.1548357127621
 20
1083.102338835106
 30
0.0
  0
LINE
  5
E0A
102
{ACAD_REACTORS
330
EBA
102
}
330
A
100
AcDbEntity
  8
1
  6
HIDDEN2
 62
     8
100
AcDbLine
 10
527.3369630922056
 20
1096.17750718091
 30
0.0
 11
526.2925275062057
 21
1084.23955380641
 31
0.0
  0
ARC
  5
E0B
102
{ACAD_REACTORS
330
EBA
102
}
330
A
100
AcDbEntity
  8
1
  6
HIDDEN2
 62
     8
100
AcDbCircle
 10
521.3787160882056
 20
1092.51669435541
 30
0.0
 40
3.5
100
AcDbArc
 50
95.1985860487
 51
165.6111438364
  0
ARC
  5
E0C
102
{ACAD_REACTORS
330
EBA
102
}
330
A
100
AcDbEntity
  8
1
  6
HIDDEN2
 62
     8
100
AcDbCircle
 10
525.5919882572056
 20
1046.20796582991
 30
0.0
 40
50.0
100
AcDbArc
 50
87.99999999999993
 51
95.1985860487
  0
ARC
  5
E0D
102
{ACAD_REACTORS
330
EBA
102
}
330
A
100
AcDbEntity
  8
1
  6
HIDDEN2
 62
     8
100
AcDbCircle
 10
575.7721085457053
 20
961.4547873204106
 30
0.0
 40
70.0
100
AcDbArc
 50
181.2192346906
 51
184.3859368809999
  0
SPLINE
  5
E0E
102
{ACAD_REACTORS
330
EBA
102
}
330
A
100
AcDbEntity
  8
1
  6
HIDDEN2
 62
     8
100
AcDbSpline
210
0.0
220
0.0
230
1.0
 70
     8
 71
     3
 72
    16
 73
    12
 74
     0
 42
0.0000000001
 43
0.0000000001
 40
0.0
 40
0.0
 40
0.0
 40
0.0
 40
0.2500000000000004
 40
0.2500000000000004
 40
0.5000000000000009
 40
0.5000000000000009
 40
0.7500000000000015
 40
0.7500000000000015
 40
0.8750000000000003
 40
0.8750000000000003
 40
1.0
 40
1.0
 40
1.0
 40
1.0
 10
505.9574943075404
 20
966.5459206708602
 30
0.0
 10
505.9501975159454
 20
966.4458599073116
 30
0.0
 10
506.0076084179613
 20
966.3434595188087
 30
0.0
 10
506.2516577443924
 20
966.1339951348752
 30
0.0
 10
506.4318199961199
 20
966.0325913411467
 30
0.0
 10
506.9072213890911
 20
965.8370184975002
 30
0.0
 10
507.1903714005046
 20
965.7478739702685
 30
0.0
 10
507.6807645377801
 20
965.6278632084646
 30
0.0
 10
507.8520567663191
 20
965.5910183035192
 30
0.0
 10
508.2072865304771
 20
965.5240280546417
 30
0.0
 10
508.3934690817589
 20
965.4935537482037
 30
0.0
 10
508.5811038045009
 20
965.4672186346566
 30
0.0
  0
LINE
  5
E0F
102
{ACAD_REACTORS
330
EBA
102
}
330
A
100
AcDbEntity
  8
1
  6
HIDDEN2
 62
     8
100
AcDbLine
 10
505.9574943077056
 20
966.5459206709101
 30
0.0
 11
505.9576138112056
 21
966.5475591584101
 31
0.0
  0
ARC
  5
E10
102
{ACAD_REACTORS
330
EBA
102
}
330
A
100
AcDbEntity
  8
1
  6
HIDDEN2
 62
     8
100
AcDbCircle
 10
575.7721085457053
 20
961.4547873204106
 30
0.0
 40
70.0
100
AcDbArc
 50
175.8291680416999
 51
181.2192346906
  0
LINE
  5
E11
102
{ACAD_REACTORS
330
EBA
102
}
330
A
100
AcDbEntity
  8
1
  6
HIDDEN2
 62
     8
100
AcDbLine
 10
505.9576138112056
 20
966.5475591584101
 30
0.0
 11
506.1487846477056
 21
968.7326518169106
 31
0.0
  0
LINE
  5
E12
102
{ACAD_REACTORS
330
EBA
102
}
330
A
100
AcDbEntity
  8
1
  6
HIDDEN2
 62
     8
100
AcDbLine
 10
506.1487846477056
 20
968.7326518169106
 30
0.0
 11
516.1548357127056
 21
1083.102338834909
 31
0.0
  0
ARC
  5
E13
102
{ACAD_REACTORS
330
EBA
102
}
330
A
100
AcDbEntity
  8
1
  6
HIDDEN2
 62
     8
100
AcDbCircle
 10
575.7721085457053
 20
961.4547873204106
 30
0.0
 40
70.0
100
AcDbArc
 50
175.8278233590999
 51
179.1053502142998
  0
LINE
  5
E14
102
{ACAD_REACTORS
330
EBA
102
}
330
A
100
AcDbEntity
  8
1
  6
HIDDEN2
 62
     8
100
AcDbLine
 10
515.8062127417056
 20
1079.11756004291
 30
0.0
 11
516.1548357127056
 21
1083.102338834909
 31
0.0
  0
LINE
  5
E15
102
{ACAD_REACTORS
330
EBA
102
}
330
A
100
AcDbEntity
  8
1
  6
HIDDEN2
 62
     8
100
AcDbLine
 10
505.9576138112056
 20
966.5475591584101
 30
0.0
 11
506.3062367822056
 21
970.5323379509108
 31
0.0
  0
ARC
  5
E16
102
{ACAD_REACTORS
330
EBA
102
}
330
A
100
AcDbEntity
  8
1
  6
HIDDEN2
 62
     8
100
AcDbCircle
 10
457.7731269707057
 20
1079.60233883491
 30
0.0
 40
3.5
100
AcDbArc
 50
90.0
 51
180.0
  0
LINE
  5
E17
102
{ACAD_REACTORS
330
EBA
102
}
330
A
100
AcDbEntity
  8
1
  6
HIDDEN2
 62
     8
100
AcDbLine
 10
454.2731269707057
 20
987.4112439024106
 30
0.0
 11
454.2731269707057
 21
1070.85837510791
 31
0.0
  0
LINE
  5
E18
102
{ACAD_REACTORS
330
EBA
102
}
330
A
100
AcDbEntity
  8
1
  6
HIDDEN2
 62
     8
100
AcDbLine
 10
454.2731269707057
 20
978.5431840369108
 30
0.0
 11
454.2731269707057
 21
987.4112439024106
 31
0.0
  0
LINE
  5
E19
102
{ACAD_REACTORS
330
EBA
102
}
330
A
100
AcDbEntity
  8
1
  6
HIDDEN2
 62
     8
100
AcDbLine
 10
454.2731269707057
 20
1070.85837510791
 30
0.0
 11
454.2731269707057
 21
1079.60233883491
 31
0.0
  0
SPLINE
  5
E1A
102
{ACAD_REACTORS
330
EBA
102
}
330
A
100
AcDbEntity
  8
1
  6
HIDDEN2
 62
     8
100
AcDbSpline
210
0.0
220
0.0
230
1.0
 70
     8
 71
     3
 72
    10
 73
     6
 74
     0
 42
0.0000000001
 43
0.0000000001
 40
0.0
 40
0.0
 40
0.0
 40
0.0
 40
0.5
 40
0.5
 40
1.0
 40
1.0
 40
1.0
 40
1.0
 10
505.8983885903075
 20
965.6575554094946
 30
0.0
 10
505.8983885903075
 20
965.6575554094946
 30
0.0
 10
505.9028622155853
 20
965.7339060062877
 30
0.0
 10
505.9218164459478
 20
966.0329018936073
 30
0.0
 10
505.9362894218597
 20
966.2556058745153
 30
0.0
 10
505.9580812018633
 20
966.5539623565402
 30
0.0
  0
ARC
  5
E1B
102
{ACAD_REACTORS
330
EBA
102
}
330
A
100
AcDbEntity
  8
1
  6
HIDDEN2
 62
     8
100
AcDbCircle
 10
504.9893466592057
 20
966.6006887339101
 30
0.0
 40
0.9698607984999998
100
AcDbArc
 50
357.2385098813999
 51
82.31706567749998
  0
LINE
  5
E1C
102
{ACAD_REACTORS
330
EBA
102
}
330
A
100
AcDbEntity
  8
1
  6
HIDDEN2
 62
     8
100
AcDbLine
 10
516.0549823997057
 20
967.22387778841
 30
0.0
 11
526.2925275062057
 21
1084.23955380641
 31
0.0
  0
LINE
  5
E1D
102
{ACAD_REACTORS
330
EBA
102
}
330
A
100
AcDbEntity
  8
1
  6
HIDDEN2
 62
     8
100
AcDbLine
 10
515.0130527537057
 20
955.3145674374103
 30
0.0
 11
514.6993803937056
 21
951.7292759574107
 31
0.0
  0
LINE
  5
E1E
102
{ACAD_REACTORS
330
EBA
102
}
330
A
100
AcDbEntity
  8
1
  6
HIDDEN2
 62
     8
100
AcDbLine
 10
513.9979793972056
 20
1084.18079793091
 30
0.0
 11
514.3207431557057
 21
1088.28190032941
 31
0.0
  0
LINE
  5
E1F
102
{ACAD_REACTORS
330
EBA
102
}
330
A
100
AcDbEntity
  8
1
  6
HIDDEN2
 62
     8
100
AcDbLine
 10
469.0507507927057
 20
1092.24251145891
 30
0.0
 11
475.4477733952056
 21
1091.68284450091
 31
0.0
  0
LINE
  5
E20
102
{ACAD_REACTORS
330
EBA
102
}
330
A
100
AcDbEntity
  8
1
  6
HIDDEN2
 62
     8
100
AcDbLine
 10
468.2577124222056
 20
1084.00649308241
 30
0.0
 11
469.0507507927057
 21
1092.24251145891
 31
0.0
  0
LINE
  5
E21
102
{ACAD_REACTORS
330
EBA
102
}
330
A
100
AcDbEntity
  8
1
  6
HIDDEN2
 62
     8
100
AcDbLine
 10
507.9237205532057
 20
1088.84156728741
 30
0.0
 11
514.3207431557057
 21
1088.28190032941
 31
0.0
  0
LINE
  5
E22
102
{ACAD_REACTORS
330
EBA
102
}
330
A
100
AcDbEntity
  8
1
  6
HIDDEN2
 62
     8
100
AcDbLine
 10
475.4477733952056
 20
1091.68284450091
 30
0.0
 11
507.9237205532057
 21
1088.84156728741
 31
0.0
  0
LINE
  5
E23
102
{ACAD_REACTORS
330
EBA
102
}
330
A
100
AcDbEntity
  8
1
  6
HIDDEN2
 62
     8
100
AcDbLine
 10
502.6543883687057
 20
986.1600858104104
 30
0.0
 11
509.4961141742057
 21
1064.36136961041
 31
0.0
  0
LINE
  5
E24
102
{ACAD_REACTORS
330
EBA
102
}
330
A
100
AcDbEntity
  8
1
  6
HIDDEN2
 62
     8
100
AcDbLine
 10
509.4961141742057
 20
1064.36136961041
 30
0.0
 11
478.1159811847057
 21
1067.10677550691
 31
0.0
  0
LINE
  5
E25
102
{ACAD_REACTORS
330
EBA
102
}
330
A
100
AcDbEntity
  8
1
  6
HIDDEN2
 62
     8
100
AcDbLine
 10
478.1159811847057
 20
1067.10677550691
 30
0.0
 11
471.2742553787056
 21
988.9054917069103
 31
0.0
  0
LINE
  5
E26
102
{ACAD_REACTORS
330
EBA
102
}
330
A
100
AcDbEntity
  8
1
  6
HIDDEN2
 62
     8
100
AcDbLine
 10
465.1654501092057
 20
1068.23980016291
 30
0.0
 11
461.4613310427057
 21
1025.90152549391
 31
0.0
  0
LINE
  5
E27
102
{ACAD_REACTORS
330
EBA
102
}
330
A
100
AcDbEntity
  8
1
  6
HIDDEN2
 62
     8
100
AcDbLine
 10
461.4613310427057
 20
1025.90152549391
 30
0.0
 11
472.4194727217056
 21
1024.94281232391
 31
0.0
  0
LINE
  5
E28
102
{ACAD_REACTORS
330
EBA
102
}
330
A
100
AcDbEntity
  8
1
  6
HIDDEN2
 62
     8
100
AcDbLine
 10
472.4194727217056
 20
1024.94281232391
 30
0.0
 11
476.1235917882057
 21
1067.28108699241
 31
0.0
  0
LINE
  5
E29
102
{ACAD_REACTORS
330
EBA
102
}
330
A
100
AcDbEntity
  8
1
  6
HIDDEN2
 62
     8
100
AcDbLine
 10
476.1235917882057
 20
1067.28108699241
 30
0.0
 11
465.1654501092057
 21
1068.23980016291
 31
0.0
  0
LINE
  5
E2A
102
{ACAD_REACTORS
330
EBA
102
}
330
A
100
AcDbEntity
  8
1
  6
HIDDEN2
 62
     8
100
AcDbLine
 10
471.2742553787056
 20
988.9054917069103
 30
0.0
 11
502.6543883687057
 21
986.1600858104104
 31
0.0
  0
ARC
  5
E2B
102
{ACAD_REACTORS
330
EBA
102
}
330
A
100
AcDbEntity
  8
1
  6
HIDDEN2
 62
     8
100
AcDbCircle
 10
585.7927116467058
 20
1075.99134485191
 30
0.0
 40
70.0
100
AcDbArc
 50
165.6111438364
 51
169.2488241096999
  0
ARC
  5
E2C
102
{ACAD_REACTORS
330
EBA
102
}
330
A
100
AcDbEntity
  8
1
  6
HIDDEN2
 62
     8
100
AcDbCircle
 10
585.7927116467058
 20
1075.99134485191
 30
0.0
 40
70.0
100
AcDbArc
 50
165.6111438364
 51
172.9738151941
  0
ARC
  5
E2D
102
{ACAD_REACTORS
330
EBA
102
}
330
A
100
AcDbEntity
  8
1
  6
HIDDEN2
 62
     8
100
AcDbCircle
 10
585.7927116467058
 20
1075.99134485191
 30
0.0
 40
70.0
100
AcDbArc
 50
170.8919812468
 51
174.1695146747999
  0
LINE
  5
E2E
102
{ACAD_REACTORS
330
EBA
102
}
330
A
100
AcDbEntity
  8
1
  6
HIDDEN2
 62
     8
100
AcDbLine
 10
516.1548357127056
 20
1083.102338834909
 30
0.0
 11
516.3183869817057
 21
1084.55395031891
 31
0.0
  0
ARC
  5
E2F
102
{ACAD_REACTORS
330
EBA
102
}
330
A
100
AcDbEntity
  8
1
  6
HIDDEN2
 62
     8
100
AcDbCircle
 10
467.2623162237057
 20
1084.10233883491
 30
0.0
 40
1.0
100
AcDbArc
 50
270.0
 51
354.4999999999998
  0
LINE
  5
E30
102
{ACAD_REACTORS
330
EBA
102
}
330
A
100
AcDbEntity
  8
1
  6
HIDDEN2
 62
     8
100
AcDbLine
 10
514.7691049877058
 20
952.5262317159107
 30
0.0
 11
515.7652996862058
 21
952.4390759734108
 31
0.0
  0
ARC
  5
E31
102
{ACAD_REACTORS
330
EBA
102
}
330
A
100
AcDbEntity
  8
1
  6
HIDDEN2
 62
     8
100
AcDbCircle
 10
521.6580354417057
 20
1001.24267939491
 30
0.0
 40
50.0
100
AcDbArc
 50
254.7773173101
 51
262.0
  0
ARC
  5
E32
102
{ACAD_REACTORS
330
EBA
102
}
330
A
100
AcDbEntity
  8
1
  6
HIDDEN2
 62
     8
100
AcDbCircle
 10
509.4668502947056
 20
956.3692462219101
 30
0.0
 40
3.5
100
AcDbArc
 50
189.0892199058
 51
254.6519265929
  0
LINE
  5
E33
102
{ACAD_REACTORS
330
EBA
102
}
330
A
100
AcDbEntity
  8
1
  6
HIDDEN2
 62
     8
100
AcDbLine
 10
451.7731269707057
 20
1057.61659352441
 30
0.0
 11
454.2731269707057
 21
1057.39787186591
 31
0.0
  0
LINE
  5
E34
102
{ACAD_REACTORS
330
EBA
102
}
330
A
100
AcDbEntity
  8
1
  6
HIDDEN2
 62
     8
100
AcDbLine
 10
451.7731269707057
 20
986.3453850589106
 30
0.0
 11
454.2731269707057
 21
986.1266634004101
 31
0.0
  0
LINE
  5
E35
102
{ACAD_REACTORS
330
EBA
102
}
330
A
100
AcDbEntity
  8
1
  6
HIDDEN2
 62
     8
100
AcDbLine
 10
451.7731269707057
 20
1073.67771092541
 30
0.0
 11
451.7731269707057
 21
1057.61659352441
 31
0.0
  0
LINE
  5
E36
102
{ACAD_REACTORS
330
EBA
102
}
330
A
100
AcDbEntity
  8
1
  6
HIDDEN2
 62
     8
100
AcDbLine
 10
451.7731269707057
 20
1002.40650245991
 30
0.0
 11
451.7731269707057
 21
986.3453850589106
 31
0.0
  0
LINE
  5
E37
102
{ACAD_REACTORS
330
EBA
102
}
330
A
100
AcDbEntity
  8
1
  6
HIDDEN2
 62
     8
100
AcDbLine
 10
454.2731269707057
 20
1071.45134959141
 30
0.0
 11
454.2731269707057
 21
1070.85837510791
 31
0.0
  0
LINE
  5
E38
102
{ACAD_REACTORS
330
EBA
102
}
330
A
100
AcDbEntity
  8
1
  6
HIDDEN2
 62
     8
100
AcDbLine
 10
454.2731269707057
 20
1073.45898926641
 30
0.0
 11
451.7731269707057
 21
1073.67771092541
 31
0.0
  0
LINE
  5
E39
102
{ACAD_REACTORS
330
EBA
102
}
330
A
100
AcDbEntity
  8
1
  6
HIDDEN2
 62
     8
100
AcDbLine
 10
454.2731269707057
 20
1002.18778080091
 30
0.0
 11
451.7731269707057
 21
1002.40650245991
 31
0.0
  0
ARC
  5
E3A
102
{ACAD_REACTORS
330
EBA
102
}
330
A
100
AcDbEntity
  8
1
  6
HIDDEN2
 62
     8
100
AcDbCircle
 10
483.0686176622057
 20
1095.03138637141
 30
0.0
 40
0.75
100
AcDbArc
 50
354.9999999999999
 51
175.0
  0
LINE
  5
E3B
102
{ACAD_REACTORS
330
EBA
102
}
330
A
100
AcDbEntity
  8
1
  6
HIDDEN2
 62
     8
100
AcDbLine
 10
471.9448960907056
 20
1093.99694622991
 30
0.0
 11
475.9209432902057
 21
1093.64908717441
 31
0.0
  0
LINE
  5
E3C
102
{ACAD_REACTORS
330
EBA
102
}
330
A
100
AcDbEntity
  8
1
  6
HIDDEN2
 62
     8
100
AcDbLine
 10
475.9209432902057
 20
1093.64908717441
 30
0.0
 11
507.7991736292058
 21
1090.86010340641
 31
0.0
  0
LINE
  5
E3D
102
{ACAD_REACTORS
330
EBA
102
}
330
A
100
AcDbEntity
  8
1
  6
HIDDEN2
 62
     8
100
AcDbLine
 10
507.7991736292058
 20
1090.86010340641
 30
0.0
 11
511.7752208287057
 21
1090.51224435091
 31
0.0
  0
LINE
  5
E3E
102
{ACAD_REACTORS
330
EBA
102
}
330
A
100
AcDbEntity
  8
1
  6
HIDDEN2
 62
     8
100
AcDbLine
 10
512.6849824197059
 20
1089.43759055691
 30
0.0
 11
512.6058356342057
 21
1088.43193529641
 31
0.0
  0
LINE
  5
E3F
102
{ACAD_REACTORS
330
EBA
102
}
330
A
100
AcDbEntity
  8
1
  6
HIDDEN2
 62
     8
100
AcDbLine
 10
470.7656583142056
 20
1092.09247649191
 30
0.0
 11
470.8623441497057
 21
1093.09659728441
 31
0.0
  0
ARC
  5
E40
102
{ACAD_REACTORS
330
EBA
102
}
330
A
100
AcDbEntity
  8
1
  6
HIDDEN2
 62
     8
100
AcDbCircle
 10
511.6880650857056
 20
1089.51604965291
 30
0.0
 40
1.0
100
AcDbArc
 50
355.5
 51
85.00000000000005
  0
ARC
  5
E41
102
{ACAD_REACTORS
330
EBA
102
}
330
A
100
AcDbEntity
  8
1
  6
HIDDEN2
 62
     8
100
AcDbCircle
 10
471.8577403482057
 20
1093.00075153191
 30
0.0
 40
1.0
100
AcDbArc
 50
85.00000000000005
 51
174.5
  0
LINE
  5
E42
102
{ACAD_REACTORS
330
EBA
102
}
330
A
100
AcDbEntity
  8
1
  6
HIDDEN2
 62
     8
100
AcDbLine
 10
480.5781309172058
 20
1095.24927572841
 30
0.0
 11
480.4038194317056
 21
1093.25688633191
 31
0.0
  0
LINE
  5
E43
102
{ACAD_REACTORS
330
EBA
102
}
330
A
100
AcDbEntity
  8
1
  6
HIDDEN2
 62
     8
100
AcDbLine
 10
485.5591044077057
 20
1094.81349701441
 30
0.0
 11
485.3847929222056
 21
1092.82110761841
 31
0.0
  0
LINE
  5
E44
102
{ACAD_REACTORS
330
EBA
102
}
330
A
100
AcDbEntity
  8
1
  6
HIDDEN2
 62
     8
100
AcDbLine
 10
483.8157636857056
 20
1094.96601956441
 30
0.0
 11
483.6414522002057
 21
1092.97363016791
 31
0.0
  0
LINE
  5
E45
102
{ACAD_REACTORS
330
EBA
102
}
330
A
100
AcDbEntity
  8
1
  6
HIDDEN2
 62
     8
100
AcDbLine
 10
482.3214716387055
 20
1095.09675317841
 30
0.0
 11
482.1471601532057
 21
1093.10436378241
 31
0.0
  0
ARC
  5
E46
102
{ACAD_REACTORS
330
EBA
102
}
330
A
100
AcDbEntity
  8
1
  6
HIDDEN2
 62
     8
100
AcDbCircle
 10
483.0686176622057
 20
1095.03138637141
 30
0.0
 40
2.5
100
AcDbArc
 50
354.9999999999999
 51
175.0
  0
LINE
  5
E47
102
{ACAD_REACTORS
330
EBA
102
}
330
A
100
AcDbEntity
  8
1
  6
HIDDEN2
 62
     8
100
AcDbLine
 10
485.6532150217057
 20
1101.62604287941
 30
0.0
 11
485.7244461607057
 21
1102.44021852291
 31
0.0
  0
SPLINE
  5
E48
102
{ACAD_REACTORS
330
EBA
102
}
330
A
100
AcDbEntity
  8
1
  6
HIDDEN2
 62
     8
100
AcDbSpline
210
0.0
220
0.0
230
1.0
 70
     8
 71
     3
 72
    32
 73
    28
 74
     0
 42
0.0000000001
 43
0.0000000001
 40
0.0
 40
0.0
 40
0.0
 40
0.0
 40
0.0312499999999999
 40
0.0312499999999999
 40
0.0624999999999998
 40
0.0624999999999998
 40
0.1249999999999997
 40
0.1249999999999997
 40
0.2499999999999994
 40
0.2499999999999994
 40
0.3749999999999992
 40
0.3749999999999992
 40
0.4374999999999992
 40
0.4374999999999992
 40
0.499999999999999
 40
0.499999999999999
 40
0.5624999999999991
 40
0.5624999999999991
 40
0.6249999999999988
 40
0.6249999999999988
 40
0.7499999999999991
 40
0.7499999999999991
 40
0.8124999999999991
 40
0.8124999999999991
 40
0.8749999999999992
 40
0.8749999999999992
 40
1.0
 40
1.0
 40
1.0
 40
1.0
 10
494.1698437492103
 20
1104.600263231719
 30
0.0
 10
494.2749676589873
 20
1104.591066081348
 30
0.0
 10
494.3770318910642
 20
1104.580068848604
 30
0.0
 10
494.5665800831742
 20
1104.554194606517
 30
0.0
 10
494.6562781993013
 20
1104.539094485077
 30
0.0
 10
494.9105054451542
 20
1104.486647881265
 30
0.0
 10
495.061406101302
 20
1104.442052423816
 30
0.0
 10
495.4789891789202
 20
1104.273636885752
 30
0.0
 10
495.7126892842135
 20
1104.112789436575
 30
0.0
 10
496.1134574426116
 20
1103.694356943352
 30
0.0
 10
496.28164781013
 20
1103.437431006036
 30
0.0
 10
496.4999720995764
 20
1102.974255333739
 30
0.0
 10
496.5670416699405
 20
1102.806204901752
 30
0.0
 10
496.6881335653779
 20
1102.450586918971
 30
0.0
 10
496.7425666731541
 20
1102.26228485218
 30
0.0
 10
496.8406299807709
 20
1101.864631095402
 30
0.0
 10
496.8842545858073
 20
1101.655281841145
 30
0.0
 10
496.9615168503771
 20
1101.214892040061
 30
0.0
 10
496.9952963097329
 20
1100.982409049114
 30
0.0
 10
497.0807008317647
 20
1100.264131589453
 30
0.0
 10
497.117068463929
 20
1099.75734572449
 30
0.0
 10
497.1445508425043
 20
1098.955004154536
 30
0.0
 10
497.1491377965436
 20
1098.67912019978
 30
0.0
 10
497.1491808424623
 20
1098.118927160128
 30
0.0
 10
497.1446867477012
 20
1097.83655068855
 30
0.0
 10
497.1184540287659
 20
1096.982730470256
 30
0.0
 10
497.0841543215311
 20
1096.404665942467
 30
0.0
 10
497.0327683122543
 20
1095.817321168804
 30
0.0
  0
LINE
  5
E49
102
{ACAD_REACTORS
330
EBA
102
}
330
A
100
AcDbEntity
  8
1
  6
HIDDEN2
 62
     8
100
AcDbLine
 10
485.6532150217057
 20
1101.62604287941
 30
0.0
 11
485.1917406727057
 21
1096.35136693291
 31
0.0
  0
LINE
  5
E4A
102
{ACAD_REACTORS
330
EBA
102
}
330
A
100
AcDbEntity
  8
1
  6
HIDDEN2
 62
     8
100
AcDbLine
 10
485.7244461607057
 20
1102.44021852291
 30
0.0
 11
485.9761423572056
 21
1105.31711921591
 31
0.0
  0
LINE
  5
E4B
102
{ACAD_REACTORS
330
EBA
102
}
330
A
100
AcDbEntity
  8
1
  6
HIDDEN2
 62
     8
100
AcDbLine
 10
501.5480518987057
 20
1091.40700569241
 30
0.0
 11
501.8966748697056
 21
1095.39178448441
 31
0.0
  0
ARC
  5
E4C
102
{ACAD_REACTORS
330
EBA
102
}
330
A
100
AcDbEntity
  8
1
  6
HIDDEN2
 62
     8
100
AcDbCircle
 10
493.4290199357056
 20
1096.13260829791
 30
0.0
 40
8.5
100
AcDbArc
 50
354.9999999999999
 51
85.00000000000005
  0
LINE
  5
E4D
102
{ACAD_REACTORS
330
EBA
102
}
330
A
100
AcDbEntity
  8
1
  6
HIDDEN2
 62
     8
100
AcDbLine
 10
494.1698437492056
 20
1104.60026323191
 30
0.0
 11
485.9761423572056
 21
1105.31711921591
 31
0.0
  0
LINE
  5
E4E
102
{ACAD_REACTORS
330
EBA
102
}
330
A
100
AcDbEntity
  8
1
  6
HIDDEN2
 62
     8
100
AcDbLine
 10
494.3505452047056
 20
1092.03670593341
 30
0.0
 11
494.5684345617057
 21
1094.52719267891
 31
0.0
  0
LINE
  5
E4F
102
{ACAD_REACTORS
330
EBA
102
}
330
A
100
AcDbEntity
  8
1
  6
HIDDEN2
 62
     8
100
AcDbLine
 10
489.5874610712056
 20
1094.96297139241
 30
0.0
 11
489.3695717147056
 21
1092.47248464741
 31
0.0
  0
LINE
  5
E50
102
{ACAD_REACTORS
330
EBA
102
}
330
A
100
AcDbEntity
  8
1
  6
HIDDEN2
 62
     8
100
AcDbLine
 10
496.0627266087057
 20
1094.39645906491
 30
0.0
 11
496.1498823517056
 21
1095.39265376291
 31
0.0
  0
LINE
  5
E51
102
{ACAD_REACTORS
330
EBA
102
}
330
A
100
AcDbEntity
  8
1
  6
HIDDEN2
 62
     8
100
AcDbLine
 10
496.3677717087057
 20
1097.88314050791
 30
0.0
 11
496.6292389367056
 21
1100.87172460241
 31
0.0
  0
LINE
  5
E52
102
{ACAD_REACTORS
330
EBA
102
}
330
A
100
AcDbEntity
  8
1
  6
HIDDEN2
 62
     8
100
AcDbLine
 10
496.6292389367056
 20
1100.87172460241
 30
0.0
 11
496.1747194592057
 21
1101.41339982291
 31
0.0
  0
LINE
  5
E53
102
{ACAD_REACTORS
330
EBA
102
}
330
A
100
AcDbEntity
  8
1
  6
HIDDEN2
 62
     8
100
AcDbLine
 10
488.1803247667058
 20
1096.08989970491
 30
0.0
 11
488.0931690242057
 21
1095.09370500641
 31
0.0
  0
ARC
  5
E54
102
{ACAD_REACTORS
330
EBA
102
}
330
A
100
AcDbEntity
  8
1
  6
HIDDEN2
 62
     8
100
AcDbCircle
 10
485.3798712242057
 20
1097.58965365241
 30
0.0
 40
3.5017746645
100
AcDbArc
 50
342.6343978278
 51
7.367735389600004
  0
ARC
  5
E55
102
{ACAD_REACTORS
330
EBA
102
}
330
A
100
AcDbEntity
  8
1
  6
HIDDEN2
 62
     8
100
AcDbCircle
 10
499.1640269502058
 20
1096.38370319891
 30
0.0
 40
3.497662059
100
AcDbArc
 50
162.6177050681
 51
187.3806675152
  0
LINE
  5
E56
102
{ACAD_REACTORS
330
EBA
102
}
330
A
100
AcDbEntity
  8
1
  6
HIDDEN2
 62
     8
100
AcDbLine
 10
488.6596813522056
 20
1101.56897054441
 30
0.0
 11
488.3982141237058
 21
1098.58038644991
 31
0.0
  0
LINE
  5
E57
102
{ACAD_REACTORS
330
EBA
102
}
330
A
100
AcDbEntity
  8
1
  6
HIDDEN2
 62
     8
100
AcDbLine
 10
489.2013565727057
 20
1102.02349002191
 30
0.0
 11
488.6596813522056
 21
1101.56897054441
 31
0.0
  0
LINE
  5
E58
102
{ACAD_REACTORS
330
EBA
102
}
330
A
100
AcDbEntity
  8
1
  6
HIDDEN2
 62
     8
100
AcDbLine
 10
488.0931690242057
 20
1095.09370500641
 30
0.0
 11
496.0627266087057
 21
1094.39645906491
 31
0.0
  0
LINE
  5
E59
102
{ACAD_REACTORS
330
EBA
102
}
330
A
100
AcDbEntity
  8
1
  6
HIDDEN2
 62
     8
100
AcDbLine
 10
488.3982141237058
 20
1098.58038644991
 30
0.0
 11
496.3677717087057
 21
1097.88314050791
 31
0.0
  0
LINE
  5
E5A
102
{ACAD_REACTORS
330
EBA
102
}
330
A
100
AcDbEntity
  8
1
  6
HIDDEN2
 62
     8
100
AcDbLine
 10
488.1803247667058
 20
1096.08989970491
 30
0.0
 11
496.1498823517056
 21
1095.39265376291
 31
0.0
  0
LINE
  5
E5B
102
{ACAD_REACTORS
330
EBA
102
}
330
A
100
AcDbEntity
  8
1
  6
HIDDEN2
 62
     8
100
AcDbLine
 10
488.6596813522056
 20
1101.56897054441
 30
0.0
 11
496.6292389367056
 21
1100.87172460241
 31
0.0
  0
LINE
  5
E5C
102
{ACAD_REACTORS
330
EBA
102
}
330
A
100
AcDbEntity
  8
1
  6
HIDDEN2
 62
     8
100
AcDbLine
 10
496.1747194592057
 20
1101.41339982291
 30
0.0
 11
489.2013565727057
 21
1102.02349002191
 31
0.0
  0
LINE
  5
E5D
102
{ACAD_REACTORS
330
EBA
102
}
330
A
100
AcDbEntity
  8
1
  6
HIDDEN2
 62
     8
100
AcDbLine
 10
495.8258436022056
 20
1097.425730531409
 30
0.0
 11
495.8696743597057
 21
1097.92671837941
 31
0.0
  0
LINE
  5
E5E
102
{ACAD_REACTORS
330
EBA
102
}
330
A
100
AcDbEntity
  8
1
  6
HIDDEN2
 62
     8
100
AcDbLine
 10
495.6517850027055
 20
1095.43623163391
 30
0.0
 11
495.6961544572056
 21
1095.94337682141
 31
0.0
  0
LINE
  5
E5F
102
{ACAD_REACTORS
330
EBA
102
}
330
A
100
AcDbEntity
  8
1
  6
HIDDEN2
 62
     8
100
AcDbLine
 10
488.7228576982056
 20
1096.55422286341
 30
0.0
 11
488.6784221162058
 21
1096.046321833409
 31
0.0
  0
LINE
  5
E60
102
{ACAD_REACTORS
330
EBA
102
}
330
A
100
AcDbEntity
  8
1
  6
HIDDEN2
 62
     8
100
AcDbLine
 10
488.8963114727057
 20
1098.53680857841
 30
0.0
 11
488.8527336017057
 21
1098.03871122941
 31
0.0
  0
ARC
  5
E61
102
{ACAD_REACTORS
330
EBB
102
}
330
A
100
AcDbEntity
  8
1
  6
Continuous
100
AcDbCircle
 10
1713.313533428205
 20
1172.63210070191
 30
0.0
 40
28.86998510899999
100
AcDbArc
 50
277.4514431082324
 51
285.7684629621999
  0
DIMENSION
  5
E63
102
{ACAD_XDICTIONARY
360
E70
102
}
102
{ACAD_REACTORS
330
E7A
102
}
330
A
100
AcDbEntity
  8
MEASURE
  6
Continuous
100
AcDbDimension
  2
*D31
 10
1801.958968534705
 20
647.0253306918229
 30
0.0
 11
1606.958968534705
 21
658.2753306918229
 31
0.0
 70
    32
 71
     5
 42
389.9999999999993
  3
AD-STANDARD
100
AcDbAlignedDimension
 13
1411.958968534706
 23
502.2667035949107
 33
0.0
 14
1801.958968534705
 24
502.2667035949107
 34
0.0
100
AcDbRotatedDimension
1001
ACAD
1000
DSTYLE
1002
{
1070
    40
1040
5.0
1002
}
  0
DIMENSION
  5
E7B
102
{ACAD_XDICTIONARY
360
E88
102
}
102
{ACAD_REACTORS
330
E92
102
}
330
A
100
AcDbEntity
  8
MEASURE
  6
Continuous
100
AcDbDimension
  2
*D32
 10
1756.958968534705
 20
284.3537367499784
 30
0.0
 11
1606.958968534705
 21
295.6037367499784
 31
0.0
 70
    32
 71
     5
 42
300.0
  3
AD-STANDARD
100
AcDbAlignedDimension
 13
1456.958968534705
 23
390.8667035949106
 33
0.0
 14
1756.958968534705
 24
390.8667035949106
 34
0.0
100
AcDbRotatedDimension
1001
ACAD
1000
DSTYLE
1002
{
1070
    40
1040
5.0
1002
}
  0
DIMENSION
  5
E93
102
{ACAD_XDICTIONARY
360
EA0
102
}
102
{ACAD_REACTORS
330
EAA
102
}
330
A
100
AcDbEntity
  8
MEASURE
  6
Continuous
100
AcDbDimension
  2
*D33
 10
1626.958968534706
 20
743.1667694422962
 30
0.0
 11
1606.958968534706
 21
754.4167694422963
 31
0.0
 70
    32
 71
     5
 42
40.0
  3
AD-STANDARD
100
AcDbAlignedDimension
 13
1586.958968534706
 23
782.0667035949107
 33
0.0
 14
1626.958968534706
 24
782.0667035949107
 34
0.0
100
AcDbRotatedDimension
1001
ACAD
1000
DSTYLE
1002
{
1070
    76
1070
     1
1070
    75
1070
     1
1070
    40
1040
5.0
1002
}
  0
VIEWPORT
  5
7CD
330
6F0
100
AcDbEntity
 67
     1
  8
0
  6
Continuous
100
AcDbViewport
 10
211.3455834201688
 20
147.0064612763284
 30
0.0
 40
444.5275080566406
 41
364.7875220753463
 68
     1
 69
     1
 12
211.3455834201688
 22
147.0064612763284
 13
0.0
 23
0.0
 14
10.0
 24
10.0
 15
10.0
 25
10.0
 16
0.0
 26
0.0
 36
1.0
 17
0.0
 27
0.0
 37
0.0
 42
50.0
 43
0.0
 44
0.0
 45
364.7875220753463
 50
0.0
 51
0.0
 72
   100
 90
    32800
  1

281
     0
 71
     1
 74
     0
110
0.0
120
0.0
130
0.0
111
1.0
121
0.0
131
0.0
112
0.0
122
1.0
132
0.0
 79
     0
146
0.0
  0
VIEWPORT
  5
7CF
330
6F0
100
AcDbEntity
 67
     1
  8
DEFPOINTS
  6
Continuous
100
AcDbViewport
 10
209.5897038020189
 20
146.88414218112
 30
0.0
 40
406.2900248644805
 41
286.3965371186593
 68
     2
 69
     2
 12
1043.543845482381
 22
722.3652365645931
 13
0.0
 23
0.0
 14
1.0
 24
1.0
 15
0.0
 25
0.0
 16
0.0
 26
0.0
 36
1.0
 17
0.0
 27
0.0
 37
0.0
 42
50.0
 43
0.0
 44
0.0
 45
1431.982685100409
 50
0.0
 51
0.0
 72
   100
 90
    32800
  1

281
     0
 71
     1
 74
     0
110
0.0
120
0.0
130
0.0
111
1.0
121
0.0
131
0.0
112
0.0
122
1.0
132
0.0
 79
     0
146
0.0
  0
ENDSEC
  0
SECTION
  2
OBJECTS
  0
DICTIONARY
  5
19
330
0
100
AcDbDictionary
281
     1
  3
ACAD_COLOR
350
5BE
  3
ACAD_GROUP
350
1A
  3
ACAD_LAYOUT
350
5BF
  3
ACAD_MATERIAL
350
5BD
  3
ACAD_MLINESTYLE
350
1B
  3
ACAD_PLOTSETTINGS
350
5C0
  3
ACAD_PLOTSTYLENAME
350
5BB
  3
ACDBVARIABLEDICTIONARY
350
5B6
  0
DICTIONARY
  5
8D7
330
2
100
AcDbDictionary
280
     1
281
     1
  3
ACAD_LAYERFILTERS
360
CB0
  3
ACAD_LAYERSTATES
360
8D8
  0
DICTIONARY
  5
7F0
330
A
100
AcDbDictionary
280
     1
281
     1
  3
ACAD_LAYOUTSELFREF
360
7F1
  0
DICTIONARY
  5
7F4
330
6F0
100
AcDbDictionary
280
     1
281
     1
  3
ACAD_LAYOUTSELFREF
360
7F5
  0
DICTIONARY
  5
CBF
330
CB2
100
AcDbDictionary
280
     1
281
     1
  3
ACAD_DIMASSOC
360
CC9
  0
DICTIONARY
  5
CE0
330
CD3
100
AcDbDictionary
280
     1
281
     1
  3
ACAD_DIMASSOC
360
CEA
  0
DICTIONARY
  5
CF8
330
CEB
100
AcDbDictionary
280
     1
281
     1
  3
ACAD_DIMASSOC
360
D02
  0
DICTIONARY
  5
D10
330
D03
100
AcDbDictionary
280
     1
281
     1
  3
ACAD_DIMASSOC
360
D1A
  0
DICTIONARY
  5
D31
330
D24
100
AcDbDictionary
280
     1
281
     1
  3
ACAD_DIMASSOC
360
D3B
  0
DICTIONARY
  5
D58
330
D4B
100
AcDbDictionary
280
     1
281
     1
  3
ACAD_DIMASSOC
360
D62
  0
DICTIONARY
  5
D72
330
D63
100
AcDbDictionary
280
     1
281
     1
  3
ACAD_DIMASSOC
360
D7E
  0
DICTIONARY
  5
D8C
330
D7F
100
AcDbDictionary
280
     1
281
     1
  3
ACAD_DIMASSOC
360
D96
  0
DICTIONARY
  5
E70
330
E63
100
AcDbDictionary
280
     1
281
     1
  3
ACAD_DIMASSOC
360
E7A
  0
DICTIONARY
  5
E88
330
E7B
100
AcDbDictionary
280
     1
281
     1
  3
ACAD_DIMASSOC
360
E92
  0
DICTIONARY
  5
EA0
330
E93
100
AcDbDictionary
280
     1
281
     1
  3
ACAD_DIMASSOC
360
EAA
  0
DICTIONARY
  5
5BE
102
{ACAD_REACTORS
330
19
102
}
330
19
100
AcDbDictionary
281
     1
  0
DICTIONARY
  5
1A
102
{ACAD_REACTORS
330
19
102
}
330
19
100
AcDbDictionary
281
     1
  3
*A1
350
EBA
  3
*A2
350
EBB
  0
DICTIONARY
  5
5BF
102
{ACAD_REACTORS
330
19
102
}
330
19
100
AcDbDictionary
281
     1
  3
Model
350
7FC
  3
ﾚｲｱｳﾄ1
350
7FD
  0
DICTIONARY
  5
5BD
102
{ACAD_REACTORS
330
19
102
}
330
19
100
AcDbDictionary
281
     1
  0
DICTIONARY
  5
1B
102
{ACAD_REACTORS
330
19
102
}
330
19
100
AcDbDictionary
281
     1
  3
STANDARD
350
1C
  0
DICTIONARY
  5
5C0
102
{ACAD_REACTORS
330
19
102
}
330
19
100
AcDbDictionary
281
     1
  0
ACDBDICTIONARYWDFLT
  5
5BB
102
{ACAD_REACTORS
330
19
102
}
330
19
100
AcDbDictionary
281
     1
  3
Normal
350
5BC
100
AcDbDictionaryWithDefault
340
5BC
  0
DICTIONARY
  5
5B6
330
19
100
AcDbDictionary
281
     1
  3
DIMASSOC
350
5B7
  3
PROJECTNAME
350
6BF
  0
DICTIONARY
  5
CB0
102
{ACAD_REACTORS
330
8D7
102
}
330
8D7
100
AcDbDictionary
280
     1
281
     1
  0
DICTIONARY
  5
8D8
102
{ACAD_REACTORS
330
8D7
102
}
330
8D7
100
AcDbDictionary
281
     1
  0
XRECORD
  5
7F1
102
{ACAD_REACTORS
330
7F0
102
}
330
7F0
100
AcDbXrecord
280
     1
340
A
  0
XRECORD
  5
7F5
102
{ACAD_REACTORS
330
7F4
102
}
330
7F4
100
AcDbXrecord
280
     1
340
6F0
  0
DIMASSOC
  5
CC9
102
{ACAD_REACTORS
330
CBF
102
}
330
CBF
100
AcDbDimAssoc
330
CB2
 90
        3
 70
     0
 71
     0
  1
AcDbOsnapPointRef
 72
    13
331
958
 73
     2
 91
        0
 40
0.0
 10
579.0731269707053
 20
385.8667035949106
 30
0.0
 75
     0
  1
AcDbOsnapPointRef
 72
     5
331
A17
 73
     2
 91
        0
 40
1.570796326794896
 10
325.6132428507056
 20
1166.91017621691
 30
0.0
 75
     0
  0
DIMASSOC
  5
CEA
102
{ACAD_REACTORS
330
CE0
102
}
330
CE0
100
AcDbDimAssoc
330
CD3
 90
        1
 70
     0
 71
     0
  1
AcDbOsnapPointRef
 72
     1
331
990
 73
     2
 91
        0
 40
3.141592653589793
 10
546.0731269707057
 20
502.2667035949107
 30
0.0
 75
     0
  0
DIMASSOC
  5
D02
102
{ACAD_REACTORS
330
CF8
102
}
330
CF8
100
AcDbDimAssoc
330
CEB
 90
        3
 70
     0
 71
     0
  1
AcDbOsnapPointRef
 72
     1
331
AA6
 73
     2
 91
        0
 40
1.0
 10
302.0227113497057
 20
1114.76971898141
 30
0.0
 75
     0
  1
AcDbOsnapPointRef
 72
     2
331
966
 73
     2
 91
        0
 40
0.5
 10
591.0731269707055
 20
390.8667035949106
 30
0.0
 75
     0
  0
DIMASSOC
  5
D1A
102
{ACAD_REACTORS
330
D10
102
}
330
D10
100
AcDbDimAssoc
330
D03
 90
        3
 70
     0
 71
     0
  1
AcDbOsnapPointRef
 72
     2
331
966
 73
     2
 91
        0
 40
0.5
 10
591.0731269707055
 20
390.8667035949106
 30
0.0
 75
     0
  1
AcDbOsnapPointRef
 72
     2
331
941
 73
     2
 91
        0
 40
0.499999999999997
 10
1031.073126970705
 20
390.8667035949106
 30
0.0
 75
     0
  0
DIMASSOC
  5
D3B
102
{ACAD_REACTORS
330
D31
102
}
330
D31
100
AcDbDimAssoc
330
D24
 90
        3
 70
     0
 71
     0
  1
AcDbOsnapPointRef
 72
     2
331
99D
 73
     2
 91
        0
 40
0.5
 10
361.2731269707057
 20
782.0667035949107
 30
0.0
 75
     0
  1
AcDbOsnapPointRef
 72
     2
331
99C
 73
     2
 91
        0
 40
0.5
 10
401.2731269707058
 20
764.6008474951607
 30
0.0
 75
     0
  0
DIMASSOC
  5
D62
102
{ACAD_REACTORS
330
D58
102
}
330
D58
100
AcDbDimAssoc
330
D4B
 90
        3
 70
     0
 71
     0
  1
AcDbOsnapPointRef
 72
     1
331
933
 73
     2
 91
        0
 40
1.0
 10
1043.073126970705
 20
385.8667035949106
 30
0.0
 75
     0
  1
AcDbOsnapPointRef
 72
     1
331
98B
 73
     2
 91
        0
 40
1.0
 10
1064.573126970705
 20
513.7667035949106
 30
0.0
 75
     0
  0
DIMASSOC
  5
D7E
102
{ACAD_REACTORS
330
D72
102
}
330
D72
100
AcDbDimAssoc
330
D63
 90
        3
 70
     0
 71
     0
  1
AcDbOsnapPointRef
 72
     1
331
933
 73
     2
 91
        0
 40
1.0
 10
1043.073126970705
 20
385.8667035949106
 30
0.0
 75
     0
  1
AcDbOsnapPointRef
 72
    13
331
91A
 73
     2
 91
        0
 40
4.712388980384689
 10
1052.873126970705
 20
414.8667035949105
 30
0.0
 75
     0
  0
DIMASSOC
  5
D96
102
{ACAD_REACTORS
330
D8C
102
}
330
D8C
100
AcDbDimAssoc
330
D7F
 90
        3
 70
     0
 71
     0
  1
AcDbOsnapPointRef
 72
    13
331
91A
 73
     2
 91
        0
 40
4.712388980384689
 10
1052.873126970705
 20
414.8667035949105
 30
0.0
 75
     0
  1
AcDbOsnapPointRef
 72
     1
331
98B
 73
     2
 91
        0
 40
1.0
 10
1064.573126970705
 20
513.7667035949106
 30
0.0
 75
     0
  0
DIMASSOC
  5
E7A
102
{ACAD_REACTORS
330
E70
102
}
330
E70
100
AcDbDimAssoc
330
E63
 90
        3
 70
     0
 71
     0
  1
AcDbOsnapPointRef
 72
     1
331
B51
 73
     2
 91
        0
 40
3.141592653589793
 10
1411.958968534706
 20
502.2667035949107
 30
0.0
 75
     0
  1
AcDbOsnapPointRef
 72
    13
331
B4F
 73
     2
 91
        0
 40
0.0
 10
1801.958968534705
 20
502.2667035949107
 30
0.0
 75
     0
  0
DIMASSOC
  5
E92
102
{ACAD_REACTORS
330
E88
102
}
330
E88
100
AcDbDimAssoc
330
E7B
 90
        3
 70
     0
 71
     0
  1
AcDbOsnapPointRef
 72
     2
331
B38
 73
     2
 91
        0
 40
0.5
 10
1456.958968534705
 20
390.8667035949106
 30
0.0
 75
     0
  1
AcDbOsnapPointRef
 72
     2
331
B14
 73
     2
 91
        0
 40
0.5
 10
1756.958968534705
 20
390.8667035949106
 30
0.0
 75
     0
  0
DIMASSOC
  5
EAA
102
{ACAD_REACTORS
330
EA0
102
}
330
EA0
100
AcDbDimAssoc
330
E93
 90
        3
 70
     0
 71
     0
  1
AcDbOsnapPointRef
 72
     2
331
B53
 73
     2
 91
        0
 40
0.5
 10
1586.958968534706
 20
782.0667035949107
 30
0.0
 75
     0
  1
AcDbOsnapPointRef
 72
     2
331
B52
 73
     2
 91
        0
 40
0.5
 10
1626.958968534706
 20
782.0667035949107
 30
0.0
 75
     0
  0
GROUP
  5
EBA
102
{ACAD_REACTORS
330
1A
102
}
330
1A
100
AcDbGroup
300

 70
     1
 71
     1
340
993
340
98B
340
956
340
953
340
94B
340
94A
340
910
340
99D
340
99C
340
99F
340
99E
340
997
340
992
340
990
340
9A2
340
994
340
96A
340
965
340
95D
340
976
340
9A0
340
98C
340
96D
340
9B5
340
9AE
340
9A3
340
977
340
975
340
974
340
973
340
972
340
971
340
970
340
9A1
340
966
340
958
340
969
340
95C
340
967
340
95E
340
968
340
978
340
962
340
960
340
97A
340
9B3
340
97B
340
96B
340
95A
340
92E
340
912
340
963
340
95B
340
96C
340
911
340
930
340
92F
340
92D
340
92C
340
92B
340
929
340
98A
340
989
340
988
340
987
340
986
340
985
340
984
340
983
340
982
340
981
340
980
340
97F
340
97E
340
97D
340
97C
340
96F
340
961
340
964
340
95F
340
931
340
92A
340
979
340
96E
340
9B1
340
998
340
951
340
950
340
94F
340
94E
340
94C
340
943
340
945
340
941
340
933
340
944
340
939
340
937
340
93D
340
93B
340
947
340
948
340
940
340
938
340
946
340
934
340
921
340
93F
340
936
340
927
340
925
340
924
340
920
340
91E
340
93E
340
93A
340
928
340
926
340
923
340
922
340
91F
340
91D
340
91C
340
DDE
340
DC3
340
A6A
340
A68
340
A5F
340
A53
340
A49
340
A2F
340
A27
340
A11
340
9C6
340
9B7
340
9AC
340
9AB
340
9A8
340
9A7
340
A85
340
A6C
340
A6B
340
9F0
340
9D7
340
9D0
340
9F5
340
A01
340
9F4
340
9F9
340
9FA
340
9EF
340
9D1
340
A00
340
A03
340
9ED
340
9E6
340
9E4
340
9E3
340
9E2
340
9E1
340
A55
340
A50
340
9C7
340
9C3
340
A91
340
A8F
340
A8D
340
A8B
340
A04
340
A02
340
9FF
340
9FD
340
9FC
340
9FB
340
9EE
340
9EC
340
9EB
340
9E9
340
9E8
340
9E7
340
9E5
340
9E0
340
9DF
340
9DE
340
9DD
340
9DC
340
9DB
340
9D6
340
DE5
340
9CF
340
DDF
340
DDD
340
DDC
340
9D5
340
9BC
340
9A9
340
9A5
340
AC6
340
ABF
340
ABB
340
AA7
340
AA5
340
A92
340
A3E
340
A3B
340
A2E
340
A2D
340
AC0
340
ABE
340
ABD
340
AA6
340
AC5
340
AC3
340
AC2
340
ABA
340
AB9
340
AB6
340
AAC
340
AAB
340
AC8
340
AC7
340
AC4
340
ABC
340
A40
340
A6D
340
AC1
340
A9F
340
A69
340
A67
340
ACA
340
AA1
340
A9B
340
A97
340
A96
340
A95
340
A94
340
A93
340
A76
340
A65
340
A64
340
A6E
340
ACB
340
AC9
340
AA9
340
AA0
340
A9C
340
A9A
340
A89
340
A7B
340
A73
340
A71
340
A66
340
A62
340
A4D
340
A81
340
A26
340
A1F
340
A1A
340
A17
340
A10
340
A08
340
E1C
340
E12
340
E07
340
DFA
340
DF1
340
DED
340
DF0
340
DEC
340
E32
340
E31
340
E30
340
E1D
340
E1B
340
E1A
340
E15
340
E13
340
E11
340
E10
340
E0F
340
E0E
340
E0D
340
E08
340
E01
340
DF2
340
DFF
340
DFD
340
DFC
340
DF7
340
DF5
340
DF4
340
DEB
340
DEA
340
DE9
340
E40
340
E3D
340
E2C
340
E2B
340
E22
340
E20
340
E0A
340
DF3
340
DEF
340
A8A
340
E2A
340
E29
340
E28
340
E25
340
E04
340
E26
340
E17
340
DB6
340
9B6
340
DC0
340
DBA
340
DB9
340
DBD
340
DAB
340
DAA
340
9D2
340
DC1
340
DBF
340
DBE
340
DB3
340
DB2
340
E03
340
E39
340
E36
340
E34
340
E18
340
DB8
340
DB5
340
E27
340
DE6
340
DDB
340
DCB
340
DC7
340
DBB
340
9CC
340
DBC
340
DDA
340
9D4
340
9B8
340
9AD
340
9A4
340
A8C
340
A90
340
DE7
340
DE4
340
DD8
340
DD1
340
DD0
340
DCF
340
DCE
340
DCD
340
DCC
340
DC9
340
A8E
340
A83
340
A54
340
9C8
340
9C5
340
E35
340
E33
340
E16
340
E38
340
E37
340
E19
340
DE8
340
DE3
340
DE2
340
DE1
340
DE0
340
DD9
340
DD7
340
DD6
340
DD4
340
DD3
340
DD2
340
DCA
340
DC8
340
DC6
340
DC2
340
DB7
340
DB4
340
E2F
340
E23
340
E09
340
E24
340
E3E
340
E2E
340
E2D
340
E21
340
E1E
340
E14
340
E06
340
E05
340
E00
340
DF8
340
DF6
340
DFB
340
DF9
340
E3B
340
A30
340
A6F
340
E41
340
E3F
340
E1F
340
A79
340
A60
340
A29
340
A82
340
A7A
340
A78
340
A48
340
A46
340
A45
340
A42
340
A39
340
A2A
340
A05
340
A33
340
A32
340
A31
340
A22
340
A20
340
A1E
340
A0F
340
A0E
340
E5B
340
E59
340
E52
340
E4C
340
E48
340
E3C
340
E60
340
E5F
340
E5E
340
E5D
340
E5C
340
E5A
340
E58
340
E57
340
E56
340
E55
340
E54
340
E53
340
E50
340
E4F
340
E4E
340
E4D
340
E4A
340
E49
340
E47
340
E46
340
E45
340
E44
340
E43
340
E42
340
E3A
340
E51
340
E4B
340
E0C
340
E0B
340
E02
340
DFE
340
DEE
340
98E
340
952
340
94D
340
955
340
942
340
98D
340
914
340
954
340
949
340
93C
340
91A
  0
GROUP
  5
EBB
102
{ACAD_REACTORS
330
1A
102
}
330
1A
100
AcDbGroup
300

 70
     1
 71
     1
340
B53
340
B52
340
B4D
340
B46
340
AD1
340
B51
340
B3E
340
B35
340
B34
340
B33
340
B32
340
B31
340
B30
340
B2E
340
B38
340
B1B
340
B3A
340
B3C
340
B27
340
B21
340
B1F
340
B2F
340
B37
340
B25
340
B23
340
B28
340
B3D
340
B29
340
B1D
340
AEA
340
B41
340
B4A
340
ACE
340
B39
340
B2B
340
B2A
340
B26
340
B20
340
ACD
340
B1E
340
AF5
340
AF4
340
AF2
340
AF0
340
AED
340
AE9
340
AE8
340
AE7
340
AE6
340
B2D
340
B36
340
B22
340
AF6
340
AF3
340
AF1
340
AEF
340
AEE
340
AEC
340
AEB
340
B3B
340
B2C
340
B24
340
AD5
340
B90
340
B8F
340
B8E
340
B8D
340
B87
340
B86
340
B8B
340
B85
340
B5A
340
B57
340
B8C
340
B59
340
B58
340
B89
340
B8A
340
B88
340
AD6
340
B47
340
B56
340
B55
340
B4F
340
B1A
340
B11
340
B10
340
B0F
340
B0E
340
B0D
340
B0C
340
AFA
340
B0B
340
B16
340
AFE
340
AF7
340
B09
340
B18
340
B03
340
B01
340
B13
340
B14
340
B07
340
B05
340
B0A
340
B4C
340
B06
340
AF9
340
B19
340
B15
340
AFF
340
B02
340
AFD
340
B08
340
AFC
340
B00
340
AD2
340
B12
340
AFB
340
AE5
340
AE4
340
AE3
340
AE2
340
AE1
340
AE0
340
ADF
340
ADE
340
ADD
340
ADC
340
ADB
340
ADA
340
B04
340
AD9
340
B42
340
B17
340
AF8
340
B48
340
CAC
340
CA2
340
C72
340
C5C
340
C51
340
C29
340
C22
340
C0D
340
C00
340
BF7
340
BF3
340
BEF
340
BE9
340
BDD
340
BD1
340
CA7
340
CA5
340
C9F
340
C9B
340
C94
340
C4F
340
C2D
340
C0B
340
BFE
340
C78
340
C8E
340
C90
340
C50
340
C4C
340
C8F
340
C1D
340
C45
340
C20
340
C49
340
C36
340
C76
340
C73
340
C6F
340
C5E
340
C38
340
C2E
340
C13
340
BFD
340
BDC
340
BD2
340
C2B
340
C28
340
C1F
340
C19
340
C0F
340
C04
340
BDF
340
BD0
340
CAF
340
CAB
340
CA9
340
CA8
340
CA3
340
CA1
340
CA0
340
C9A
340
C99
340
C98
340
C96
340
C93
340
BF6
340
BF5
340
BF4
340
BE8
340
BE6
340
BE5
340
BDE
340
BA1
340
B96
340
BB1
340
B74
340
B72
340
B6A
340
B5E
340
B5D
340
B71
340
B70
340
B75
340
B6D
340
BBD
340
BB7
340
BC1
340
BBF
340
BB4
340
BBC
340
BB6
340
B95
340
BAB
340
B99
340
B6C
340
B6B
340
BB3
340
BA8
340
B76
340
B73
340
B6F
340
B6E
340
B68
340
B67
340
BA5
340
BA0
340
B9B
340
B82
340
B81
340
B79
340
BBB
340
BB9
340
B7B
340
BC0
340
BBE
340
BB5
340
B83
340
B7C
340
B7A
340
BBA
340
BB8
340
B94
340
B5C
340
B5B
340
B97
340
BAD
340
B80
340
B84
340
B78
340
B66
340
B65
340
B63
340
BAC
340
B91
340
B7F
340
B7E
340
B7D
340
BA3
340
BA2
340
C31
340
C2C
340
C70
340
BFF
340
C4B
340
CA6
340
CA4
340
C9E
340
C9D
340
C9C
340
C95
340
C5F
340
C30
340
C7A
340
C79
340
C3E
340
C1C
340
C85
340
C77
340
C8C
340
C8A
340
C62
340
E61
340
C8D
340
C8B
340
C81
340
C75
340
C74
340
C71
340
C61
340
C5D
340
C5B
340
C35
340
C2F
340
C25
340
C2A
340
CAE
340
CAD
340
C92
340
C91
340
C27
340
C23
340
C0E
340
C0C
340
C07
340
C01
340
BFC
340
BF9
340
BF8
340
BF2
340
BEC
340
BEB
340
BEA
340
BE3
340
BE2
340
BDB
340
BDA
340
BD8
  0
LAYOUT
  5
7FC
102
{ACAD_REACTORS
330
5BF
102
}
330
5BF
100
AcDbPlotSettings
  1

  2
RICOH IPSiO NX710
  4

  6

 40
0.0
 41
0.0
 42
0.0
 43
0.0
 44
0.0
 45
0.0
 46
0.0
 47
0.0
 48
0.0
 49
0.0
140
0.0
141
0.0
142
1.0
143
1.0
 70
  1712
 72
     0
 73
     0
 74
     0
  7
monochrome.ctb
 75
     0
147
1.0
148
0.0
149
0.0
100
AcDbLayout
  1
Model
 70
     1
 71
     0
 10
0.0
 20
0.0
 11
12.0
 21
9.0
 12
0.0
 22
0.0
 32
0.0
 14
0.0
 24
0.0
 34
0.0
 15
0.0
 25
0.0
 35
0.0
146
0.0
 13
0.0
 23
0.0
 33
0.0
 16
1.0
 26
0.0
 36
0.0
 17
0.0
 27
1.0
 37
0.0
 76
     0
330
A
  0
LAYOUT
  5
7FD
102
{ACAD_REACTORS
330
5BF
102
}
330
5BF
100
AcDbPlotSettings
  1

  2
Acrobat Distiller
  4
A3
  6

 40
3.174999952316284
 41
3.174999952316284
 42
3.17498779296875
 43
3.17498779296875
 44
297.0318298339843
 45
420.1583251953125
 46
0.0
 47
0.0
 48
0.0
 49
0.0
140
0.0
141
0.0
142
1.0
143
1.0
 70
   688
 72
     1
 73
     1
 74
     5
  7
monochrome.ctb
 75
    16
147
1.0
148
-4.44140861548135
149
-1.665546311652519
100
AcDbLayout
  1
ﾚｲｱｳﾄ1
 70
     1
 71
     1
 10
1.2664208225126
 20
-1.509453640663764
 11
421.4247460178251
 21
295.5223761933206
 12
0.0
 22
0.0
 32
0.0
 14
6.444691369778638
 24
3.68587362179042
 34
0.0
 15
412.7347162342592
 25
290.0824107404497
 35
0.0
146
0.0
 13
0.0
 23
0.0
 33
0.0
 16
1.0
 26
0.0
 36
0.0
 17
0.0
 27
1.0
 37
0.0
 76
     0
330
6F0
331
7CD
  0
MLINESTYLE
  5
1C
102
{ACAD_REACTORS
330
1B
102
}
330
1B
100
AcDbMlineStyle
  2
STANDARD
 70
     0
  3

 62
     0
 51
90.0
 52
90.0
 71
     2
 49
0.5
 62
   256
  6
BYLAYER
 49
-0.5
 62
   256
  6
BYLAYER
  0
ACDBPLACEHOLDER
  5
5BC
102
{ACAD_REACTORS
330
5BB
102
}
330
5BB
  0
DICTIONARYVAR
  5
5B7
330
5B6
100
DictionaryVariables
280
     0
  1
2
  0
DICTIONARYVAR
  5
6BF
102
{ACAD_REACTORS
330
5B6
102
}
330
5B6
100
DictionaryVariables
280
     0
  1

  0
ENDSEC
  0
EOF
