  0
SECTION
  2
HEADER
  9
$ACADVER
  1
AC1015
  9
$ACADMAINTVER
 70
    13
  9
$DWGCODEPAGE
  3
ANSI_932
  9
$INSBASE
 10
0.0
 20
0.0
 30
0.0
  9
$EXTMIN
 10
0.0
 20
-0.0000000000000535
 30
0.0
  9
$EXTMAX
 10
2100.0
 20
1485.0
 30
0.0
  9
$LIMMIN
 10
0.0
 20
0.0
  9
$LIMMAX
 10
420.0
 20
297.0
  9
$ORTHOMODE
 70
     0
  9
$REGENMODE
 70
     1
  9
$FILLMODE
 70
     1
  9
$QTEXTMODE
 70
     0
  9
$MIRRTEXT
 70
     1
  9
$LTSCALE
 40
1.0
  9
$ATTMODE
 70
     1
  9
$TEXTSIZE
 40
0.2
  9
$TRACEWID
 40
0.05
  9
$TEXTSTYLE
  7
STANDARD
  9
$CLAYER
  8
MEASURE
  9
$CELTYPE
  6
HIDDEN2
  9
$CECOLOR
 62
   256
  9
$CELTSCALE
 40
1.0
  9
$DISPSILH
 70
     0
  9
$DIMSCALE
 40
5.0
  9
$DIMASZ
 40
2.5
  9
$DIMEXO
 40
1.0
  9
$DIMDLI
 40
0.38
  9
$DIMRND
 40
0.0
  9
$DIMDLE
 40
0.0
  9
$DIMEXE
 40
2.0
  9
$DIMTP
 40
0.0
  9
$DIMTM
 40
0.0
  9
$DIMTXT
 40
3.5
  9
$DIMCEN
 40
-2.0
  9
$DIMTSZ
 40
0.0
  9
$DIMTOL
 70
     0
  9
$DIMLIM
 70
     0
  9
$DIMTIH
 70
     0
  9
$DIMTOH
 70
     0
  9
$DIMSE1
 70
     0
  9
$DIMSE2
 70
     0
  9
$DIMTAD
 70
     1
  9
$DIMZIN
 70
     8
  9
$DIMBLK
  1

  9
$DIMASO
 70
     1
  9
$DIMSHO
 70
     1
  9
$DIMPOST
  1

  9
$DIMAPOST
  1

  9
$DIMALT
 70
     0
  9
$DIMALTD
 70
     2
  9
$DIMALTF
 40
25.4
  9
$DIMLFAC
 40
1.0
  9
$DIMTOFL
 70
     1
  9
$DIMTVP
 40
0.0
  9
$DIMTIX
 70
     0
  9
$DIMSOXD
 70
     0
  9
$DIMSAH
 70
     0
  9
$DIMBLK1
  1

  9
$DIMBLK2
  1

  9
$DIMSTYLE
  2
AD-STANDARD
  9
$DIMCLRD
 70
     9
  9
$DIMCLRE
 70
     9
  9
$DIMCLRT
 70
     2
  9
$DIMTFAC
 40
1.0
  9
$DIMGAP
 40
0.5
  9
$DIMJUST
 70
     0
  9
$DIMSD1
 70
     0
  9
$DIMSD2
 70
     0
  9
$DIMTOLJ
 70
     1
  9
$DIMTZIN
 70
     8
  9
$DIMALTZ
 70
     0
  9
$DIMALTTZ
 70
     0
  9
$DIMUPT
 70
     0
  9
$DIMDEC
 70
     4
  9
$DIMTDEC
 70
     4
  9
$DIMALTU
 70
     2
  9
$DIMALTTD
 70
     2
  9
$DIMTXSTY
  7
AD-STANDARD
  9
$DIMAUNIT
 70
     0
  9
$DIMADEC
 70
     0
  9
$DIMALTRND
 40
0.0
  9
$DIMAZIN
 70
     0
  9
$DIMDSEP
 70
    46
  9
$DIMATFIT
 70
     3
  9
$DIMFRAC
 70
     0
  9
$DIMLDRBLK
  1

  9
$DIMLUNIT
 70
     2
  9
$DIMLWD
 70
    -2
  9
$DIMLWE
 70
    -2
  9
$DIMTMOVE
 70
     0
  9
$LUNITS
 70
     2
  9
$LUPREC
 70
     4
  9
$SKETCHINC
 40
0.1
  9
$FILLETRAD
 40
0.5
  9
$AUNITS
 70
     0
  9
$AUPREC
 70
     0
  9
$MENU
  1
.
  9
$ELEVATION
 40
0.0
  9
$PELEVATION
 40
0.0
  9
$THICKNESS
 40
0.0
  9
$LIMCHECK
 70
     0
  9
$CHAMFERA
 40
0.5
  9
$CHAMFERB
 40
0.5
  9
$CHAMFERC
 40
1.0
  9
$CHAMFERD
 40
0.0
  9
$SKPOLY
 70
     0
  9
$TDCREATE
 40
2453714.041680659
  9
$TDUCREATE
 40
2453713.666680659
  9
$TDUPDATE
 40
2454280.712493136
  9
$TDUUPDATE
 40
2454280.337493136
  9
$TDINDWG
 40
0.0452108102
  9
$TDUSRTIMER
 40
0.0452106250
  9
$USRTIMER
 70
     1
  9
$ANGBASE
 50
0.0
  9
$ANGDIR
 70
     0
  9
$PDMODE
 70
     0
  9
$PDSIZE
 40
0.0
  9
$PLINEWID
 40
0.0
  9
$SPLFRAME
 70
     0
  9
$SPLINETYPE
 70
     6
  9
$SPLINESEGS
 70
     8
  9
$HANDSEED
  5
F08
  9
$SURFTAB1
 70
     6
  9
$SURFTAB2
 70
     6
  9
$SURFTYPE
 70
     6
  9
$SURFU
 70
     6
  9
$SURFV
 70
     6
  9
$UCSBASE
  2

  9
$UCSNAME
  2

  9
$UCSORG
 10
0.0
 20
0.0
 30
0.0
  9
$UCSXDIR
 10
1.0
 20
0.0
 30
0.0
  9
$UCSYDIR
 10
0.0
 20
1.0
 30
0.0
  9
$UCSORTHOREF
  2

  9
$UCSORTHOVIEW
 70
     0
  9
$UCSORGTOP
 10
0.0
 20
0.0
 30
0.0
  9
$UCSORGBOTTOM
 10
0.0
 20
0.0
 30
0.0
  9
$UCSORGLEFT
 10
0.0
 20
0.0
 30
0.0
  9
$UCSORGRIGHT
 10
0.0
 20
0.0
 30
0.0
  9
$UCSORGFRONT
 10
0.0
 20
0.0
 30
0.0
  9
$UCSORGBACK
 10
0.0
 20
0.0
 30
0.0
  9
$PUCSBASE
  2

  9
$PUCSNAME
  2

  9
$PUCSORG
 10
0.0
 20
0.0
 30
0.0
  9
$PUCSXDIR
 10
1.0
 20
0.0
 30
0.0
  9
$PUCSYDIR
 10
0.0
 20
1.0
 30
0.0
  9
$PUCSORTHOREF
  2

  9
$PUCSORTHOVIEW
 70
     0
  9
$PUCSORGTOP
 10
0.0
 20
0.0
 30
0.0
  9
$PUCSORGBOTTOM
 10
0.0
 20
0.0
 30
0.0
  9
$PUCSORGLEFT
 10
0.0
 20
0.0
 30
0.0
  9
$PUCSORGRIGHT
 10
0.0
 20
0.0
 30
0.0
  9
$PUCSORGFRONT
 10
0.0
 20
0.0
 30
0.0
  9
$PUCSORGBACK
 10
0.0
 20
0.0
 30
0.0
  9
$USERI1
 70
     0
  9
$USERI2
 70
     0
  9
$USERI3
 70
     0
  9
$USERI4
 70
     0
  9
$USERI5
 70
     0
  9
$USERR1
 40
0.0
  9
$USERR2
 40
0.0
  9
$USERR3
 40
0.0
  9
$USERR4
 40
0.0
  9
$USERR5
 40
0.0
  9
$WORLDVIEW
 70
     1
  9
$SHADEDGE
 70
     3
  9
$SHADEDIF
 70
    70
  9
$TILEMODE
 70
     0
  9
$MAXACTVP
 70
    64
  9
$PINSBASE
 10
0.0
 20
0.0
 30
0.0
  9
$PLIMCHECK
 70
     0
  9
$PEXTMIN
 10
79.82917251971364
 20
56.83890062561878
 30
0.0
  9
$PEXTMAX
 10
487.9472740808733
 20
342.7786649310084
 30
0.0
  9
$PLIMMIN
 10
74.62573426897472
 20
51.21764325650174
  9
$PLIMMAX
 10
494.7840594642872
 20
348.2494730904861
  9
$UNITMODE
 70
     0
  9
$VISRETAIN
 70
     1
  9
$PLINEGEN
 70
     0
  9
$PSLTSCALE
 70
     1
  9
$TREEDEPTH
 70
  3020
  9
$CMLSTYLE
  2
STANDARD
  9
$CMLJUST
 70
     0
  9
$CMLSCALE
 40
1.0
  9
$PROXYGRAPHICS
 70
     1
  9
$MEASUREMENT
 70
     1
  9
$CELWEIGHT
370
    -1
  9
$ENDCAPS
280
     0
  9
$JOINSTYLE
280
     0
  9
$LWDISPLAY
290
     0
  9
$INSUNITS
 70
     1
  9
$HYPERLINKBASE
  1

  9
$STYLESHEET
  1

  9
$XEDIT
290
     1
  9
$CEPSNTYPE
380
     0
  9
$PSTYLEMODE
290
     1
  9
$FINGERPRINTGUID
  2
{FAEB1C30-E019-11D5-929B-00C0DF256EC4}
  9
$VERSIONGUID
  2
{094470A8-E463-477C-BEE3-C65D7BDFE5F5}
  9
$EXTNAMES
290
     1
  9
$PSVPSCALE
 40
0.0
  9
$OLESTARTUP
290
     0
  0
ENDSEC
  0
SECTION
  2
CLASSES
  0
CLASS
  1
ACDBDICTIONARYWDFLT
  2
AcDbDictionaryWithDefault
  3
AutoCAD 2000
 90
        0
280
     0
281
     0
  0
CLASS
  1
TABLESTYLE
  2
AcDbTableStyle
  3
ObjectDBX Classes
 90
     2047
280
     0
281
     0
  0
CLASS
  1
DICTIONARYVAR
  2
AcDbDictionaryVar
  3
AutoCAD 2000
 90
        0
280
     0
281
     0
  0
CLASS
  1
SPATIAL_FILTER
  2
AcDbSpatialFilter
  3
AutoCAD 2000
 90
        0
280
     0
281
     0
  0
CLASS
  1
ACDBPLACEHOLDER
  2
AcDbPlaceHolder
  3
AutoCAD 2000
 90
        0
280
     0
281
     0
  0
CLASS
  1
LAYOUT
  2
AcDbLayout
  3
AutoCAD 2000
 90
        0
280
     0
281
     0
  0
CLASS
  1
ACAD_PROXY_OBJECT_WRAPPER
  2
AcDbProxyObjectWrapper
  3
AutoCAD 2000
 90
    32768
280
     0
281
     0
  0
CLASS
  1
LONG_TRANSACTION
  2
AcDbLongTransaction
  3
AutoCAD 2000
 90
    32768
280
     0
281
     0
  0
CLASS
  1
LWPOLYLINE
  2
AcDbPolyline
  3
AutoCAD 2000
 90
    32768
280
     0
281
     1
  0
CLASS
  1
HATCH
  2
AcDbHatch
  3
AutoCAD 2000
 90
    32768
280
     0
281
     1
  0
CLASS
  1
XRECORD
  2
AcDbXrecord
  3
AutoCAD 2000
 90
    32768
280
     0
281
     0
  0
ENDSEC
  0
SECTION
  2
TABLES
  0
TABLE
  2
VPORT
  5
8
330
0
100
AcDbSymbolTable
 70
     5
  0
VPORT
  5
F07
330
8
100
AcDbSymbolTableRecord
100
AcDbViewportTableRecord
  2
*Active
 70
     0
 10
0.0
 20
0.0
 11
1.0
 21
1.0
 12
1104.420017338749
 22
842.4752788223361
 13
0.0
 23
0.0
 14
0.5
 24
0.5
 15
0.5
 25
0.5
 16
0.0
 26
0.0
 36
1.0
 17
0.0
 27
0.0
 37
0.0
 40
1994.246364978651
 41
1.21859296482412
 42
50.0
 43
0.0
 44
0.0
 50
0.0
 51
0.0
 71
     0
 72
   100
 73
     1
 74
     3
 75
     0
 76
     0
 77
     0
 78
     0
281
     0
 65
     1
110
0.0
120
0.0
130
0.0
111
1.0
121
0.0
131
0.0
112
0.0
122
1.0
132
0.0
 79
     0
146
0.0
  0
ENDTAB
  0
TABLE
  2
LTYPE
  5
5
330
0
100
AcDbSymbolTable
 70
     6
  0
LTYPE
  5
14
330
5
100
AcDbSymbolTableRecord
100
AcDbLinetypeTableRecord
  2
BYBLOCK
 70
     0
  3

 72
    65
 73
     0
 40
0.0
  0
LTYPE
  5
15
330
5
100
AcDbSymbolTableRecord
100
AcDbLinetypeTableRecord
  2
BYLAYER
 70
     0
  3

 72
    65
 73
     0
 40
0.0
  0
LTYPE
  5
16
330
5
100
AcDbSymbolTableRecord
100
AcDbLinetypeTableRecord
  2
CONTINUOUS
 70
     0
  3
Solid line
 72
    65
 73
     0
 40
0.0
  0
LTYPE
  5
53B
330
5
100
AcDbSymbolTableRecord
100
AcDbLinetypeTableRecord
  2
HIDDEN2
 70
     0
  3
_ _ _ _ _ _ _ _ _ _ _ _ _ _ _ _ _ _ _ _ _ _ _ _
 72
    65
 73
     2
 40
0.1875
 49
0.125
 74
     4
 75
     0
340
0
 46
0.0
 50
0.0
 44
0.0
 45
0.0
 49
-0.0625
 74
     4
 75
     0
340
0
 46
0.0
 50
0.0
 44
0.0
 45
0.0
  0
LTYPE
  5
F06
330
5
100
AcDbSymbolTableRecord
100
AcDbLinetypeTableRecord
  2
HIDDEN
 70
     0
  3
Hidden __ __ __ __ __ __ __ __ __ __ __ __ __ _
 72
    65
 73
     2
 40
9.524999999999998
 49
6.349999999999999
 74
     0
 49
-3.174999999999999
 74
     0
  0
ENDTAB
  0
TABLE
  2
LAYER
  5
2
102
{ACAD_XDICTIONARY
360
8B6
102
}
330
0
100
AcDbSymbolTable
 70
    10
  0
LAYER
  5
10
330
2
100
AcDbSymbolTableRecord
100
AcDbLayerTableRecord
  2
0
 70
     0
 62
     7
  6
CONTINUOUS
370
    -3
390
F
  0
LAYER
  5
680
330
2
100
AcDbSymbolTableRecord
100
AcDbLayerTableRecord
  2
DEFPOINTS
 70
     0
 62
     7
  6
CONTINUOUS
290
     0
370
    -3
390
F
  0
LAYER
  5
8B1
330
2
100
AcDbSymbolTableRecord
100
AcDbLayerTableRecord
  2
MEASURE
 70
     0
 62
     9
  6
CONTINUOUS
370
    -3
390
F
  0
LAYER
  5
8B2
330
2
100
AcDbSymbolTableRecord
100
AcDbLayerTableRecord
  2
NOTE
 70
     0
 62
     2
  6
CONTINUOUS
370
    -3
390
F
  0
LAYER
  5
E46
330
2
100
AcDbSymbolTableRecord
100
AcDbLayerTableRecord
  2
1
 70
     0
 62
     7
  6
CONTINUOUS
370
    -3
390
F
  0
ENDTAB
  0
TABLE
  2
STYLE
  5
3
330
0
100
AcDbSymbolTable
 70
     4
  0
STYLE
  5
11
330
3
100
AcDbSymbolTableRecord
100
AcDbTextStyleTableRecord
  2
STANDARD
 70
     0
 40
0.0
 41
1.0
 50
0.0
 71
     0
 42
0.2
  3
txt
  4

  0
STYLE
  5
8B3
330
3
100
AcDbSymbolTableRecord
100
AcDbTextStyleTableRecord
  2
AD-STANDARD
 70
     0
 40
0.0
 41
0.8
 50
0.0
 71
     0
 42
2.5
  3
C:\Program Files\AutoCAD LT\romans.shx
  4
bigfont.shx
  0
ENDTAB
  0
TABLE
  2
VIEW
  5
6
330
0
100
AcDbSymbolTable
 70
     0
  0
ENDTAB
  0
TABLE
  2
UCS
  5
7
330
0
100
AcDbSymbolTable
 70
     0
  0
ENDTAB
  0
TABLE
  2
APPID
  5
9
330
0
100
AcDbSymbolTable
 70
     2
  0
APPID
  5
12
330
9
100
AcDbSymbolTableRecord
100
AcDbRegAppTableRecord
  2
ACAD
 70
     0
  0
APPID
  5
8B5
330
9
100
AcDbSymbolTableRecord
100
AcDbRegAppTableRecord
  2
ACAD_PSEXT
 70
     0
  0
ENDTAB
  0
TABLE
  2
DIMSTYLE
  5
A
330
0
100
AcDbSymbolTable
 70
     3
100
AcDbDimStyleTable
 71
     1
340
8B4
  0
DIMSTYLE
105
27
330
A
100
AcDbSymbolTableRecord
100
AcDbDimStyleTableRecord
  2
STANDARD
 70
     0
340
11
  0
DIMSTYLE
105
8B4
102
{ACAD_REACTORS
330
8B9
330
8EF
330
B1D
330
B39
330
B58
330
B6F
330
B7E
330
B94
330
BA2
330
BAF
330
E0F
330
E1C
330
E38
102
}
330
A
100
AcDbSymbolTableRecord
100
AcDbDimStyleTableRecord
  2
AD-STANDARD
 70
     0
 41
2.5
 42
1.0
 44
2.0
 73
     0
 74
     0
 77
     1
 78
     8
140
3.5
141
-2.0
147
0.5
172
     1
176
     9
177
     9
178
     2
284
     8
340
8B3
  0
ENDTAB
  0
TABLE
  2
BLOCK_RECORD
  5
1
330
0
100
AcDbSymbolTable
 70
    45
  0
BLOCK_RECORD
  5
1F
102
{ACAD_XDICTIONARY
360
7B9
102
}
330
1
100
AcDbSymbolTableRecord
100
AcDbBlockTableRecord
  2
*MODEL_SPACE
340
7C3
  0
BLOCK_RECORD
  5
78E
102
{ACAD_XDICTIONARY
360
7BB
102
}
330
1
100
AcDbSymbolTableRecord
100
AcDbBlockTableRecord
  2
*PAPER_SPACE
340
7C4
  0
BLOCK_RECORD
  5
8F0
330
1
100
AcDbSymbolTableRecord
100
AcDbBlockTableRecord
  2
*D33
340
0
  0
BLOCK_RECORD
  5
B1E
330
1
100
AcDbSymbolTableRecord
100
AcDbBlockTableRecord
  2
*D34
340
0
  0
BLOCK_RECORD
  5
B3A
330
1
100
AcDbSymbolTableRecord
100
AcDbBlockTableRecord
  2
*D35
340
0
  0
BLOCK_RECORD
  5
B59
330
1
100
AcDbSymbolTableRecord
100
AcDbBlockTableRecord
  2
*D36
340
0
  0
BLOCK_RECORD
  5
B70
330
1
100
AcDbSymbolTableRecord
100
AcDbBlockTableRecord
  2
*D37
340
0
  0
BLOCK_RECORD
  5
B7F
330
1
100
AcDbSymbolTableRecord
100
AcDbBlockTableRecord
  2
*D38
340
0
  0
BLOCK_RECORD
  5
B95
330
1
100
AcDbSymbolTableRecord
100
AcDbBlockTableRecord
  2
*D39
340
0
  0
BLOCK_RECORD
  5
BA3
330
1
100
AcDbSymbolTableRecord
100
AcDbBlockTableRecord
  2
*D40
340
0
  0
BLOCK_RECORD
  5
BB0
330
1
100
AcDbSymbolTableRecord
100
AcDbBlockTableRecord
  2
*D41
340
0
  0
BLOCK_RECORD
  5
E10
330
1
100
AcDbSymbolTableRecord
100
AcDbBlockTableRecord
  2
*D42
340
0
  0
BLOCK_RECORD
  5
E1D
330
1
100
AcDbSymbolTableRecord
100
AcDbBlockTableRecord
  2
*D43
340
0
  0
BLOCK_RECORD
  5
E39
330
1
100
AcDbSymbolTableRecord
100
AcDbBlockTableRecord
  2
*D44
340
0
  0
ENDTAB
  0
ENDSEC
  0
SECTION
  2
BLOCKS
  0
BLOCK
  5
20
330
1F
100
AcDbEntity
  8
0
100
AcDbBlockBegin
  2
*MODEL_SPACE
 70
     0
 10
0.0
 20
0.0
 30
0.0
  3
*MODEL_SPACE
  1

  0
ENDBLK
  5
21
330
1F
100
AcDbEntity
  8
0
100
AcDbBlockEnd
  0
BLOCK
  5
790
330
78E
100
AcDbEntity
 67
     1
  8
0
 48
25.4
100
AcDbBlockBegin
  2
*PAPER_SPACE
 70
     0
 10
0.0
 20
0.0
 30
0.0
  3
*PAPER_SPACE
  1

  0
ENDBLK
  5
791
330
78E
100
AcDbEntity
 67
     1
  8
0
 48
25.4
100
AcDbBlockEnd
  0
BLOCK
  5
8FA
330
8F0
100
AcDbEntity
  8
0
 48
25.4
100
AcDbBlockBegin
  2
*D33
 70
     1
 10
0.0
 20
0.0
 30
0.0
  3
*D33
  1

  0
LINE
  5
8F1
330
8F0
100
AcDbEntity
  8
MEASURE
 62
     9
 48
25.4
370
    -2
100
AcDbLine
 10
606.2394898228246
 20
523.8358625039134
 30
0.0
 11
606.2394898228246
 21
636.6589248489972
 31
0.0
  0
LINE
  5
8F2
330
8F0
100
AcDbEntity
  8
MEASURE
 62
     9
 48
25.4
370
    -2
100
AcDbLine
 10
986.2394898228243
 20
523.8358625039134
 30
0.0
 11
986.2394898228243
 21
636.6589248489972
 31
0.0
  0
LINE
  5
8F3
330
8F0
100
AcDbEntity
  8
MEASURE
 62
     9
 48
25.4
370
    -2
100
AcDbLine
 10
618.7394898228246
 20
626.6589248489972
 30
0.0
 11
973.7394898228243
 21
626.6589248489972
 31
0.0
  0
SOLID
  5
8F4
330
8F0
100
AcDbEntity
  8
MEASURE
 62
     9
 48
25.4
100
AcDbTrace
 10
618.7394898228246
 20
628.7422581823306
 30
0.0
 11
618.7394898228246
 21
624.5755915156638
 31
0.0
 12
606.2394898228246
 22
626.6589248489972
 32
0.0
 13
606.2394898228246
 23
626.6589248489972
 33
0.0
  0
SOLID
  5
8F5
330
8F0
100
AcDbEntity
  8
MEASURE
 62
     9
 48
25.4
100
AcDbTrace
 10
973.7394898228243
 20
628.7422581823306
 30
0.0
 11
973.7394898228243
 21
624.5755915156638
 31
0.0
 12
986.2394898228243
 22
626.6589248489972
 32
0.0
 13
986.2394898228243
 23
626.6589248489972
 33
0.0
  0
MTEXT
  5
8F6
330
8F0
100
AcDbEntity
  8
MEASURE
 62
     2
 48
25.4
100
AcDbMText
 10
796.2394898228246
 20
637.9089248489972
 30
0.0
 40
17.5
 41
0.0
 71
     5
 72
     1
  1
\A1;380
  7
AD-STANDARD
 73
     1
 44
1.0
  0
POINT
  5
8F7
330
8F0
100
AcDbEntity
  8
DEFPOINTS
 62
     0
 48
25.4
100
AcDbPoint
 10
606.2394898228246
 20
518.8358625039134
 30
0.0
  0
POINT
  5
8F8
330
8F0
100
AcDbEntity
  8
DEFPOINTS
 62
     0
 48
25.4
100
AcDbPoint
 10
986.2394898228243
 20
518.8358625039134
 30
0.0
  0
POINT
  5
8F9
330
8F0
100
AcDbEntity
  8
DEFPOINTS
 62
     0
 48
25.4
100
AcDbPoint
 10
986.2394898228243
 20
626.6589248489972
 30
0.0
  0
ENDBLK
  5
8FB
330
8F0
100
AcDbEntity
  8
0
 48
25.4
100
AcDbBlockEnd
  0
BLOCK
  5
B28
330
B1E
100
AcDbEntity
  8
0
 48
25.4
100
AcDbBlockBegin
  2
*D34
 70
     1
 10
0.0
 20
0.0
 30
0.0
  3
*D34
  1

  0
LINE
  5
B32
330
B1E
100
AcDbEntity
  8
MEASURE
 62
     9
 48
25.4
370
    -2
100
AcDbLine
 10
433.7394898228198
 20
848.1236390777931
 30
0.0
 11
448.7394898228201
 21
848.1236390777931
 31
0.0
  0
SOLID
  5
B33
330
B1E
100
AcDbEntity
  8
MEASURE
 62
     9
 48
25.4
100
AcDbTrace
 10
433.7394898228198
 20
850.2069724111263
 30
0.0
 11
433.7394898228198
 21
846.0403057444597
 31
0.0
 12
421.2394898228198
 22
848.1236390777931
 32
0.0
 13
421.2394898228198
 23
848.1236390777931
 33
0.0
  0
SOLID
  5
B34
330
B1E
100
AcDbEntity
  8
MEASURE
 62
     9
 48
25.4
100
AcDbTrace
 10
448.7394898228201
 20
850.2069724111263
 30
0.0
 11
448.7394898228201
 21
846.0403057444597
 31
0.0
 12
461.2394898228201
 22
848.1236390777931
 32
0.0
 13
461.2394898228201
 23
848.1236390777931
 33
0.0
  0
MTEXT
  5
B35
330
B1E
100
AcDbEntity
  8
MEASURE
 62
     2
 48
25.4
100
AcDbMText
 10
441.23948982282
 20
859.373639077793
 30
0.0
 40
17.5
 41
0.0
 71
     5
 72
     1
  1
\A1;40
  7
AD-STANDARD
 73
     1
 44
1.0
  0
POINT
  5
B36
330
B1E
100
AcDbEntity
  8
DEFPOINTS
 62
     0
 48
25.4
100
AcDbPoint
 10
421.2394898228198
 20
808.8358625039093
 30
0.0
  0
POINT
  5
B37
330
B1E
100
AcDbEntity
  8
DEFPOINTS
 62
     0
 48
25.4
100
AcDbPoint
 10
461.2394898228201
 20
791.3700064041795
 30
0.0
  0
POINT
  5
B38
330
B1E
100
AcDbEntity
  8
DEFPOINTS
 62
     0
 48
25.4
100
AcDbPoint
 10
461.2394898228201
 20
848.1236390777931
 30
0.0
  0
ENDBLK
  5
B29
330
B1E
100
AcDbEntity
  8
0
 48
25.4
100
AcDbBlockEnd
  0
BLOCK
  5
B44
330
B3A
100
AcDbEntity
  8
0
 48
25.4
100
AcDbBlockBegin
  2
*D35
 70
     1
 10
0.0
 20
0.0
 30
0.0
  3
*D35
  1

  0
LINE
  5
B4F
330
B3A
100
AcDbEntity
  8
MEASURE
 62
     9
 48
25.4
370
    -2
100
AcDbLine
 10
427.2394898228248
 20
412.8358625039099
 30
0.0
 11
231.6914659593867
 21
412.8358625039099
 31
0.0
  0
LINE
  5
B50
330
B3A
100
AcDbEntity
  8
MEASURE
 62
     9
 48
25.4
370
    -2
100
AcDbLine
 10
380.5796057025352
 20
1193.679335126222
 30
0.0
 11
231.6914659593869
 21
1193.679335126222
 31
0.0
  0
LINE
  5
B51
330
B3A
100
AcDbEntity
  8
MEASURE
 62
     9
 48
25.4
370
    -2
100
AcDbLine
 10
241.6914659593867
 20
425.3358625039099
 30
0.0
 11
241.6914659593869
 21
1181.179335126222
 31
0.0
  0
SOLID
  5
B52
330
B3A
100
AcDbEntity
  8
MEASURE
 62
     9
 48
25.4
100
AcDbTrace
 10
239.6081326260534
 20
425.3358625039099
 30
0.0
 11
243.7747992927201
 21
425.3358625039099
 31
0.0
 12
241.6914659593867
 22
412.8358625039099
 32
0.0
 13
241.6914659593867
 23
412.8358625039099
 33
0.0
  0
SOLID
  5
B53
330
B3A
100
AcDbEntity
  8
MEASURE
 62
     9
 48
25.4
100
AcDbTrace
 10
239.6081326260536
 20
1181.179335126222
 30
0.0
 11
243.7747992927203
 21
1181.179335126222
 31
0.0
 12
241.6914659593869
 22
1193.679335126222
 32
0.0
 13
241.6914659593869
 23
1193.679335126222
 33
0.0
  0
MTEXT
  5
B54
330
B3A
100
AcDbEntity
  8
MEASURE
 62
     2
 48
25.4
100
AcDbMText
 10
225.8581326260534
 20
803.2575988150664
 30
0.0
 40
17.5
 41
0.0
 71
     5
 72
     1
  1
\A1;(781)
  7
AD-STANDARD
 11
0.0000000000000001
 21
1.0
 31
0.0
 73
     1
 44
1.0
  0
POINT
  5
B55
330
B3A
100
AcDbEntity
  8
DEFPOINTS
 62
     0
 48
25.4
100
AcDbPoint
 10
432.2394898228248
 20
412.8358625039099
 30
0.0
  0
POINT
  5
B56
330
B3A
100
AcDbEntity
  8
DEFPOINTS
 62
     0
 48
25.4
100
AcDbPoint
 10
385.5796057025352
 20
1193.679335126222
 30
0.0
  0
POINT
  5
B57
330
B3A
100
AcDbEntity
  8
DEFPOINTS
 62
     0
 48
25.4
100
AcDbPoint
 10
241.6914659593869
 20
1193.679335126222
 30
0.0
  0
ENDBLK
  5
B45
330
B3A
100
AcDbEntity
  8
0
 48
25.4
100
AcDbBlockEnd
  0
BLOCK
  5
B63
330
B59
100
AcDbEntity
  8
0
 48
25.4
100
AcDbBlockBegin
  2
*D36
 70
     1
 10
0.0
 20
0.0
 30
0.0
  3
*D36
  1

  0
LINE
  5
B66
330
B59
100
AcDbEntity
  8
MEASURE
 62
     9
 48
25.4
370
    -2
100
AcDbLine
 10
979.7394898228244
 20
530.335862503913
 30
0.0
 11
1139.24969361082
 21
530.335862503913
 31
0.0
  0
LINE
  5
B67
330
B59
100
AcDbEntity
  8
MEASURE
 62
     9
 48
25.4
370
    -2
100
AcDbLine
 10
963.2394898228245
 20
412.8358625039162
 30
0.0
 11
1139.249693610819
 21
412.8358625039162
 31
0.0
  0
LINE
  5
B68
330
B59
100
AcDbEntity
  8
MEASURE
 62
     9
 48
25.4
370
    -2
100
AcDbLine
 10
1129.24969361082
 20
517.835862503913
 30
0.0
 11
1129.249693610819
 21
425.3358625039162
 31
0.0
  0
SOLID
  5
B69
330
B59
100
AcDbEntity
  8
MEASURE
 62
     9
 48
25.4
100
AcDbTrace
 10
1127.166360277486
 20
517.835862503913
 30
0.0
 11
1131.333026944153
 21
517.835862503913
 31
0.0
 12
1129.24969361082
 22
530.335862503913
 32
0.0
 13
1129.24969361082
 23
530.335862503913
 33
0.0
  0
SOLID
  5
B6A
330
B59
100
AcDbEntity
  8
MEASURE
 62
     9
 48
25.4
100
AcDbTrace
 10
1127.166360277486
 20
425.3358625039162
 30
0.0
 11
1131.333026944153
 21
425.3358625039162
 31
0.0
 12
1129.249693610819
 22
412.8358625039162
 32
0.0
 13
1129.249693610819
 23
412.8358625039162
 33
0.0
  0
MTEXT
  5
B6B
330
B59
100
AcDbEntity
  8
MEASURE
 62
     2
 48
25.4
100
AcDbMText
 10
1117.999693610819
 20
471.5858625039147
 30
0.0
 40
17.5
 41
0.0
 71
     5
 72
     1
  1
\A1;117
  7
AD-STANDARD
 11
0.0000000000000001
 21
1.0
 31
0.0
 73
     1
 44
1.0
  0
POINT
  5
B6C
330
B59
100
AcDbEntity
  8
DEFPOINTS
 62
     0
 48
25.4
100
AcDbPoint
 10
974.7394898228245
 20
530.335862503913
 30
0.0
  0
POINT
  5
B6D
330
B59
100
AcDbEntity
  8
DEFPOINTS
 62
     0
 48
25.4
100
AcDbPoint
 10
958.2394898228246
 20
412.8358625039162
 30
0.0
  0
POINT
  5
B6E
330
B59
100
AcDbEntity
  8
DEFPOINTS
 62
     0
 48
25.4
100
AcDbPoint
 10
1129.249693610819
 20
412.8358625039162
 30
0.0
  0
ENDBLK
  5
B64
330
B59
100
AcDbEntity
  8
0
 48
25.4
100
AcDbBlockEnd
  0
BLOCK
  5
B7C
330
B70
100
AcDbEntity
  8
0
 48
25.4
100
AcDbBlockBegin
  2
*D37
 70
     1
 10
0.0
 20
0.0
 30
0.0
  3
*D37
  1

  0
LINE
  5
B71
330
B70
100
AcDbEntity
  8
MEASURE
 62
     9
 48
25.4
370
    -2
100
AcDbLine
 10
963.2394898228245
 20
412.8358625039162
 30
0.0
 11
1104.379132041376
 21
412.8358625039162
 31
0.0
  0
LINE
  5
B72
330
B70
100
AcDbEntity
  8
MEASURE
 62
     9
 48
25.4
370
    -2
100
AcDbLine
 10
968.2394898228242
 20
441.8358625039142
 30
0.0
 11
1104.379132041376
 21
441.8358625039142
 31
0.0
  0
LINE
  5
B73
330
B70
100
AcDbEntity
  8
MEASURE
 62
     9
 48
25.4
370
    -2
100
AcDbLine
 10
1094.379132041376
 20
400.3358625039162
 30
0.0
 11
1094.379132041376
 21
387.8358625039162
 31
0.0
  0
LINE
  5
B74
330
B70
100
AcDbEntity
  8
MEASURE
 62
     9
 48
25.4
370
    -2
100
AcDbLine
 10
1094.379132041376
 20
454.3358625039142
 30
0.0
 11
1094.379132041376
 21
466.8358625039142
 31
0.0
  0
LINE
  5
B75
330
B70
100
AcDbEntity
  8
MEASURE
 62
     9
 48
25.4
370
    -2
100
AcDbLine
 10
1094.379132041376
 20
412.8358625039162
 30
0.0
 11
1094.379132041376
 21
441.8358625039142
 31
0.0
  0
SOLID
  5
B76
330
B70
100
AcDbEntity
  8
MEASURE
 62
     9
 48
25.4
100
AcDbTrace
 10
1092.295798708043
 20
400.3358625039162
 30
0.0
 11
1096.462465374709
 21
400.3358625039162
 31
0.0
 12
1094.379132041376
 22
412.8358625039162
 32
0.0
 13
1094.379132041376
 23
412.8358625039162
 33
0.0
  0
SOLID
  5
B77
330
B70
100
AcDbEntity
  8
MEASURE
 62
     9
 48
25.4
100
AcDbTrace
 10
1092.295798708043
 20
454.3358625039142
 30
0.0
 11
1096.462465374709
 21
454.3358625039142
 31
0.0
 12
1094.379132041376
 22
441.8358625039142
 32
0.0
 13
1094.379132041376
 23
441.8358625039142
 33
0.0
  0
MTEXT
  5
B78
330
B70
100
AcDbEntity
  8
MEASURE
 62
     2
 48
25.4
100
AcDbMText
 10
1083.129132041376
 20
427.3358625039153
 30
0.0
 40
17.5
 41
0.0
 71
     5
 72
     1
  1
\A1;29
  7
AD-STANDARD
 11
0.0000000000000001
 21
1.0
 31
0.0
 73
     1
 44
1.0
  0
POINT
  5
B79
330
B70
100
AcDbEntity
  8
DEFPOINTS
 62
     0
 48
25.4
100
AcDbPoint
 10
958.2394898228246
 20
412.8358625039162
 30
0.0
  0
POINT
  5
B7A
330
B70
100
AcDbEntity
  8
DEFPOINTS
 62
     0
 48
25.4
100
AcDbPoint
 10
963.2394898228241
 20
441.8358625039142
 30
0.0
  0
POINT
  5
B7B
330
B70
100
AcDbEntity
  8
DEFPOINTS
 62
     0
 48
25.4
100
AcDbPoint
 10
1094.379132041376
 20
441.8358625039142
 30
0.0
  0
ENDBLK
  5
B7D
330
B70
100
AcDbEntity
  8
0
 48
25.4
100
AcDbBlockEnd
  0
BLOCK
  5
B89
330
B7F
100
AcDbEntity
  8
0
 48
25.4
100
AcDbBlockBegin
  2
*D38
 70
     1
 10
0.0
 20
0.0
 30
0.0
  3
*D38
  1

  0
LINE
  5
B8B
330
B7F
100
AcDbEntity
  8
MEASURE
 62
     9
 48
25.4
370
    -2
100
AcDbLine
 10
968.2394898228242
 20
441.8358625039142
 30
0.0
 11
1104.379132041376
 21
441.8358625039142
 31
0.0
  0
LINE
  5
B8C
330
B7F
100
AcDbEntity
  8
MEASURE
 62
     9
 48
25.4
370
    -2
100
AcDbLine
 10
979.7394898228244
 20
530.335862503913
 30
0.0
 11
1104.379132041376
 21
530.335862503913
 31
0.0
  0
LINE
  5
B8D
330
B7F
100
AcDbEntity
  8
MEASURE
 62
     9
 48
25.4
370
    -2
100
AcDbLine
 10
1094.379132041376
 20
454.3358625039142
 30
0.0
 11
1094.379132041376
 21
517.835862503913
 31
0.0
  0
SOLID
  5
B8E
330
B7F
100
AcDbEntity
  8
MEASURE
 62
     9
 48
25.4
100
AcDbTrace
 10
1092.295798708043
 20
454.3358625039142
 30
0.0
 11
1096.462465374709
 21
454.3358625039142
 31
0.0
 12
1094.379132041376
 22
441.8358625039142
 32
0.0
 13
1094.379132041376
 23
441.8358625039142
 33
0.0
  0
SOLID
  5
B8F
330
B7F
100
AcDbEntity
  8
MEASURE
 62
     9
 48
25.4
100
AcDbTrace
 10
1092.295798708043
 20
517.835862503913
 30
0.0
 11
1096.46246537471
 21
517.835862503913
 31
0.0
 12
1094.379132041376
 22
530.335862503913
 32
0.0
 13
1094.379132041376
 23
530.335862503913
 33
0.0
  0
MTEXT
  5
B90
330
B7F
100
AcDbEntity
  8
MEASURE
 62
     2
 48
25.4
100
AcDbMText
 10
1083.129132041376
 20
486.0858625039138
 30
0.0
 40
17.5
 41
0.0
 71
     5
 72
     1
  1
\A1;88
  7
AD-STANDARD
 11
0.0000000000000001
 21
1.0
 31
0.0
 73
     1
 44
1.0
  0
POINT
  5
B91
330
B7F
100
AcDbEntity
  8
DEFPOINTS
 62
     0
 48
25.4
100
AcDbPoint
 10
963.2394898228241
 20
441.8358625039142
 30
0.0
  0
POINT
  5
B92
330
B7F
100
AcDbEntity
  8
DEFPOINTS
 62
     0
 48
25.4
100
AcDbPoint
 10
974.7394898228245
 20
530.335862503913
 30
0.0
  0
POINT
  5
B93
330
B7F
100
AcDbEntity
  8
DEFPOINTS
 62
     0
 48
25.4
100
AcDbPoint
 10
1094.379132041376
 20
530.335862503913
 30
0.0
  0
ENDBLK
  5
B8A
330
B7F
100
AcDbEntity
  8
0
 48
25.4
100
AcDbBlockEnd
  0
BLOCK
  5
BA0
330
B95
100
AcDbEntity
  8
0
 48
25.4
100
AcDbBlockBegin
  2
*D39
 70
     1
 10
0.0
 20
0.0
 30
0.0
  3
*D39
  1

  0
LINE
  5
BC5
330
B95
100
AcDbEntity
  8
MEASURE
 62
     9
 48
25.4
370
    -2
100
AcDbLine
 10
361.9890742017925
 20
1136.538877890519
 30
0.0
 11
361.9890742017924
 21
316.133444167609
 31
0.0
  0
LINE
  5
BC6
330
B95
100
AcDbEntity
  8
MEASURE
 62
     9
 48
25.4
370
    -2
100
AcDbLine
 10
444.2394898228245
 20
412.8358625039099
 30
0.0
 11
444.2394898228245
 21
316.133444167609
 31
0.0
  0
LINE
  5
BC7
330
B95
100
AcDbEntity
  8
MEASURE
 62
     9
 48
25.4
370
    -2
100
AcDbLine
 10
374.4890742017924
 20
326.133444167609
 30
0.0
 11
431.7394898228245
 21
326.133444167609
 31
0.0
  0
SOLID
  5
BC8
330
B95
100
AcDbEntity
  8
MEASURE
 62
     9
 48
25.4
100
AcDbTrace
 10
374.4890742017924
 20
328.2167775009423
 30
0.0
 11
374.4890742017924
 21
324.0501108342757
 31
0.0
 12
361.9890742017924
 22
326.133444167609
 32
0.0
 13
361.9890742017924
 23
326.133444167609
 33
0.0
  0
SOLID
  5
BC9
330
B95
100
AcDbEntity
  8
MEASURE
 62
     9
 48
25.4
100
AcDbTrace
 10
431.7394898228245
 20
328.2167775009423
 30
0.0
 11
431.7394898228245
 21
324.0501108342757
 31
0.0
 12
444.2394898228245
 22
326.133444167609
 32
0.0
 13
444.2394898228245
 23
326.133444167609
 33
0.0
  0
MTEXT
  5
BCA
330
B95
100
AcDbEntity
  8
MEASURE
 62
     2
 48
25.4
100
AcDbMText
 10
403.1142820123085
 20
341.9667775009423
 30
0.0
 40
17.5
 41
0.0
 71
     5
 72
     1
  1
\A1;(82)
  7
AD-STANDARD
 73
     1
 44
1.0
  0
POINT
  5
BCB
330
B95
100
AcDbEntity
  8
DEFPOINTS
 62
     0
 48
25.4
100
AcDbPoint
 10
361.9890742017925
 20
1141.538877890519
 30
0.0
  0
POINT
  5
BCC
330
B95
100
AcDbEntity
  8
DEFPOINTS
 62
     0
 48
25.4
100
AcDbPoint
 10
444.2394898228245
 20
417.8358625039099
 30
0.0
  0
POINT
  5
BCD
330
B95
100
AcDbEntity
  8
DEFPOINTS
 62
     0
 48
25.4
100
AcDbPoint
 10
444.2394898228245
 20
326.133444167609
 30
0.0
  0
ENDBLK
  5
BA1
330
B95
100
AcDbEntity
  8
0
 48
25.4
100
AcDbBlockEnd
  0
BLOCK
  5
BAD
330
BA3
100
AcDbEntity
  8
0
 48
25.4
100
AcDbBlockBegin
  2
*D40
 70
     1
 10
0.0
 20
0.0
 30
0.0
  3
*D40
  1

  0
LINE
  5
BA4
330
BA3
100
AcDbEntity
  8
MEASURE
 62
     9
 48
25.4
370
    -2
100
AcDbLine
 10
444.2394898228245
 20
412.8358625039099
 30
0.0
 11
444.2394898228245
 21
316.133444167609
 31
0.0
  0
LINE
  5
BA5
330
BA3
100
AcDbEntity
  8
MEASURE
 62
     9
 48
25.4
370
    -2
100
AcDbLine
 10
646.2394898228247
 20
412.8358625039125
 30
0.0
 11
646.2394898228247
 21
316.133444167609
 31
0.0
  0
LINE
  5
BA6
330
BA3
100
AcDbEntity
  8
MEASURE
 62
     9
 48
25.4
370
    -2
100
AcDbLine
 10
456.7394898228245
 20
326.133444167609
 30
0.0
 11
633.7394898228247
 21
326.133444167609
 31
0.0
  0
SOLID
  5
BA7
330
BA3
100
AcDbEntity
  8
MEASURE
 62
     9
 48
25.4
100
AcDbTrace
 10
456.7394898228245
 20
328.2167775009423
 30
0.0
 11
456.7394898228245
 21
324.0501108342757
 31
0.0
 12
444.2394898228245
 22
326.133444167609
 32
0.0
 13
444.2394898228245
 23
326.133444167609
 33
0.0
  0
SOLID
  5
BA8
330
BA3
100
AcDbEntity
  8
MEASURE
 62
     9
 48
25.4
100
AcDbTrace
 10
633.7394898228247
 20
328.2167775009423
 30
0.0
 11
633.7394898228247
 21
324.0501108342757
 31
0.0
 12
646.2394898228247
 22
326.133444167609
 32
0.0
 13
646.2394898228247
 23
326.133444167609
 33
0.0
  0
MTEXT
  5
BA9
330
BA3
100
AcDbEntity
  8
MEASURE
 62
     2
 48
25.4
100
AcDbMText
 10
545.2394898228247
 20
337.383444167609
 30
0.0
 40
17.5
 41
0.0
 71
     5
 72
     1
  1
\A1;202
  7
AD-STANDARD
 73
     1
 44
1.0
  0
POINT
  5
BAA
330
BA3
100
AcDbEntity
  8
DEFPOINTS
 62
     0
 48
25.4
100
AcDbPoint
 10
444.2394898228245
 20
417.8358625039099
 30
0.0
  0
POINT
  5
BAB
330
BA3
100
AcDbEntity
  8
DEFPOINTS
 62
     0
 48
25.4
100
AcDbPoint
 10
646.2394898228247
 20
417.8358625039125
 30
0.0
  0
POINT
  5
BAC
330
BA3
100
AcDbEntity
  8
DEFPOINTS
 62
     0
 48
25.4
100
AcDbPoint
 10
646.2394898228247
 20
326.133444167609
 30
0.0
  0
ENDBLK
  5
BAE
330
BA3
100
AcDbEntity
  8
0
 48
25.4
100
AcDbBlockEnd
  0
BLOCK
  5
BBA
330
BB0
100
AcDbEntity
  8
0
 48
25.4
100
AcDbBlockBegin
  2
*D41
 70
     1
 10
0.0
 20
0.0
 30
0.0
  3
*D41
  1

  0
LINE
  5
BB1
330
BB0
100
AcDbEntity
  8
MEASURE
 62
     9
 48
25.4
370
    -2
100
AcDbLine
 10
646.2394898228247
 20
412.8358625039125
 30
0.0
 11
646.2394898228247
 21
316.133444167609
 31
0.0
  0
LINE
  5
BB2
330
BB0
100
AcDbEntity
  8
MEASURE
 62
     9
 48
25.4
370
    -2
100
AcDbLine
 10
946.2394898228245
 20
407.835862503916
 30
0.0
 11
946.2394898228245
 21
316.133444167609
 31
0.0
  0
LINE
  5
BB3
330
BB0
100
AcDbEntity
  8
MEASURE
 62
     9
 48
25.4
370
    -2
100
AcDbLine
 10
658.7394898228247
 20
326.133444167609
 30
0.0
 11
933.7394898228245
 21
326.133444167609
 31
0.0
  0
SOLID
  5
BB4
330
BB0
100
AcDbEntity
  8
MEASURE
 62
     9
 48
25.4
100
AcDbTrace
 10
658.7394898228247
 20
328.2167775009423
 30
0.0
 11
658.7394898228247
 21
324.0501108342757
 31
0.0
 12
646.2394898228247
 22
326.133444167609
 32
0.0
 13
646.2394898228247
 23
326.133444167609
 33
0.0
  0
SOLID
  5
BB5
330
BB0
100
AcDbEntity
  8
MEASURE
 62
     9
 48
25.4
100
AcDbTrace
 10
933.7394898228245
 20
328.2167775009423
 30
0.0
 11
933.7394898228245
 21
324.0501108342757
 31
0.0
 12
946.2394898228245
 22
326.133444167609
 32
0.0
 13
946.2394898228245
 23
326.133444167609
 33
0.0
  0
MTEXT
  5
BB6
330
BB0
100
AcDbEntity
  8
MEASURE
 62
     2
 48
25.4
100
AcDbMText
 10
796.2394898228247
 20
337.383444167609
 30
0.0
 40
17.5
 41
0.0
 71
     5
 72
     1
  1
\A1;300
  7
AD-STANDARD
 73
     1
 44
1.0
  0
POINT
  5
BB7
330
BB0
100
AcDbEntity
  8
DEFPOINTS
 62
     0
 48
25.4
100
AcDbPoint
 10
646.2394898228247
 20
417.8358625039125
 30
0.0
  0
POINT
  5
BB8
330
BB0
100
AcDbEntity
  8
DEFPOINTS
 62
     0
 48
25.4
100
AcDbPoint
 10
946.2394898228245
 20
412.835862503916
 30
0.0
  0
POINT
  5
BB9
330
BB0
100
AcDbEntity
  8
DEFPOINTS
 62
     0
 48
25.4
100
AcDbPoint
 10
946.2394898228245
 20
326.133444167609
 30
0.0
  0
ENDBLK
  5
BBB
330
BB0
100
AcDbEntity
  8
0
 48
25.4
100
AcDbBlockEnd
  0
BLOCK
  5
E1A
330
E10
100
AcDbEntity
  8
0
 48
25.4
100
AcDbBlockBegin
  2
*D42
 70
     1
 10
0.0
 20
0.0
 30
0.0
  3
*D42
  1

  0
LINE
  5
E11
330
E10
100
AcDbEntity
  8
MEASURE
 62
     9
 48
25.4
370
    -2
100
AcDbLine
 10
1455.784032783684
 20
523.8358625039134
 30
0.0
 11
1455.784032783684
 21
636.6589248489972
 31
0.0
  0
LINE
  5
E12
330
E10
100
AcDbEntity
  8
MEASURE
 62
     9
 48
25.4
370
    -2
100
AcDbLine
 10
1755.784032783684
 20
523.8358625039134
 30
0.0
 11
1755.784032783684
 21
636.6589248489972
 31
0.0
  0
LINE
  5
E13
330
E10
100
AcDbEntity
  8
MEASURE
 62
     9
 48
25.4
370
    -2
100
AcDbLine
 10
1468.284032783684
 20
626.6589248489972
 30
0.0
 11
1743.284032783684
 21
626.6589248489972
 31
0.0
  0
SOLID
  5
E14
330
E10
100
AcDbEntity
  8
MEASURE
 62
     9
 48
25.4
100
AcDbTrace
 10
1468.284032783684
 20
628.7422581823306
 30
0.0
 11
1468.284032783684
 21
624.5755915156638
 31
0.0
 12
1455.784032783684
 22
626.6589248489972
 32
0.0
 13
1455.784032783684
 23
626.6589248489972
 33
0.0
  0
SOLID
  5
E15
330
E10
100
AcDbEntity
  8
MEASURE
 62
     9
 48
25.4
100
AcDbTrace
 10
1743.284032783684
 20
628.7422581823306
 30
0.0
 11
1743.284032783684
 21
624.5755915156638
 31
0.0
 12
1755.784032783684
 22
626.6589248489972
 32
0.0
 13
1755.784032783684
 23
626.6589248489972
 33
0.0
  0
MTEXT
  5
E16
330
E10
100
AcDbEntity
  8
MEASURE
 62
     2
 48
25.4
100
AcDbMText
 10
1605.784032783684
 20
637.9089248489972
 30
0.0
 40
17.5
 41
0.0
 71
     5
 72
     1
  1
\A1;300
  7
AD-STANDARD
 73
     1
 44
1.0
  0
POINT
  5
E17
330
E10
100
AcDbEntity
  8
DEFPOINTS
 62
     0
 48
25.4
100
AcDbPoint
 10
1455.784032783684
 20
518.8358625039134
 30
0.0
  0
POINT
  5
E18
330
E10
100
AcDbEntity
  8
DEFPOINTS
 62
     0
 48
25.4
100
AcDbPoint
 10
1755.784032783684
 20
518.8358625039134
 30
0.0
  0
POINT
  5
E19
330
E10
100
AcDbEntity
  8
DEFPOINTS
 62
     0
 48
25.4
100
AcDbPoint
 10
1755.784032783684
 20
626.6589248489972
 30
0.0
  0
ENDBLK
  5
E1B
330
E10
100
AcDbEntity
  8
0
 48
25.4
100
AcDbBlockEnd
  0
BLOCK
  5
E27
330
E1D
100
AcDbEntity
  8
0
 48
25.4
100
AcDbBlockBegin
  2
*D43
 70
     1
 10
0.0
 20
0.0
 30
0.0
  3
*D43
  1

  0
LINE
  5
E31
330
E1D
100
AcDbEntity
  8
MEASURE
 62
     9
 48
25.4
370
    -2
100
AcDbLine
 10
1598.284032783683
 20
848.1236390777931
 30
0.0
 11
1613.284032783683
 21
848.1236390777931
 31
0.0
  0
SOLID
  5
E32
330
E1D
100
AcDbEntity
  8
MEASURE
 62
     9
 48
25.4
100
AcDbTrace
 10
1598.284032783683
 20
850.2069724111263
 30
0.0
 11
1598.284032783683
 21
846.0403057444597
 31
0.0
 12
1585.784032783683
 22
848.1236390777931
 32
0.0
 13
1585.784032783683
 23
848.1236390777931
 33
0.0
  0
SOLID
  5
E33
330
E1D
100
AcDbEntity
  8
MEASURE
 62
     9
 48
25.4
100
AcDbTrace
 10
1613.284032783683
 20
850.2069724111263
 30
0.0
 11
1613.284032783683
 21
846.0403057444597
 31
0.0
 12
1625.784032783683
 22
848.1236390777931
 32
0.0
 13
1625.784032783683
 23
848.1236390777931
 33
0.0
  0
MTEXT
  5
E34
330
E1D
100
AcDbEntity
  8
MEASURE
 62
     2
 48
25.4
100
AcDbMText
 10
1605.784032783683
 20
859.373639077793
 30
0.0
 40
17.5
 41
0.0
 71
     5
 72
     1
  1
\A1;40
  7
AD-STANDARD
 73
     1
 44
1.0
  0
POINT
  5
E35
330
E1D
100
AcDbEntity
  8
DEFPOINTS
 62
     0
 48
25.4
100
AcDbPoint
 10
1585.784032783683
 20
808.8358625039097
 30
0.0
  0
POINT
  5
E36
330
E1D
100
AcDbEntity
  8
DEFPOINTS
 62
     0
 48
25.4
100
AcDbPoint
 10
1625.784032783683
 20
808.8358625039097
 30
0.0
  0
POINT
  5
E37
330
E1D
100
AcDbEntity
  8
DEFPOINTS
 62
     0
 48
25.4
100
AcDbPoint
 10
1625.784032783683
 20
848.1236390777931
 30
0.0
  0
ENDBLK
  5
E28
330
E1D
100
AcDbEntity
  8
0
 48
25.4
100
AcDbBlockEnd
  0
BLOCK
  5
E43
330
E39
100
AcDbEntity
  8
0
 48
25.4
100
AcDbBlockBegin
  2
*D44
 70
     1
 10
0.0
 20
0.0
 30
0.0
  3
*D44
  1

  0
LINE
  5
E3A
330
E39
100
AcDbEntity
  8
MEASURE
 62
     9
 48
25.4
370
    -2
100
AcDbLine
 10
1495.784032783684
 20
412.8358625039165
 30
0.0
 11
1495.784032783684
 21
316.133444167609
 31
0.0
  0
LINE
  5
E3B
330
E39
100
AcDbEntity
  8
MEASURE
 62
     9
 48
25.4
370
    -2
100
AcDbLine
 10
1715.784032783684
 20
412.8358625039165
 30
0.0
 11
1715.784032783684
 21
316.133444167609
 31
0.0
  0
LINE
  5
E3C
330
E39
100
AcDbEntity
  8
MEASURE
 62
     9
 48
25.4
370
    -2
100
AcDbLine
 10
1508.284032783684
 20
326.133444167609
 30
0.0
 11
1703.284032783684
 21
326.133444167609
 31
0.0
  0
SOLID
  5
E3D
330
E39
100
AcDbEntity
  8
MEASURE
 62
     9
 48
25.4
100
AcDbTrace
 10
1508.284032783684
 20
328.2167775009423
 30
0.0
 11
1508.284032783684
 21
324.0501108342757
 31
0.0
 12
1495.784032783684
 22
326.133444167609
 32
0.0
 13
1495.784032783684
 23
326.133444167609
 33
0.0
  0
SOLID
  5
E3E
330
E39
100
AcDbEntity
  8
MEASURE
 62
     9
 48
25.4
100
AcDbTrace
 10
1703.284032783684
 20
328.2167775009423
 30
0.0
 11
1703.284032783684
 21
324.0501108342757
 31
0.0
 12
1715.784032783684
 22
326.133444167609
 32
0.0
 13
1715.784032783684
 23
326.133444167609
 33
0.0
  0
MTEXT
  5
E3F
330
E39
100
AcDbEntity
  8
MEASURE
 62
     2
 48
25.4
100
AcDbMText
 10
1605.784032783684
 20
337.383444167609
 30
0.0
 40
17.5
 41
0.0
 71
     5
 72
     1
  1
\A1;220
  7
AD-STANDARD
 73
     1
 44
1.0
  0
POINT
  5
E40
330
E39
100
AcDbEntity
  8
DEFPOINTS
 62
     0
 48
25.4
100
AcDbPoint
 10
1495.784032783684
 20
417.8358625039165
 30
0.0
  0
POINT
  5
E41
330
E39
100
AcDbEntity
  8
DEFPOINTS
 62
     0
 48
25.4
100
AcDbPoint
 10
1715.784032783684
 20
417.8358625039165
 30
0.0
  0
POINT
  5
E42
330
E39
100
AcDbEntity
  8
DEFPOINTS
 62
     0
 48
25.4
100
AcDbPoint
 10
1715.784032783684
 20
326.133444167609
 30
0.0
  0
ENDBLK
  5
E44
330
E39
100
AcDbEntity
  8
0
 48
25.4
100
AcDbBlockEnd
  0
ENDSEC
  0
SECTION
  2
ENTITIES
  0
TEXT
  5
2F
330
1F
100
AcDbEntity
  8
NOTE
  6
Continuous
100
AcDbText
 10
1774.91541158961
 20
189.0960041953895
 30
0.0
 40
15.0
  1
FG30KAM
  7
AD-STANDARD
 11
1774.91541158961
 21
204.0960041953895
 31
0.0
100
AcDbText
 73
     3
  0
TEXT
  5
31
330
1F
100
AcDbEntity
  8
NOTE
  6
Continuous
100
AcDbText
 10
1774.91541158961
 20
167.1447846831945
 30
0.0
 40
15.0
  1
FG60KAM
  7
AD-STANDARD
 11
1774.91541158961
 21
182.1447846831945
 31
0.0
100
AcDbText
 73
     3
  0
TEXT
  5
32
330
1F
100
AcDbEntity
  8
NOTE
  6
Continuous
100
AcDbText
 10
1774.91541158961
 20
145.1935651709994
 30
0.0
 40
15.0
  1
FG150KAM
  7
AD-STANDARD
 11
1774.91541158961
 21
160.1935651709994
 31
0.0
100
AcDbText
 73
     3
  0
LWPOLYLINE
  5
67F
330
1F
100
AcDbEntity
  8
0
100
AcDbPolyline
 90
        4
 70
     1
 43
0.0
 10
0.0
 20
0.0
 10
2100.0
 20
-0.0000000000000535
 10
2100.0
 20
1485.0
 10
0.0
 20
1485.0
  0
DIMENSION
  5
8EF
330
1F
100
AcDbEntity
  8
MEASURE
 48
25.4
100
AcDbDimension
  2
*D33
 10
986.2394898228243
 20
626.6589248489972
 30
0.0
 11
796.2394898228246
 21
637.9089248489972
 31
0.0
 70
    32
 71
     5
 42
379.9999999999997
  3
AD-STANDARD
100
AcDbAlignedDimension
 13
606.2394898228246
 23
518.8358625039134
 33
0.0
 14
986.2394898228243
 24
518.8358625039134
 34
0.0
100
AcDbRotatedDimension
1001
ACAD
1000
DSTYLE
1002
{
1070
    40
1040
5.0
1002
}
  0
LINE
  5
8FC
330
1F
100
AcDbEntity
  8
1
  6
Continuous
 48
25.4
100
AcDbLine
 10
963.2394898228241
 20
441.8358625039142
 30
0.0
 11
629.239489822824
 21
441.8358625039142
 31
0.0
  0
LINE
  5
8FD
330
1F
100
AcDbEntity
  8
1
  6
Continuous
 48
25.4
100
AcDbLine
 10
933.2394898228246
 20
441.8358625039142
 30
0.0
 11
928.2394898228245
 21
441.8358625039142
 31
0.0
  0
LINE
  5
8FE
330
1F
100
AcDbEntity
  8
1
  6
Continuous
 48
25.4
100
AcDbLine
 10
966.2394898228241
 20
470.3358625039133
 30
0.0
 11
966.2394898228241
 21
444.8358625039142
 31
0.0
  0
LINE
  5
902
330
1F
100
AcDbEntity
  8
1
  6
Continuous
 48
25.4
100
AcDbLine
 10
626.2394898228241
 20
444.8358625039142
 30
0.0
 11
626.2394898228241
 21
470.3358625039133
 31
0.0
  0
LINE
  5
903
330
1F
100
AcDbEntity
  8
1
  6
Continuous
 48
25.4
100
AcDbLine
 10
928.2394898228245
 20
441.8358625039142
 30
0.0
 11
874.2394898228246
 21
441.8358625039142
 31
0.0
  0
LINE
  5
904
330
1F
100
AcDbEntity
  8
1
  6
Continuous
 48
25.4
100
AcDbLine
 10
861.2394898228247
 20
441.8358625039142
 30
0.0
 11
764.7394898228246
 21
441.8358625039142
 31
0.0
  0
LINE
  5
905
330
1F
100
AcDbEntity
  8
1
  6
Continuous
 48
25.4
100
AcDbLine
 10
751.7394898228246
 20
441.8358625039142
 30
0.0
 11
747.7394898228246
 21
441.8358625039142
 31
0.0
  0
LINE
  5
906
330
1F
100
AcDbEntity
  8
1
  6
Continuous
 48
25.4
100
AcDbLine
 10
734.7394898228242
 20
441.8358625039142
 30
0.0
 11
725.2394898228247
 21
441.8358625039142
 31
0.0
  0
ARC
  5
90B
330
1F
100
AcDbEntity
  8
1
  6
Continuous
 48
25.4
100
AcDbCircle
 10
963.2394898228241
 20
444.8358625039142
 30
0.0
 40
3.000000000000003
100
AcDbArc
 50
270.0
 51
0.0
  0
ARC
  5
90C
330
1F
100
AcDbEntity
  8
1
  6
Continuous
 48
25.4
100
AcDbCircle
 10
629.239489822824
 20
444.8358625039142
 30
0.0
 40
2.999999999999996
100
AcDbArc
 50
180.0
 51
270.0
  0
LINE
  5
90D
330
1F
100
AcDbEntity
  8
1
  6
Continuous
 48
25.4
100
AcDbLine
 10
764.7394898228246
 20
440.3358625039139
 30
0.0
 11
764.7394898228246
 21
441.8358625039142
 31
0.0
  0
LINE
  5
90E
330
1F
100
AcDbEntity
  8
1
  6
Continuous
 48
25.4
100
AcDbLine
 10
764.7394898228246
 20
440.335862503914
 30
0.0
 11
751.7394898228246
 21
440.3358625039138
 31
0.0
  0
LINE
  5
90F
330
1F
100
AcDbEntity
  8
1
  6
Continuous
 48
25.4
100
AcDbLine
 10
751.7394898228246
 20
441.8358625039142
 30
0.0
 11
751.7394898228246
 21
440.3358625039138
 31
0.0
  0
LINE
  5
910
330
1F
100
AcDbEntity
  8
1
  6
Continuous
 48
25.4
100
AcDbLine
 10
747.7394898228246
 20
440.3358625039138
 30
0.0
 11
747.7394898228246
 21
441.8358625039143
 31
0.0
  0
LINE
  5
911
330
1F
100
AcDbEntity
  8
1
  6
Continuous
 48
25.4
100
AcDbLine
 10
747.7394898228246
 20
440.3358625039138
 30
0.0
 11
734.7394898228242
 21
440.3358625039137
 31
0.0
  0
LINE
  5
912
330
1F
100
AcDbEntity
  8
1
  6
Continuous
 48
25.4
100
AcDbLine
 10
734.7394898228242
 20
441.8358625039142
 30
0.0
 11
734.7394898228242
 21
440.3358625039137
 31
0.0
  0
LINE
  5
913
330
1F
100
AcDbEntity
  8
1
  6
Continuous
 48
25.4
100
AcDbLine
 10
946.2394898228245
 20
441.1213313240997
 30
0.0
 11
942.2394898228244
 21
441.8358625039161
 31
0.0
  0
LINE
  5
914
330
1F
100
AcDbEntity
  8
1
  6
Continuous
 48
25.4
100
AcDbLine
 10
954.2394898228245
 20
441.1213313241
 30
0.0
 11
954.2394898228245
 21
441.8358625039162
 31
0.0
  0
LINE
  5
915
330
1F
100
AcDbEntity
  8
1
  6
Continuous
 48
25.4
100
AcDbLine
 10
938.2394898228245
 20
441.1213313240996
 30
0.0
 11
938.2394898228245
 21
441.8358625039159
 31
0.0
  0
ARC
  5
916
330
1F
100
AcDbEntity
  8
1
  6
Continuous
 48
25.4
100
AcDbCircle
 10
950.3800871582582
 20
429.4953698924296
 30
0.0
 40
12.34129351019913
100
AcDbArc
 50
90.65275233816295
 51
109.6034056622539
  0
ARC
  5
917
330
1F
100
AcDbEntity
  8
1
  6
Continuous
 48
25.4
100
AcDbCircle
 10
942.3800871582582
 20
429.4953698924301
 30
0.0
 40
12.34129351019858
100
AcDbArc
 50
90.65275233816235
 51
109.6034056622546
  0
LINE
  5
918
330
1F
100
AcDbEntity
  8
1
  6
Continuous
 48
25.4
100
AcDbLine
 10
954.2394898228245
 20
441.1213313241
 30
0.0
 11
950.2394898228246
 21
441.8358625039162
 31
0.0
  0
LINE
  5
919
330
1F
100
AcDbEntity
  8
1
  6
Continuous
 48
25.4
100
AcDbLine
 10
954.2394898228245
 20
433.8358625039162
 30
0.0
 11
954.2394898228245
 21
441.1213313240998
 31
0.0
  0
LINE
  5
91A
330
1F
100
AcDbEntity
  8
1
  6
Continuous
 48
25.4
100
AcDbLine
 10
938.2394898228245
 20
433.8358625039161
 30
0.0
 11
938.2394898228245
 21
441.1213313240996
 31
0.0
  0
LINE
  5
91B
330
1F
100
AcDbEntity
  8
1
  6
Continuous
 48
25.4
100
AcDbLine
 10
946.2394898228245
 20
441.1213313240997
 30
0.0
 11
946.2394898228245
 21
433.8358625039162
 31
0.0
  0
LINE
  5
91C
330
1F
100
AcDbEntity
  8
1
  6
Continuous
 48
25.4
100
AcDbLine
 10
654.2394898228247
 20
441.8358625039126
 30
0.0
 11
654.2394898228247
 21
441.1213313240962
 31
0.0
  0
LINE
  5
91D
330
1F
100
AcDbEntity
  8
1
  6
Continuous
 48
25.4
100
AcDbLine
 10
638.2394898228247
 20
441.8358625039126
 30
0.0
 11
638.2394898228247
 21
441.1213313240962
 31
0.0
  0
ARC
  5
91E
330
1F
100
AcDbEntity
  8
1
  6
Continuous
 48
25.4
100
AcDbCircle
 10
642.0988924873905
 20
429.4953698924261
 30
0.0
 40
12.34129351019918
100
AcDbArc
 50
70.39659433774609
 51
89.34724766183739
  0
LINE
  5
91F
330
1F
100
AcDbEntity
  8
1
  6
Continuous
 48
25.4
100
AcDbLine
 10
638.2394898228247
 20
441.1213313240962
 30
0.0
 11
642.2394898228247
 21
441.8358625039126
 31
0.0
  0
ARC
  5
920
330
1F
100
AcDbEntity
  8
1
  6
Continuous
 48
25.4
100
AcDbCircle
 10
650.0988924873905
 20
429.4953698924261
 30
0.0
 40
12.3412935101992
100
AcDbArc
 50
70.39659433774587
 51
89.34724766183768
  0
LINE
  5
921
330
1F
100
AcDbEntity
  8
1
  6
Continuous
 48
25.4
100
AcDbLine
 10
646.2394898228247
 20
441.1213313240962
 30
0.0
 11
650.2394898228247
 21
441.8358625039126
 31
0.0
  0
LINE
  5
922
330
1F
100
AcDbEntity
  8
1
  6
Continuous
 48
25.4
100
AcDbLine
 10
654.2394898228247
 20
441.1213313240962
 30
0.0
 11
654.2394898228247
 21
433.8358625039126
 31
0.0
  0
LINE
  5
923
330
1F
100
AcDbEntity
  8
1
  6
Continuous
 48
25.4
100
AcDbLine
 10
646.2394898228247
 20
433.8358625039125
 30
0.0
 11
646.2394898228247
 21
441.1213313240962
 31
0.0
  0
LINE
  5
924
330
1F
100
AcDbEntity
  8
1
  6
Continuous
 48
25.4
100
AcDbLine
 10
638.2394898228247
 20
433.8358625039125
 30
0.0
 11
638.2394898228247
 21
441.1213313240962
 31
0.0
  0
LINE
  5
925
330
1F
100
AcDbEntity
  8
1
  6
Continuous
 48
25.4
100
AcDbLine
 10
909.6501056684921
 20
425.8358625039155
 30
0.0
 11
908.2394898228246
 21
417.8358625039155
 31
0.0
  0
LINE
  5
926
330
1F
100
AcDbEntity
  8
1
  6
Continuous
 48
25.4
100
AcDbLine
 10
982.8288739771567
 20
425.8358625039165
 30
0.0
 11
979.5636670022771
 21
427.3584535217639
 31
0.0
  0
LINE
  5
927
330
1F
100
AcDbEntity
  8
1
  6
Continuous
 48
25.4
100
AcDbLine
 10
984.2394898228246
 20
417.8358625039165
 30
0.0
 11
982.8288739771567
 21
425.8358625039164
 31
0.0
  0
LINE
  5
928
330
1F
100
AcDbEntity
  8
1
  6
Continuous
 48
25.4
100
AcDbLine
 10
909.9637497659946
 20
425.8358625039155
 30
0.0
 11
909.6501056684921
 21
425.8358625039155
 31
0.0
  0
LINE
  5
929
330
1F
100
AcDbEntity
  8
1
  6
Continuous
 48
25.4
100
AcDbLine
 10
909.4144898228245
 20
417.8358625039155
 30
0.0
 11
908.6293821263886
 21
417.8358625039155
 31
0.0
  0
LINE
  5
92A
330
1F
100
AcDbEntity
  8
1
  6
Continuous
 48
25.4
100
AcDbLine
 10
908.6293821263886
 20
417.8358625039157
 30
0.0
 11
908.2394898228246
 21
417.8358625039157
 31
0.0
  0
SPLINE
  5
92B
330
1F
100
AcDbEntity
  8
1
  6
Continuous
 48
25.4
100
AcDbSpline
210
0.0
220
0.0
230
1.0
 70
     8
 71
     3
 72
     8
 73
     4
 74
     0
 42
0.0000000001
 43
0.0000000001
 40
0.854238662086502
 40
0.854238662086502
 40
0.854238662086502
 40
0.854238662086502
 40
1.0
 40
1.0
 40
1.0
 40
1.0
 10
911.8743513454431
 20
426.5603768022846
 30
0.0
 10
911.2761492501944
 20
426.3522301976624
 30
0.0
 10
910.6387948437701
 20
426.1088670497523
 30
0.0
 10
909.9637497659946
 20
425.8358625039155
 30
0.0
  0
SPLINE
  5
92C
330
1F
100
AcDbEntity
  8
1
  6
Continuous
 48
25.4
100
AcDbSpline
210
0.0
220
0.0
230
1.0
 70
     8
 71
     3
 72
     8
 73
     4
 74
     0
 42
0.0000000001
 43
0.0000000001
 40
0.0
 40
0.0
 40
0.0
 40
0.0
 40
0.1458044916925205
 40
0.1458044916925205
 40
0.1458044916925205
 40
0.1458044916925205
 10
982.5152298796545
 20
425.8358625039165
 30
0.0
 10
981.840061070817
 20
426.1089170895854
 30
0.0
 10
981.2028223034905
 20
426.3522218483392
 30
0.0
 10
980.6049073613516
 20
426.5602759728153
 30
0.0
  0
LINE
  5
92D
330
1F
100
AcDbEntity
  8
1
  6
Continuous
 48
25.4
100
AcDbLine
 10
908.6293821263886
 20
417.8358625039157
 30
0.0
 11
909.9637497659946
 21
425.8358625039156
 31
0.0
  0
LINE
  5
92E
330
1F
100
AcDbEntity
  8
1
  6
Continuous
 48
25.4
100
AcDbLine
 10
983.8495975192607
 20
417.8358625039165
 30
0.0
 11
984.2394898228246
 21
417.8358625039165
 31
0.0
  0
LINE
  5
92F
330
1F
100
AcDbEntity
  8
1
  6
Continuous
 48
25.4
100
AcDbLine
 10
982.5152298796545
 20
425.8358625039165
 30
0.0
 11
982.8288739771567
 21
425.8358625039165
 31
0.0
  0
ARC
  5
930
330
1F
100
AcDbEntity
  8
1
  6
Continuous
 48
25.4
100
AcDbCircle
 10
-6660.074307670758
 20
-853.0284412710454
 30
0.0
 40
7748.849511181956
100
AcDbArc
 50
9.439544516721978
 51
9.499514528324121
  0
LINE
  5
931
330
1F
100
AcDbEntity
  8
1
  6
Continuous
 48
25.4
100
AcDbLine
 10
983.8495975192607
 20
417.8358625039165
 30
0.0
 11
982.9435493941932
 21
417.8358625039165
 31
0.0
  0
LINE
  5
933
330
1F
100
AcDbEntity
  8
1
  6
Continuous
 48
25.4
100
AcDbLine
 10
912.9153126433717
 20
427.3584535217632
 30
0.0
 11
909.6501056684921
 21
425.8358625039156
 31
0.0
  0
LINE
  5
934
330
1F
100
AcDbEntity
  8
1
  6
Continuous
 48
25.4
100
AcDbLine
 10
934.2394898228246
 20
412.8358625039158
 30
0.0
 11
958.2394898228246
 21
412.8358625039162
 31
0.0
  0
SPLINE
  5
935
330
1F
100
AcDbEntity
  8
1
  6
Continuous
 48
25.4
100
AcDbSpline
210
0.0
220
0.0
230
1.0
 70
     8
 71
     3
 72
    15
 73
    11
 74
     0
 42
0.0000000001
 43
0.0000000001
 40
0.0
 40
0.0
 40
0.0
 40
0.0
 40
0.2500000000000004
 40
0.2500000000000004
 40
0.3125000000000004
 40
0.3125000000000004
 40
0.3750000000000004
 40
0.3750000000000004
 40
0.5000000000000006
 40
0.5000635921715425
 40
0.5000635921715425
 40
0.5000635921715425
 40
0.5000635921715425
 10
910.8956364607756
 20
425.8358625039156
 30
0.0
 10
911.5442544919206
 20
426.3040486731126
 30
0.0
 10
912.0469553871647
 20
426.6847721877619
 30
0.0
 10
912.478624630333
 20
427.0166870492047
 30
0.0
 10
912.5550092080111
 20
427.0758039345023
 30
0.0
 10
912.6870241387067
 20
427.1783729894722
 30
0.0
 10
912.7425973707131
 20
427.2217804948906
 30
0.0
 10
912.8750230426534
 20
427.3254613369205
 30
0.0
 10
912.9188508920735
 20
427.3600963053205
 30
0.0
 10
912.9188724214298
 20
427.3601133746849
 30
0.0
 10
912.9188724210505
 20
427.3601133744137
 30
0.0
  0
ARC
  5
936
330
1F
100
AcDbEntity
  8
1
  6
Continuous
 48
25.4
100
AcDbCircle
 10
-3174.659134929462
 20
991.1045037898544
 30
0.0
 40
4141.358967974939
100
AcDbArc
 50
352.0432676390222
 51
352.1550085195928
  0
LINE
  5
937
330
1F
100
AcDbEntity
  8
1
  6
Continuous
 48
25.4
100
AcDbLine
 10
965.6484868246492
 20
417.8358625039163
 30
0.0
 11
964.5382724255991
 21
425.8358625039162
 31
0.0
  0
LINE
  5
938
330
1F
100
AcDbEntity
  8
1
  6
Continuous
 48
25.4
100
AcDbLine
 10
926.8304928210001
 20
417.835862503916
 30
0.0
 11
913.5700723902596
 21
417.8358625039157
 31
0.0
  0
LINE
  5
939
330
1F
100
AcDbEntity
  8
1
  6
Continuous
 48
25.4
100
AcDbLine
 10
913.5700723902596
 20
417.8358625039157
 30
0.0
 11
914.5545156544635
 21
425.8358625039156
 31
0.0
  0
LINE
  5
93B
330
1F
100
AcDbEntity
  8
1
  6
Continuous
 48
25.4
100
AcDbLine
 10
957.2394898228244
 20
433.8358625039162
 30
0.0
 11
935.2394898228247
 21
433.835862503916
 31
0.0
  0
ARC
  5
93C
330
1F
100
AcDbEntity
  8
1
  6
Continuous
 48
25.4
100
AcDbCircle
 10
934.2394898228246
 20
414.8358625039159
 30
0.0
 40
2.000000000000002
100
AcDbArc
 50
180.0
 51
270.0
  0
LINE
  5
93D
330
1F
100
AcDbEntity
  8
1
  6
Continuous
 48
25.4
100
AcDbLine
 10
935.2394898228247
 20
433.8358625039161
 30
0.0
 11
932.2394898228244
 21
429.8358625039159
 31
0.0
  0
LINE
  5
93E
330
1F
100
AcDbEntity
  8
1
  6
Continuous
 48
25.4
100
AcDbLine
 10
918.2281333505306
 20
429.8358625039157
 30
0.0
 11
912.9153126433717
 21
427.3584535217631
 31
0.0
  0
LINE
  5
93F
330
1F
100
AcDbEntity
  8
1
  6
Continuous
 48
25.4
100
AcDbLine
 10
932.2394898228244
 20
417.835862503916
 30
0.0
 11
932.2394898228244
 21
414.8358625039159
 31
0.0
  0
ARC
  5
940
330
1F
100
AcDbEntity
  8
1
  6
Continuous
 48
25.4
100
AcDbCircle
 10
958.2394898228246
 20
414.8358625039163
 30
0.0
 40
1.999999999999987
100
AcDbArc
 50
270.0
 51
0.0
  0
LINE
  5
941
330
1F
100
AcDbEntity
  8
1
  6
Continuous
 48
25.4
100
AcDbLine
 10
960.2394898228247
 20
429.8358625039162
 30
0.0
 11
957.2394898228244
 21
433.8358625039163
 31
0.0
  0
LINE
  5
942
330
1F
100
AcDbEntity
  8
1
  6
Continuous
 48
25.4
100
AcDbLine
 10
979.5636670022771
 20
427.3584535217639
 30
0.0
 11
974.2508462951185
 21
429.8358625039164
 31
0.0
  0
LINE
  5
943
330
1F
100
AcDbEntity
  8
1
  6
Continuous
 48
25.4
100
AcDbLine
 10
960.2394898228247
 20
414.8358625039163
 30
0.0
 11
960.2394898228247
 21
417.8358625039163
 31
0.0
  0
LINE
  5
944
330
1F
100
AcDbEntity
  8
1
  6
Continuous
 48
25.4
100
AcDbLine
 10
964.5382724255991
 20
425.8358625039162
 30
0.0
 11
955.7049566531132
 21
425.8358625039162
 31
0.0
  0
LINE
  5
945
330
1F
100
AcDbEntity
  8
1
  6
Continuous
 48
25.4
100
AcDbLine
 10
981.5833431848734
 20
425.8358625039164
 30
0.0
 11
977.9244639911855
 21
425.8358625039163
 31
0.0
  0
LINE
  5
946
330
1F
100
AcDbEntity
  8
1
  6
Continuous
 48
25.4
100
AcDbLine
 10
978.9089072553895
 20
417.8358625039165
 30
0.0
 11
965.6484868246492
 21
417.8358625039163
 31
0.0
  0
LINE
  5
947
330
1F
100
AcDbEntity
  8
1
  6
Continuous
 48
25.4
100
AcDbLine
 10
926.8304928210001
 20
417.835862503916
 30
0.0
 11
936.8629566148635
 21
417.835862503916
 31
0.0
  0
LINE
  5
948
330
1F
100
AcDbEntity
  8
1
  6
Continuous
 48
25.4
100
AcDbLine
 10
955.6160230307854
 20
417.8358625039161
 30
0.0
 11
965.6484868246492
 21
417.8358625039163
 31
0.0
  0
LINE
  5
949
330
1F
100
AcDbEntity
  8
1
  6
Continuous
 48
25.4
100
AcDbLine
 10
978.9089072553895
 20
417.8358625039165
 30
0.0
 11
983.0644898228246
 21
417.8358625039165
 31
0.0
  0
LINE
  5
94A
330
1F
100
AcDbEntity
  8
1
  6
Continuous
 48
25.4
100
AcDbLine
 10
955.6160230307854
 20
417.8358625039161
 30
0.0
 11
936.8629566148635
 21
417.835862503916
 31
0.0
  0
SPLINE
  5
94B
330
1F
100
AcDbEntity
  8
1
  6
Continuous
 48
25.4
100
AcDbSpline
210
0.0
220
0.0
230
1.0
 70
     8
 71
     3
 72
    21
 73
    17
 74
     0
 42
0.0000000001
 43
0.0000000001
 40
0.0
 40
0.0
 40
0.0
 40
0.0
 40
0.2500000000000004
 40
0.2500000000000004
 40
0.3125000000000003
 40
0.3125000000000003
 40
0.3750000000000002
 40
0.3750000000000002
 40
0.5
 40
0.625
 40
0.625
 40
0.6875
 40
0.6875
 40
0.75
 40
0.75
 40
1.0
 40
1.0
 40
1.0
 40
1.0
 10
977.9244639911855
 20
425.8358625039164
 30
0.0
 10
976.4340030535207
 20
426.3040486731133
 30
0.0
 10
975.0036722527084
 20
426.6847721877628
 30
0.0
 10
973.2928387069032
 20
427.0166870492054
 30
0.0
 10
972.9545731990285
 20
427.0758039345029
 30
0.0
 10
972.2861026535246
 20
427.1783729894729
 30
0.0
 10
971.9556323875222
 20
427.2217804948913
 30
0.0
 10
970.99196937229
 20
427.3254613369212
 30
0.0
 10
969.7704315388891
 20
427.3946960514343
 30
0.0
 10
968.6735515402851
 20
427.3255999537147
 30
0.0
 10
967.8981834880305
 20
427.2222590471667
 30
0.0
 10
967.6468314587665
 20
427.1790522484866
 30
0.0
 10
967.1640746879546
 20
427.0764480737814
 30
0.0
 10
966.9334207455015
 20
427.0172940653011
 30
0.0
 10
965.8313170927597
 20
426.6851449258505
 30
0.0
 10
965.1115135690817
 20
426.3041014583341
 30
0.0
 10
964.5382724255991
 20
425.8358625039162
 30
0.0
  0
ARC
  5
94C
330
1F
100
AcDbEntity
  8
1
  6
Continuous
 48
25.4
100
AcDbCircle
 10
946.2394898228245
 20
397.1248299085249
 30
0.0
 40
30.23108425129505
100
AcDbArc
 50
71.75362123220861
 51
108.2463787677925
  0
SPLINE
  5
94D
330
1F
100
AcDbEntity
  8
1
  6
Continuous
 48
25.4
100
AcDbSpline
210
0.0
220
0.0
230
1.0
 70
     8
 71
     3
 72
    14
 73
    10
 74
     0
 42
0.0000000001
 43
0.0000000001
 40
0.5000635922576412
 40
0.5000635922576412
 40
0.5000635922576412
 40
0.5000635922576412
 40
0.6250000000000001
 40
0.6250000000000001
 40
0.6875000000000001
 40
0.6875000000000001
 40
0.7500000000000001
 40
0.7500000000000001
 40
1.0
 40
1.0
 40
1.0
 40
1.0
 10
979.560107620087
 20
427.360113388063
 30
0.0
 10
979.5601083643447
 20
427.3601128555053
 30
0.0
 10
979.6038262414326
 20
427.3255649047465
 30
0.0
 10
979.7357700944475
 20
427.2222590471668
 30
0.0
 10
979.7910838449517
 20
427.1790522484869
 30
0.0
 10
979.9231388089536
 20
427.0764480737818
 30
0.0
 10
979.9995684101984
 20
427.0172940653012
 30
0.0
 10
980.4315281772101
 20
426.6851449258506
 30
0.0
 10
980.9346520258825
 20
426.3041014583344
 30
0.0
 10
981.5833431848734
 20
425.8358625039164
 30
0.0
  0
SPLINE
  5
94E
330
1F
100
AcDbEntity
  8
1
  6
Continuous
 48
25.4
100
AcDbSpline
210
0.0
220
0.0
230
1.0
 70
     8
 71
     3
 72
    21
 73
    17
 74
     0
 42
0.0000000001
 43
0.0000000001
 40
0.0
 40
0.0
 40
0.0
 40
0.0
 40
0.2499999999999996
 40
0.2499999999999996
 40
0.3124999999999996
 40
0.3124999999999996
 40
0.3749999999999996
 40
0.3749999999999996
 40
0.4999999999999997
 40
0.6249999999999996
 40
0.6249999999999996
 40
0.6874999999999996
 40
0.6874999999999996
 40
0.7499999999999996
 40
0.7499999999999996
 40
1.0
 40
1.0
 40
1.0
 40
1.0
 10
927.9407072200502
 20
425.8358625039158
 30
0.0
 10
927.3675306988298
 20
426.3040486731127
 30
0.0
 10
926.6481263218896
 20
426.6847721877622
 30
0.0
 10
925.5477652742321
 20
427.0166870492048
 30
0.0
 10
925.3175238720659
 20
427.0758039345023
 30
0.0
 10
924.8357506319871
 20
427.1783729894725
 30
0.0
 10
924.583872784393
 20
427.2217804948907
 30
0.0
 10
923.8074879504257
 20
427.3254613369206
 30
0.0
 10
922.7098509621535
 20
427.3946960514338
 30
0.0
 10
921.4893177849072
 20
427.3255999537141
 30
0.0
 10
920.5272896388516
 20
427.2222590471661
 30
0.0
 10
920.1977121534385
 20
427.1790522484861
 30
0.0
 10
919.528201461556
 20
427.0764480737809
 30
0.0
 10
919.1894597404552
 20
427.0172940653006
 30
0.0
 10
917.4764727268058
 20
426.6851449258498
 30
0.0
 10
916.0451446327826
 20
426.3041014583336
 30
0.0
 10
914.5545156544635
 20
425.8358625039156
 30
0.0
  0
LINE
  5
94F
330
1F
100
AcDbEntity
  8
1
  6
Continuous
 48
25.4
100
AcDbLine
 10
910.8956364607756
 20
425.8358625039156
 30
0.0
 11
909.4144898228245
 21
417.8358625039157
 31
0.0
  0
ARC
  5
950
330
1F
100
AcDbEntity
  8
1
  6
Continuous
 48
25.4
100
AcDbCircle
 10
-3107.059212270109
 20
-80.90404108972739
 30
0.0
 40
4116.29408147855
100
AcDbArc
 50
6.959190389150482
 51
7.071384439757586
  0
LINE
  5
951
330
1F
100
AcDbEntity
  8
1
  6
Continuous
 48
25.4
100
AcDbLine
 10
936.8629566148635
 20
417.835862503916
 30
0.0
 11
936.7740229925367
 21
425.8358625039159
 31
0.0
  0
ARC
  5
952
330
1F
100
AcDbEntity
  8
1
  6
Continuous
 48
25.4
100
AcDbCircle
 10
-1890.466547209223
 20
453.4754108798711
 30
0.0
 40
2846.305706355594
100
AcDbArc
 50
359.2825615802424
 51
359.4436105876654
  0
LINE
  5
953
330
1F
100
AcDbEntity
  8
1
  6
Continuous
 48
25.4
100
AcDbLine
 10
983.0644898228246
 20
417.8358625039165
 30
0.0
 11
981.5833431848734
 21
425.8358625039164
 31
0.0
  0
LINE
  5
954
330
1F
100
AcDbEntity
  8
1
  6
Continuous
 48
25.4
100
AcDbLine
 10
936.7740229925367
 20
425.8358625039159
 30
0.0
 11
927.9407072200502
 21
425.8358625039158
 31
0.0
  0
LINE
  5
955
330
1F
100
AcDbEntity
  8
1
  6
Continuous
 48
25.4
100
AcDbLine
 10
909.4144898228245
 20
417.8358625039157
 30
0.0
 11
913.5700723902596
 21
417.8358625039157
 31
0.0
  0
LINE
  5
956
330
1F
100
AcDbEntity
  8
1
  6
Continuous
 48
25.4
100
AcDbLine
 10
914.5545156544635
 20
425.8358625039156
 30
0.0
 11
910.8956364607756
 21
425.8358625039155
 31
0.0
  0
LINE
  5
957
330
1F
100
AcDbEntity
  8
1
  6
Continuous
 48
25.4
100
AcDbLine
 10
918.2281333505306
 20
429.8358625039157
 30
0.0
 11
974.2508462951185
 21
429.8358625039164
 31
0.0
  0
LINE
  5
958
330
1F
100
AcDbEntity
  8
1
  6
Continuous
 48
25.4
100
AcDbLine
 10
634.2394898228246
 20
412.8358625039124
 30
0.0
 11
658.2394898228247
 21
412.8358625039127
 31
0.0
  0
LINE
  5
95A
330
1F
100
AcDbEntity
  8
1
  6
Continuous
 48
25.4
100
AcDbLine
 10
657.2394898228246
 20
433.8358625039128
 30
0.0
 11
635.2394898228246
 21
433.8358625039124
 31
0.0
  0
ARC
  5
95B
330
1F
100
AcDbEntity
  8
1
  6
Continuous
 48
25.4
100
AcDbCircle
 10
634.2394898228246
 20
414.8358625039124
 30
0.0
 40
2.000000000000002
100
AcDbArc
 50
180.0
 51
270.0
  0
LINE
  5
95C
330
1F
100
AcDbEntity
  8
1
  6
Continuous
 48
25.4
100
AcDbLine
 10
635.2394898228246
 20
433.8358625039124
 30
0.0
 11
632.2394898228246
 21
429.8358625039124
 31
0.0
  0
LINE
  5
95D
330
1F
100
AcDbEntity
  8
1
  6
Continuous
 48
25.4
100
AcDbLine
 10
618.2281333505305
 20
429.8358625039122
 30
0.0
 11
609.6501056684926
 21
425.8358625039121
 31
0.0
  0
LINE
  5
95E
330
1F
100
AcDbEntity
  8
1
  6
Continuous
 48
25.4
100
AcDbLine
 10
632.2394898228246
 20
417.8358625039123
 30
0.0
 11
632.2394898228246
 21
414.8358625039125
 31
0.0
  0
ARC
  5
95F
330
1F
100
AcDbEntity
  8
1
  6
Continuous
 48
25.4
100
AcDbCircle
 10
658.2394898228247
 20
414.8358625039128
 30
0.0
 40
2.000000000000002
100
AcDbArc
 50
270.0000000000041
 51
0.0
  0
LINE
  5
960
330
1F
100
AcDbEntity
  8
1
  6
Continuous
 48
25.4
100
AcDbLine
 10
660.2394898228246
 20
429.8358625039127
 30
0.0
 11
657.2394898228246
 21
433.8358625039128
 31
0.0
  0
LINE
  5
961
330
1F
100
AcDbEntity
  8
1
  6
Continuous
 48
25.4
100
AcDbLine
 10
609.6501056684926
 20
425.8358625039121
 30
0.0
 11
608.2394898228247
 21
417.8358625039122
 31
0.0
  0
LINE
  5
962
330
1F
100
AcDbEntity
  8
1
  6
Continuous
 48
25.4
100
AcDbLine
 10
682.8288739771571
 20
425.835862503913
 30
0.0
 11
674.2508462951185
 21
429.8358625039129
 31
0.0
  0
LINE
  5
963
330
1F
100
AcDbEntity
  8
1
  6
Continuous
 48
25.4
100
AcDbLine
 10
684.2394898228246
 20
417.835862503913
 30
0.0
 11
682.8288739771571
 21
425.835862503913
 31
0.0
  0
LINE
  5
964
330
1F
100
AcDbEntity
  8
1
  6
Continuous
 48
25.4
100
AcDbLine
 10
660.2394898228246
 20
414.8358625039128
 30
0.0
 11
660.2394898228246
 21
417.8358625039128
 31
0.0
  0
LINE
  5
965
330
1F
100
AcDbEntity
  8
1
  6
Continuous
 48
25.4
100
AcDbLine
 10
623.9690316350596
 20
425.8358625039122
 30
0.0
 11
617.2083044371001
 21
425.8358625039122
 31
0.0
  0
LINE
  5
966
330
1F
100
AcDbEntity
  8
1
  6
Continuous
 48
25.4
100
AcDbLine
 10
609.9637497659946
 20
425.8358625039121
 30
0.0
 11
609.650105668492
 21
425.8358625039121
 31
0.0
  0
LINE
  5
967
330
1F
100
AcDbEntity
  8
1
  6
Continuous
 48
25.4
100
AcDbLine
 10
651.0200458702541
 20
425.8358625039125
 30
0.0
 11
641.458933775395
 21
425.8358625039124
 31
0.0
  0
LINE
  5
968
330
1F
100
AcDbEntity
  8
1
  6
Continuous
 48
25.4
100
AcDbLine
 10
668.9945943364172
 20
417.8358625039129
 30
0.0
 11
651.669020102921
 21
417.8358625039126
 31
0.0
  0
LINE
  5
969
330
1F
100
AcDbEntity
  8
1
  6
Continuous
 48
25.4
100
AcDbLine
 10
640.8099595427281
 20
417.8358625039124
 30
0.0
 11
623.4843853092326
 21
417.8358625039122
 31
0.0
  0
LINE
  5
96A
330
1F
100
AcDbEntity
  8
1
  6
Continuous
 48
25.4
100
AcDbLine
 10
615.8058699498046
 20
417.8358625039122
 30
0.0
 11
608.6293821263886
 21
417.8358625039122
 31
0.0
  0
LINE
  5
96B
330
1F
100
AcDbEntity
  8
1
  6
Continuous
 48
25.4
100
AcDbLine
 10
615.8058699498041
 20
417.8358625039122
 30
0.0
 11
623.4843853092326
 21
417.8358625039122
 31
0.0
  0
LINE
  5
96C
330
1F
100
AcDbEntity
  8
1
  6
Continuous
 48
25.4
100
AcDbLine
 10
608.6293821263886
 20
417.8358625039122
 30
0.0
 11
608.2394898228247
 21
417.8358625039122
 31
0.0
  0
SPLINE
  5
96D
330
1F
100
AcDbEntity
  8
1
  6
Continuous
 48
25.4
100
AcDbSpline
210
0.0
220
0.0
230
1.0
 70
     8
 71
     3
 72
    21
 73
    17
 74
     0
 42
0.0000000001
 43
0.0000000001
 40
0.0
 40
0.0
 40
0.0
 40
0.0
 40
0.2500000000000004
 40
0.2500000000000004
 40
0.3125000000000003
 40
0.3125000000000003
 40
0.3750000000000002
 40
0.3750000000000002
 40
0.5
 40
0.625
 40
0.625
 40
0.6875
 40
0.6875
 40
0.75
 40
0.75
 40
1.0
 40
1.0
 40
1.0
 40
1.0
 10
617.2083044371001
 20
425.8358625039122
 30
0.0
 10
617.24913308806
 20
426.3040486731091
 30
0.0
 10
617.1318540088781
 20
426.6847721877585
 30
0.0
 10
616.7699606120895
 20
427.0166870492011
 30
0.0
 10
616.6866938986956
 20
427.0758039344987
 30
0.0
 10
616.497406065663
 20
427.1783729894687
 30
0.0
 10
616.3911667732666
 20
427.2217804948871
 30
0.0
 10
616.0426585861241
 20
427.325461336917
 30
0.0
 10
615.4960365293816
 20
427.3946960514301
 30
0.0
 10
614.7881687109316
 20
427.3255999537105
 30
0.0
 10
614.1960911046736
 20
427.2222590471625
 30
0.0
 10
613.9877894688151
 20
427.1790522484826
 30
0.0
 10
613.5539852618391
 20
427.0764480737773
 30
0.0
 10
613.329296161293
 20
427.017294065297
 30
0.0
 10
612.1684593285781
 20
426.6851449258462
 30
0.0
 10
611.1215414812711
 20
426.3041014583302
 30
0.0
 10
609.9637497659946
 20
425.8358625039121
 30
0.0
  0
ARC
  5
96E
330
1F
100
AcDbEntity
  8
1
  6
Continuous
 48
25.4
100
AcDbCircle
 10
659.764996940422
 20
401.6131168599338
 30
0.0
 40
25.75297217317897
100
AcDbArc
 50
70.14928783349251
 51
109.8507121665093
  0
ARC
  5
96F
330
1F
100
AcDbEntity
  8
1
  6
Continuous
 48
25.4
100
AcDbCircle
 10
632.7139827052275
 20
401.6120697598874
 30
0.0
 40
25.75395705760778
100
AcDbArc
 50
70.1500788706226
 51
109.8499211293788
  0
SPLINE
  5
970
330
1F
100
AcDbEntity
  8
1
  6
Continuous
 48
25.4
100
AcDbSpline
210
0.0
220
0.0
230
1.0
 70
     8
 71
     3
 72
    21
 73
    17
 74
     0
 42
0.0000000001
 43
0.0000000001
 40
0.0
 40
0.0
 40
0.0
 40
0.0
 40
0.2500000000000004
 40
0.2500000000000004
 40
0.3125000000000004
 40
0.3125000000000004
 40
0.3750000000000004
 40
0.3750000000000004
 40
0.5000000000000006
 40
0.6250000000000006
 40
0.6250000000000006
 40
0.6875000000000006
 40
0.6875000000000006
 40
0.7500000000000005
 40
0.7500000000000005
 40
1.0
 40
1.0
 40
1.0
 40
1.0
 10
682.5152298796541
 20
425.835862503913
 30
0.0
 10
681.3575686838296
 20
426.30404867311
 30
0.0
 10
680.3114194684651
 20
426.6847721877593
 30
0.0
 10
679.1519053145201
 20
427.016687049202
 30
0.0
 10
678.9274983052941
 20
427.0758039344995
 30
0.0
 10
678.4942786873505
 20
427.1783729894694
 30
0.0
 10
678.2853534517421
 20
427.2217804948879
 30
0.0
 10
677.6921545288296
 20
427.3254613369178
 30
0.0
 10
676.9836482165251
 20
427.394696051431
 30
0.0
 10
676.437341061778
 20
427.3255999537112
 30
0.0
 10
676.0891466211014
 20
427.2222590471632
 30
0.0
 10
675.9830514691576
 20
427.1790522484832
 30
0.0
 10
675.7932530189971
 20
427.0764480737781
 30
0.0
 10
675.7097874069882
 20
427.0172940652978
 30
0.0
 10
675.347108149494
 20
426.685144925847
 30
0.0
 10
675.2298419544001
 20
426.3041014583309
 30
0.0
 10
675.2706752085491
 20
425.8358625039129
 30
0.0
  0
LINE
  5
971
330
1F
100
AcDbEntity
  8
1
  6
Continuous
 48
25.4
100
AcDbLine
 10
608.6293821263886
 20
417.8358625039122
 30
0.0
 11
609.9637497659946
 21
425.8358625039121
 31
0.0
  0
ARC
  5
972
330
1F
100
AcDbEntity
  8
1
  6
Continuous
 48
25.4
100
AcDbCircle
 10
-2422.797022427208
 20
234.5473617217429
 30
0.0
 40
3097.219733246061
100
AcDbArc
 50
3.392654614601044
 51
3.540918781463334
  0
LINE
  5
973
330
1F
100
AcDbEntity
  8
1
  6
Continuous
 48
25.4
100
AcDbLine
 10
651.669020102921
 20
417.8358625039126
 30
0.0
 11
651.0200458702541
 21
425.8358625039126
 31
0.0
  0
ARC
  5
974
330
1F
100
AcDbEntity
  8
1
  6
Continuous
 48
25.4
100
AcDbCircle
 10
-2459.381720983683
 20
673.3552500998889
 30
0.0
 40
3110.703877491812
100
AcDbArc
 50
355.288302297195
 51
355.4361376758941
  0
LINE
  5
975
330
1F
100
AcDbEntity
  8
1
  6
Continuous
 48
25.4
100
AcDbLine
 10
623.4843853092326
 20
417.8358625039123
 30
0.0
 11
623.9690316350596
 21
425.8358625039122
 31
0.0
  0
ARC
  5
976
330
1F
100
AcDbEntity
  8
1
  6
Continuous
 48
25.4
100
AcDbCircle
 10
-7048.398148885278
 20
1765.52679312009
 30
0.0
 40
7781.792472611495
100
AcDbArc
 50
350.0269374223019
 51
350.0867380565403
  0
LINE
  5
977
330
1F
100
AcDbEntity
  8
1
  6
Continuous
 48
25.4
100
AcDbLine
 10
675.2706752085491
 20
425.8358625039129
 30
0.0
 11
668.5099480105897
 21
425.8358625039129
 31
0.0
  0
LINE
  5
978
330
1F
100
AcDbEntity
  8
1
  6
Continuous
 48
25.4
100
AcDbLine
 10
676.673109695845
 20
417.8358625039129
 30
0.0
 11
675.2706752085491
 21
425.8358625039129
 31
0.0
  0
LINE
  5
979
330
1F
100
AcDbEntity
  8
1
  6
Continuous
 48
25.4
100
AcDbLine
 10
683.8495975192606
 20
417.835862503913
 30
0.0
 11
684.2394898228246
 21
417.835862503913
 31
0.0
  0
LINE
  5
97A
330
1F
100
AcDbEntity
  8
1
  6
Continuous
 48
25.4
100
AcDbLine
 10
682.5152298796541
 20
425.835862503913
 30
0.0
 11
682.8288739771567
 21
425.835862503913
 31
0.0
  0
LINE
  5
97B
330
1F
100
AcDbEntity
  8
1
  6
Continuous
 48
25.4
100
AcDbLine
 10
618.2281333505305
 20
429.8358625039122
 30
0.0
 11
674.2508462951185
 21
429.8358625039129
 31
0.0
  0
LINE
  5
97C
330
1F
100
AcDbEntity
  8
1
  6
Continuous
 48
25.4
100
AcDbLine
 10
640.8099595427281
 20
417.8358625039124
 30
0.0
 11
651.669020102921
 21
417.8358625039126
 31
0.0
  0
LINE
  5
97D
330
1F
100
AcDbEntity
  8
1
  6
Continuous
 48
25.4
100
AcDbLine
 10
668.9945943364172
 20
417.8358625039129
 30
0.0
 11
676.673109695845
 21
417.835862503913
 31
0.0
  0
ARC
  5
97E
330
1F
100
AcDbEntity
  8
1
  6
Continuous
 48
25.4
100
AcDbCircle
 10
-6960.074307676712
 20
-853.0284412720416
 30
0.0
 40
7748.849511187994
100
AcDbArc
 50
9.439544516722017
 51
9.499514528324114
  0
LINE
  5
97F
330
1F
100
AcDbEntity
  8
1
  6
Continuous
 48
25.4
100
AcDbLine
 10
683.8495975192606
 20
417.835862503913
 30
0.0
 11
676.673109695845
 21
417.835862503913
 31
0.0
  0
LINE
  5
980
330
1F
100
AcDbEntity
  8
1
  6
Continuous
 48
25.4
100
AcDbLine
 10
874.2394898228246
 20
441.8358625039143
 30
0.0
 11
874.2394898228246
 21
441.4164190875158
 31
0.0
  0
LINE
  5
981
330
1F
100
AcDbEntity
  8
1
  6
Continuous
 48
25.4
100
AcDbLine
 10
867.7394898228246
 20
441.4164190875158
 30
0.0
 11
867.7394898228246
 21
441.8358625039143
 31
0.0
  0
LINE
  5
982
330
1F
100
AcDbEntity
  8
1
  6
Continuous
 48
25.4
100
AcDbLine
 10
874.2394898228246
 20
440.835862503915
 30
0.0
 11
870.9894898228242
 21
440.835862503915
 31
0.0
  0
LINE
  5
983
330
1F
100
AcDbEntity
  8
1
  6
Continuous
 48
25.4
100
AcDbLine
 10
867.7394898228246
 20
441.4164190875158
 30
0.0
 11
870.9894898228247
 21
440.835862503915
 31
0.0
  0
LINE
  5
984
330
1F
100
AcDbEntity
  8
1
  6
Continuous
 48
25.4
100
AcDbLine
 10
870.9894898228242
 20
440.835862503915
 30
0.0
 11
864.4894898228246
 21
440.835862503915
 31
0.0
  0
LINE
  5
985
330
1F
100
AcDbEntity
  8
1
  6
Continuous
 48
25.4
100
AcDbLine
 10
864.4894898228246
 20
440.835862503915
 30
0.0
 11
861.2394898228247
 21
440.835862503915
 31
0.0
  0
LINE
  5
986
330
1F
100
AcDbEntity
  8
1
  6
Continuous
 48
25.4
100
AcDbLine
 10
874.2394898228246
 20
440.835862503915
 30
0.0
 11
874.2394898228246
 21
441.4164190875158
 31
0.0
  0
LINE
  5
987
330
1F
100
AcDbEntity
  8
1
  6
Continuous
 48
25.4
100
AcDbLine
 10
861.2394898228247
 20
441.4164190875158
 30
0.0
 11
861.2394898228247
 21
441.8358625039142
 31
0.0
  0
ARC
  5
988
330
1F
100
AcDbEntity
  8
1
  6
Continuous
 48
25.4
100
AcDbCircle
 10
864.3752544814676
 20
450.8625127861098
 30
0.0
 40
10.02730101246844
100
AcDbArc
 50
270.6527523719528
 51
289.6034056284646
  0
LINE
  5
989
330
1F
100
AcDbEntity
  8
1
  6
Continuous
 48
25.4
100
AcDbLine
 10
861.2394898228247
 20
441.4164190875158
 30
0.0
 11
864.4894898228246
 21
440.835862503915
 31
0.0
  0
ARC
  5
98A
330
1F
100
AcDbEntity
  8
1
  6
Continuous
 48
25.4
100
AcDbCircle
 10
870.8752544814677
 20
450.8625127861098
 30
0.0
 40
10.02730101246848
100
AcDbArc
 50
270.652752371952
 51
289.6034056284637
  0
LINE
  5
98B
330
1F
100
AcDbEntity
  8
1
  6
Continuous
 48
25.4
100
AcDbLine
 10
861.2394898228247
 20
440.835862503915
 30
0.0
 11
861.2394898228247
 21
441.4164190875158
 31
0.0
  0
LINE
  5
98C
330
1F
100
AcDbEntity
  8
1
  6
Continuous
 48
25.4
100
AcDbLine
 10
863.7394898228247
 20
440.835862503915
 30
0.0
 11
863.7394898228247
 21
438.835862503915
 31
0.0
  0
LINE
  5
98D
330
1F
100
AcDbEntity
  8
1
  6
Continuous
 48
25.4
100
AcDbLine
 10
871.7394898228247
 20
438.835862503915
 30
0.0
 11
871.7394898228247
 21
440.8358625039149
 31
0.0
  0
LINE
  5
98E
330
1F
100
AcDbEntity
  8
1
  6
Continuous
 48
25.4
100
AcDbLine
 10
871.7394898228247
 20
438.835862503915
 30
0.0
 11
863.7394898228247
 21
438.835862503915
 31
0.0
  0
LINE
  5
98F
330
1F
100
AcDbEntity
  8
1
  6
Continuous
 48
25.4
100
AcDbLine
 10
864.5044898228247
 20
440.835862503915
 30
0.0
 11
864.5044898228247
 21
438.835862503915
 31
0.0
  0
LINE
  5
990
330
1F
100
AcDbEntity
  8
1
  6
Continuous
 48
25.4
100
AcDbLine
 10
870.9744898228247
 20
440.8358625039149
 30
0.0
 11
870.9744898228247
 21
438.835862503915
 31
0.0
  0
LINE
  5
991
330
1F
100
AcDbEntity
  8
1
  6
Continuous
 48
25.4
100
AcDbLine
 10
621.3200746330056
 20
461.2379263650244
 30
0.0
 11
621.3200746330056
 21
459.8358625039121
 31
0.0
  0
LINE
  5
992
330
1F
100
AcDbEntity
  8
1
  6
Continuous
 48
25.4
100
AcDbLine
 10
620.1829944308476
 20
459.8358625039121
 30
0.0
 11
620.1829944308476
 21
460.2986023457741
 31
0.0
  0
LINE
  5
993
330
1F
100
AcDbEntity
  8
1
  6
Continuous
 48
25.4
100
AcDbLine
 10
623.439489822824
 20
459.8358625039124
 30
0.0
 11
623.439489822824
 21
461.8358625039124
 31
0.0
  0
LINE
  5
994
330
1F
100
AcDbEntity
  8
1
  6
Continuous
 48
25.4
100
AcDbLine
 10
622.4394898228241
 20
459.8358625039123
 30
0.0
 11
622.4394898228241
 21
461.6358625039121
 31
0.0
  0
LINE
  5
995
330
1F
100
AcDbEntity
  8
1
  6
Continuous
 48
25.4
100
AcDbLine
 10
622.4394898228241
 20
461.3358625039124
 30
0.0
 11
621.3200746330056
 21
461.2379263650246
 31
0.0
  0
ARC
  5
996
330
1F
100
AcDbEntity
  8
1
  6
Continuous
 48
25.4
100
AcDbCircle
 10
628.8394898228241
 20
457.8358625039123
 30
0.0
 40
9.000000000000005
100
AcDbArc
 50
164.1191499917209
 51
167.1604115930969
  0
LINE
  5
997
330
1F
100
AcDbEntity
  8
1
  6
Continuous
 48
25.4
100
AcDbLine
 10
623.439489822824
 20
461.6358625039124
 30
0.0
 11
622.4394898228241
 21
461.6358625039124
 31
0.0
  0
LINE
  5
998
330
1F
100
AcDbEntity
  8
1
  6
Continuous
 48
25.4
100
AcDbLine
 10
624.2394898228241
 20
461.8358625039122
 30
0.0
 11
623.439489822824
 21
461.8358625039122
 31
0.0
  0
ARC
  5
999
330
1F
100
AcDbEntity
  8
1
  6
Continuous
 48
25.4
100
AcDbCircle
 10
621.4333770985777
 20
459.9428732575051
 30
0.0
 40
1.299999999999998
100
AcDbArc
 50
94.99999999999889
 51
164.1191499917201
  0
LINE
  5
99A
330
1F
100
AcDbEntity
  8
1
  6
Continuous
 48
25.4
100
AcDbLine
 10
624.2394898228241
 20
468.8358625039123
 30
0.0
 11
626.2394898228237
 21
468.8358625039123
 31
0.0
  0
LINE
  5
99B
330
1F
100
AcDbEntity
  8
1
  6
Continuous
 48
25.4
100
AcDbLine
 10
624.2394898228241
 20
463.8358625039123
 30
0.0
 11
624.2394898228241
 21
459.8358625039124
 31
0.0
  0
LINE
  5
99D
330
1F
100
AcDbEntity
  8
1
  6
Continuous
 48
25.4
100
AcDbLine
 10
624.2394898228241
 20
463.8358625039123
 30
0.0
 11
624.2394898228241
 21
468.8358625039123
 31
0.0
  0
LINE
  5
99E
330
1F
100
AcDbEntity
  8
1
  6
Continuous
 48
25.4
100
AcDbLine
 10
620.1829944308476
 20
459.8358625039121
 30
0.0
 11
620.1829944308476
 21
460.2986023457741
 31
0.0
  0
LINE
  5
99F
330
1F
100
AcDbEntity
  8
1
  6
Continuous
 48
25.4
100
AcDbLine
 10
622.4394898228241
 20
459.8358625039123
 30
0.0
 11
622.4394898228241
 21
461.6358625039121
 31
0.0
  0
LINE
  5
9A0
330
1F
100
AcDbEntity
  8
1
  6
Continuous
 48
25.4
100
AcDbLine
 10
621.3200746330056
 20
461.2379263650244
 30
0.0
 11
621.3200746330056
 21
459.8358625039121
 31
0.0
  0
ARC
  5
9A1
330
1F
100
AcDbEntity
  8
1
  6
Continuous
 48
25.4
100
AcDbCircle
 10
628.8394898228241
 20
457.8358625039123
 30
0.0
 40
9.000000000000005
100
AcDbArc
 50
164.1191499917209
 51
168.0005491471685
  0
LINE
  5
9A2
330
1F
100
AcDbEntity
  8
1
  6
Continuous
 48
25.4
100
AcDbLine
 10
623.439489822824
 20
459.8358625039124
 30
0.0
 11
623.439489822824
 21
461.8358625039124
 31
0.0
  0
LINE
  5
9A3
330
1F
100
AcDbEntity
  8
1
  6
Continuous
 48
25.4
100
AcDbLine
 10
624.2394898228241
 20
461.8358625039122
 30
0.0
 11
623.439489822824
 21
461.8358625039122
 31
0.0
  0
LINE
  5
9A4
330
1F
100
AcDbEntity
  8
1
  6
Continuous
 48
25.4
100
AcDbLine
 10
622.4394898228241
 20
461.3358625039124
 30
0.0
 11
621.3200746330056
 21
461.2379263650246
 31
0.0
  0
ARC
  5
9A5
330
1F
100
AcDbEntity
  8
1
  6
Continuous
 48
25.4
100
AcDbCircle
 10
621.4333770985777
 20
459.9428732575051
 30
0.0
 40
1.299999999999998
100
AcDbArc
 50
94.99999999999889
 51
164.1191499917201
  0
LINE
  5
9A6
330
1F
100
AcDbEntity
  8
1
  6
Continuous
 48
25.4
100
AcDbLine
 10
623.439489822824
 20
461.6358625039124
 30
0.0
 11
622.4394898228241
 21
461.6358625039124
 31
0.0
  0
LINE
  5
9A7
330
1F
100
AcDbEntity
  8
1
  6
Continuous
 48
25.4
100
AcDbLine
 10
986.2394898228245
 20
518.8358625039134
 30
0.0
 11
986.2394898228245
 21
470.3358625039133
 31
0.0
  0
LINE
  5
9A8
330
1F
100
AcDbEntity
  8
1
  6
Continuous
 48
25.4
100
AcDbLine
 10
974.7394898228245
 20
530.335862503913
 30
0.0
 11
941.2394898228246
 21
530.335862503913
 31
0.0
  0
LINE
  5
9A9
330
1F
100
AcDbEntity
  8
1
  6
Continuous
 48
25.4
100
AcDbLine
 10
606.2394898228246
 20
470.3358625039133
 30
0.0
 11
606.2394898228246
 21
518.8358625039134
 31
0.0
  0
LINE
  5
9AA
330
1F
100
AcDbEntity
  8
1
  6
Continuous
 48
25.4
100
AcDbLine
 10
651.2394898228246
 20
530.335862503913
 30
0.0
 11
941.2394898228246
 21
530.335862503913
 31
0.0
  0
LINE
  5
9AE
330
1F
100
AcDbEntity
  8
1
  6
Continuous
 48
25.4
100
AcDbLine
 10
651.2394898228246
 20
470.3358625039133
 30
0.0
 11
941.2394898228246
 21
470.3358625039133
 31
0.0
  0
LINE
  5
9B0
330
1F
100
AcDbEntity
  8
1
  6
Continuous
 48
25.4
100
AcDbLine
 10
986.2394898228245
 20
470.3358625039133
 30
0.0
 11
941.2394898228246
 21
470.3358625039133
 31
0.0
  0
LINE
  5
9B2
330
1F
100
AcDbEntity
  8
1
  6
Continuous
 48
25.4
100
AcDbLine
 10
651.2394898228246
 20
470.3358625039133
 30
0.0
 11
606.2394898228246
 21
470.3358625039133
 31
0.0
  0
ARC
  5
9B3
330
1F
100
AcDbEntity
  8
1
  6
Continuous
 48
25.4
100
AcDbCircle
 10
974.7394898228245
 20
518.8358625039134
 30
0.0
 40
11.49999999999999
100
AcDbArc
 50
0.0
 51
90.0
  0
ARC
  5
9B5
330
1F
100
AcDbEntity
  8
1
  6
Continuous
 48
25.4
100
AcDbCircle
 10
617.7394898228246
 20
518.8358625039134
 30
0.0
 40
11.50000000000001
100
AcDbArc
 50
90.0
 51
180.0
  0
LINE
  5
9B6
330
1F
100
AcDbEntity
  8
1
  6
Continuous
 48
25.4
100
AcDbLine
 10
651.2394898228246
 20
530.335862503913
 30
0.0
 11
617.7394898228246
 21
530.335862503913
 31
0.0
  0
LINE
  5
9B8
330
1F
100
AcDbEntity
  8
1
  6
Continuous
 48
25.4
100
AcDbLine
 10
461.2394898228172
 20
1022.904150304449
 30
0.0
 11
461.2394898228229
 21
559.8358625039099
 31
0.0
  0
LINE
  5
9B9
330
1F
100
AcDbEntity
  8
1
  6
Continuous
 48
25.4
100
AcDbLine
 10
421.2394898228167
 20
1057.835862503909
 30
0.0
 11
421.239489822823
 21
559.8358625039093
 31
0.0
  0
ARC
  5
9BA
330
1F
100
AcDbEntity
  8
1
  6
Continuous
 48
25.4
100
AcDbCircle
 10
561.2394898228226
 20
559.8358625039109
 30
0.0
 40
140.0
100
AcDbArc
 50
180.0000000000006
 51
270.0000000000007
  0
ARC
  5
9BB
330
1F
100
AcDbEntity
  8
1
  6
Continuous
 48
25.4
100
AcDbCircle
 10
561.2394898228226
 20
559.8358625039109
 30
0.0
 40
100.0
100
AcDbArc
 50
180.0000000000006
 51
270.0000000000007
  0
LINE
  5
9BC
330
1F
100
AcDbEntity
  8
1
  6
Continuous
 48
25.4
100
AcDbLine
 10
626.2394898228241
 20
459.8358625039123
 30
0.0
 11
561.2394898228241
 21
459.8358625039113
 31
0.0
  0
LINE
  5
9BD
330
1F
100
AcDbEntity
  8
1
  6
Continuous
 48
25.4
100
AcDbLine
 10
561.2394898228246
 20
419.8358625039113
 30
0.0
 11
608.5921437842415
 21
419.835862503912
 31
0.0
  0
LINE
  5
9BE
330
1F
100
AcDbEntity
  8
1
  6
Continuous
 48
25.4
100
AcDbLine
 10
683.8868358614076
 20
419.8358625039128
 30
0.0
 11
721.2394898228247
 21
419.8358625039135
 31
0.0
  0
LINE
  5
9BF
330
1F
100
AcDbEntity
  8
1
  6
Continuous
 48
25.4
100
AcDbLine
 10
721.2394898228247
 20
441.8358625039142
 30
0.0
 11
721.2394898228247
 21
419.8358625039134
 31
0.0
  0
LINE
  5
9C0
330
1F
100
AcDbEntity
  8
1
  6
Continuous
 48
25.4
100
AcDbLine
 10
482.2394898228243
 20
444.2547221738376
 30
0.0
 11
482.2394898228243
 21
441.8358625039099
 31
0.0
  0
LINE
  5
9C1
330
1F
100
AcDbEntity
  8
1
  6
Continuous
 48
25.4
100
AcDbLine
 10
427.2394898228244
 20
444.83586250391
 30
0.0
 11
481.3958927094683
 21
444.83586250391
 31
0.0
  0
LINE
  5
9C2
330
1F
100
AcDbEntity
  8
1
  6
Continuous
 48
25.4
100
AcDbLine
 10
424.2394898228245
 20
518.8358625039099
 30
0.0
 11
424.2394898228245
 21
444.83586250391
 31
0.0
  0
LINE
  5
9C3
330
1F
100
AcDbEntity
  8
1
  6
Continuous
 48
25.4
100
AcDbLine
 10
427.2394898228244
 20
441.83586250391
 30
0.0
 11
482.2394898228243
 21
441.83586250391
 31
0.0
  0
LINE
  5
9C4
330
1F
100
AcDbEntity
  8
1
  6
Continuous
 48
25.4
100
AcDbLine
 10
427.2394898228244
 20
518.8358625039099
 30
0.0
 11
427.2394898228244
 21
444.83586250391
 31
0.0
  0
ARC
  5
9C5
330
1F
100
AcDbEntity
  8
1
  6
Continuous
 48
25.4
100
AcDbCircle
 10
427.2394898228244
 20
444.83586250391
 30
0.0
 40
3.000000000000003
100
AcDbArc
 50
180.0
 51
270.0
  0
LINE
  5
9C6
330
1F
100
AcDbEntity
  8
1
  6
Continuous
 48
25.4
100
AcDbLine
 10
424.2394898228245
 20
518.8358625039099
 30
0.0
 11
427.2394898228244
 21
518.8358625039099
 31
0.0
  0
LINE
  5
9C7
330
1F
100
AcDbEntity
  8
1
  6
Continuous
 48
25.4
100
AcDbLine
 10
456.2394898228245
 20
412.8358625039099
 30
0.0
 11
432.2394898228248
 21
412.8358625039099
 31
0.0
  0
LINE
  5
9C9
330
1F
100
AcDbEntity
  8
1
  6
Continuous
 48
25.4
100
AcDbLine
 10
455.2394898228246
 20
433.8358625039099
 30
0.0
 11
433.2394898228247
 21
433.8358625039099
 31
0.0
  0
LINE
  5
9CA
330
1F
100
AcDbEntity
  8
1
  6
Continuous
 48
25.4
100
AcDbLine
 10
433.2394898228247
 20
433.8358625039099
 30
0.0
 11
430.2394898228246
 21
429.8358625039099
 31
0.0
  0
ARC
  5
9CB
330
1F
100
AcDbEntity
  8
1
  6
Continuous
 48
25.4
100
AcDbCircle
 10
432.2394898228247
 20
414.8358625039099
 30
0.0
 40
2.000000000000002
100
AcDbArc
 50
180.0
 51
270.0
  0
LINE
  5
9CC
330
1F
100
AcDbEntity
  8
1
  6
Continuous
 48
25.4
100
AcDbLine
 10
416.2281333505306
 20
429.8358625039099
 30
0.0
 11
410.9153126433719
 21
427.3584535217573
 31
0.0
  0
LINE
  5
9CD
330
1F
100
AcDbEntity
  8
1
  6
Continuous
 48
25.4
100
AcDbLine
 10
430.2394898228246
 20
417.8358625039099
 30
0.0
 11
430.2394898228246
 21
414.8358625039099
 31
0.0
  0
LINE
  5
9CE
330
1F
100
AcDbEntity
  8
1
  6
Continuous
 48
25.4
100
AcDbLine
 10
458.2394898228247
 20
429.8358625039099
 30
0.0
 11
455.2394898228246
 21
433.8358625039099
 31
0.0
  0
ARC
  5
9CF
330
1F
100
AcDbEntity
  8
1
  6
Continuous
 48
25.4
100
AcDbCircle
 10
456.2394898228246
 20
414.8358625039099
 30
0.0
 40
2.000000000000002
100
AcDbArc
 50
270.0
 51
0.0
  0
LINE
  5
9D0
330
1F
100
AcDbEntity
  8
1
  6
Continuous
 48
25.4
100
AcDbLine
 10
477.5636670022773
 20
427.3584535217573
 30
0.0
 11
472.2508462951188
 21
429.8358625039099
 31
0.0
  0
LINE
  5
9D1
330
1F
100
AcDbEntity
  8
1
  6
Continuous
 48
25.4
100
AcDbLine
 10
458.2394898228247
 20
414.8358625039099
 30
0.0
 11
458.2394898228247
 21
417.8358625039099
 31
0.0
  0
LINE
  5
9D2
330
1F
100
AcDbEntity
  8
1
  6
Continuous
 48
25.4
100
AcDbLine
 10
462.5382724255992
 20
425.8358625039099
 30
0.0
 11
453.704956653113
 21
425.8358625039099
 31
0.0
  0
LINE
  5
9D3
330
1F
100
AcDbEntity
  8
1
  6
Continuous
 48
25.4
100
AcDbLine
 10
434.7740229925364
 20
425.8358625039099
 30
0.0
 11
425.9407072200501
 21
425.8358625039099
 31
0.0
  0
LINE
  5
9D4
330
1F
100
AcDbEntity
  8
1
  6
Continuous
 48
25.4
100
AcDbLine
 10
412.5545156544637
 20
425.8358625039099
 30
0.0
 11
408.8956364607757
 21
425.8358625039099
 31
0.0
  0
LINE
  5
9D5
330
1F
100
AcDbEntity
  8
1
  6
Continuous
 48
25.4
100
AcDbLine
 10
453.6160230307859
 20
417.8358625039099
 30
0.0
 11
434.8629566148632
 21
417.8358625039099
 31
0.0
  0
LINE
  5
9D6
330
1F
100
AcDbEntity
  8
1
  6
Continuous
 48
25.4
100
AcDbLine
 10
424.8304928210002
 20
417.8358625039099
 30
0.0
 11
411.5700723902597
 21
417.8358625039099
 31
0.0
  0
LINE
  5
9D7
330
1F
100
AcDbEntity
  8
1
  6
Continuous
 48
25.4
100
AcDbLine
 10
476.9089072553894
 20
417.8358625039099
 30
0.0
 11
463.648486824649
 21
417.8358625039099
 31
0.0
  0
LINE
  5
9D8
330
1F
100
AcDbEntity
  8
1
  6
Continuous
 48
25.4
100
AcDbLine
 10
424.8304928210002
 20
417.8358625039099
 30
0.0
 11
434.8629566148632
 21
417.8358625039099
 31
0.0
  0
LINE
  5
9D9
330
1F
100
AcDbEntity
  8
1
  6
Continuous
 48
25.4
100
AcDbLine
 10
407.4144898228245
 20
417.8358625039099
 30
0.0
 11
411.5700723902598
 21
417.8358625039099
 31
0.0
  0
SPLINE
  5
9DA
330
1F
100
AcDbEntity
  8
1
  6
Continuous
 48
25.4
100
AcDbSpline
210
0.0
220
0.0
230
1.0
 70
     8
 71
     3
 72
    21
 73
    17
 74
     0
 42
0.0000000001
 43
0.0000000001
 40
0.0
 40
0.0
 40
0.0
 40
0.0
 40
0.2500000000000004
 40
0.2500000000000004
 40
0.3125000000000003
 40
0.3125000000000003
 40
0.3750000000000002
 40
0.3750000000000002
 40
0.5
 40
0.625
 40
0.625
 40
0.6875
 40
0.6875
 40
0.75
 40
0.75
 40
1.0
 40
1.0
 40
1.0
 40
1.0
 10
425.9407072200501
 20
425.8358625039099
 30
0.0
 10
425.3675306988296
 20
426.3040486731069
 30
0.0
 10
424.6481263218895
 20
426.6847721877561
 30
0.0
 10
423.5477652742323
 20
427.016687049199
 30
0.0
 10
423.3175238720662
 20
427.0758039344965
 30
0.0
 10
422.8357506319873
 20
427.1783729894665
 30
0.0
 10
422.583872784393
 20
427.2217804948849
 30
0.0
 10
421.8074879504256
 20
427.3254613369148
 30
0.0
 10
420.7098509621534
 20
427.3946960514279
 30
0.0
 10
419.489317784907
 20
427.3255999537082
 30
0.0
 10
418.5272896388513
 20
427.2222590471603
 30
0.0
 10
418.1977121534389
 20
427.1790522484803
 30
0.0
 10
417.528201461556
 20
427.076448073775
 30
0.0
 10
417.1894597404551
 20
427.0172940652947
 30
0.0
 10
415.4764727268064
 20
426.6851449258441
 30
0.0
 10
414.0451446327827
 20
426.3041014583277
 30
0.0
 10
412.5545156544637
 20
425.8358625039099
 30
0.0
  0
SPLINE
  5
9DB
330
1F
100
AcDbEntity
  8
1
  6
Continuous
 48
25.4
100
AcDbSpline
210
0.0
220
0.0
230
1.0
 70
     8
 71
     3
 72
    21
 73
    17
 74
     0
 42
0.0000000001
 43
0.0000000001
 40
0.0
 40
0.0
 40
0.0
 40
0.0
 40
0.2499999999999991
 40
0.2499999999999991
 40
0.3124999999999991
 40
0.3124999999999991
 40
0.3749999999999989
 40
0.3749999999999989
 40
0.4999999999999992
 40
0.6249999999999992
 40
0.6249999999999992
 40
0.6874999999999992
 40
0.6874999999999992
 40
0.7499999999999993
 40
0.7499999999999993
 40
1.0
 40
1.0
 40
1.0
 40
1.0
 10
475.9244639911855
 20
425.8358625039099
 30
0.0
 10
474.4340030535205
 20
426.3040486731069
 30
0.0
 10
473.0036722527087
 20
426.6847721877561
 30
0.0
 10
471.2928387069032
 20
427.016687049199
 30
0.0
 10
470.954573199029
 20
427.0758039344965
 30
0.0
 10
470.2861026535244
 20
427.1783729894665
 30
0.0
 10
469.9556323875224
 20
427.2217804948849
 30
0.0
 10
468.9919693722898
 20
427.3254613369148
 30
0.0
 10
467.7704321005927
 20
427.394696078725
 30
0.0
 10
466.6735515402851
 20
427.3255999537082
 30
0.0
 10
465.8981834880308
 20
427.2222590471603
 30
0.0
 10
465.6468314587669
 20
427.1790522484803
 30
0.0
 10
465.1640746879543
 20
427.076448073775
 30
0.0
 10
464.9334207455013
 20
427.0172940652947
 30
0.0
 10
463.8313170927597
 20
426.6851449258441
 30
0.0
 10
463.1115135690818
 20
426.3041014583277
 30
0.0
 10
462.5382724255992
 20
425.8358625039099
 30
0.0
  0
ARC
  5
9DC
330
1F
100
AcDbEntity
  8
1
  6
Continuous
 48
25.4
100
AcDbCircle
 10
444.2394898228246
 20
397.1248299085189
 30
0.0
 40
30.23108425129479
100
AcDbArc
 50
71.75362123220783
 51
108.2463787677921
  0
SPLINE
  5
9DD
330
1F
100
AcDbEntity
  8
1
  6
Continuous
 48
25.4
100
AcDbSpline
210
0.0
220
0.0
230
1.0
 70
     8
 71
     3
 72
    15
 73
    11
 74
     0
 42
0.0000000001
 43
0.0000000001
 40
0.0
 40
0.0
 40
0.0
 40
0.0
 40
0.25
 40
0.25
 40
0.3125
 40
0.3125
 40
0.375
 40
0.375
 40
0.5
 40
0.5000635922576419
 40
0.5000635922576419
 40
0.5000635922576419
 40
0.5000635922576419
 10
408.8956364607757
 20
425.8358625039099
 30
0.0
 10
409.5442544919205
 20
426.3040486731069
 30
0.0
 10
410.0469553871648
 20
426.6847721877561
 30
0.0
 10
410.4786246303334
 20
427.016687049199
 30
0.0
 10
410.5550092080112
 20
427.0758039344965
 30
0.0
 10
410.6870241387068
 20
427.1783729894665
 30
0.0
 10
410.742597370713
 20
427.2217804948849
 30
0.0
 10
410.8750230426537
 20
427.3254613369148
 30
0.0
 10
410.9188504964135
 20
427.3600963189941
 30
0.0
 10
410.9188720259409
 20
427.3601133883276
 30
0.0
 10
410.9188720255619
 20
427.3601133880565
 30
0.0
  0
SPLINE
  5
9DE
330
1F
100
AcDbEntity
  8
1
  6
Continuous
 48
25.4
100
AcDbSpline
210
0.0
220
0.0
230
1.0
 70
     8
 71
     3
 72
    14
 73
    10
 74
     0
 42
0.0000000001
 43
0.0000000001
 40
0.5000635921715407
 40
0.5000635921715407
 40
0.5000635921715407
 40
0.5000635921715407
 40
0.6250000000000006
 40
0.6250000000000006
 40
0.6875000000000006
 40
0.6875000000000006
 40
0.7500000000000005
 40
0.7500000000000005
 40
1.0
 40
1.0
 40
1.0
 40
1.0
 10
477.5601072245984
 20
427.360113374408
 30
0.0
 10
477.5601079691973
 20
427.3601128419117
 30
0.0
 10
477.6038262413721
 20
427.3255649047874
 30
0.0
 10
477.7357700944474
 20
427.2222590471603
 30
0.0
 10
477.7910838449515
 20
427.1790522484803
 30
0.0
 10
477.9231388089538
 20
427.076448073775
 30
0.0
 10
477.9995684101987
 20
427.0172940652947
 30
0.0
 10
478.4315281772103
 20
426.6851449258441
 30
0.0
 10
478.9346520258826
 20
426.3041014583277
 30
0.0
 10
479.5833431848733
 20
425.8358625039099
 30
0.0
  0
LINE
  5
9DF
330
1F
100
AcDbEntity
  8
1
  6
Continuous
 48
25.4
100
AcDbLine
 10
411.5700723902597
 20
417.8358625039099
 30
0.0
 11
412.5545156544637
 21
425.8358625039099
 31
0.0
  0
ARC
  5
9E0
330
1F
100
AcDbEntity
  8
1
  6
Continuous
 48
25.4
100
AcDbCircle
 10
-2392.466547188171
 20
453.4754108796605
 30
0.0
 40
2846.305706334542
100
AcDbArc
 50
359.2825615802414
 51
359.4436105876654
  0
LINE
  5
9E1
330
1F
100
AcDbEntity
  8
1
  6
Continuous
 48
25.4
100
AcDbLine
 10
434.8629566148633
 20
417.8358625039099
 30
0.0
 11
434.7740229925364
 21
425.8358625039099
 31
0.0
  0
LINE
  5
9E2
330
1F
100
AcDbEntity
  8
1
  6
Continuous
 48
25.4
100
AcDbLine
 10
463.648486824649
 20
417.8358625039099
 30
0.0
 11
462.5382724255992
 21
425.8358625039099
 31
0.0
  0
ARC
  5
9E3
330
1F
100
AcDbEntity
  8
1
  6
Continuous
 48
25.4
100
AcDbCircle
 10
-3676.659134950889
 20
991.1045037928664
 30
0.0
 40
4141.358967996579
100
AcDbArc
 50
352.0432676390219
 51
352.1550085195918
  0
ARC
  5
9E4
330
1F
100
AcDbEntity
  8
1
  6
Continuous
 48
25.4
100
AcDbCircle
 10
-3609.059212291768
 20
-80.90404109234222
 30
0.0
 40
4116.294081500365
100
AcDbArc
 50
6.959190389149991
 51
7.071384439756514
  0
LINE
  5
9E5
330
1F
100
AcDbEntity
  8
1
  6
Continuous
 48
25.4
100
AcDbLine
 10
408.8956364607757
 20
425.8358625039099
 30
0.0
 11
407.4144898228245
 21
417.8358625039098
 31
0.0
  0
LINE
  5
9E6
330
1F
100
AcDbEntity
  8
1
  6
Continuous
 48
25.4
100
AcDbLine
 10
479.5833431848737
 20
425.8358625039099
 30
0.0
 11
475.9244639911855
 21
425.8358625039099
 31
0.0
  0
LINE
  5
9E7
330
1F
100
AcDbEntity
  8
1
  6
Continuous
 48
25.4
100
AcDbLine
 10
481.0644898228246
 20
417.8358625039099
 30
0.0
 11
479.5833431848735
 21
425.8358625039099
 31
0.0
  0
LINE
  5
9E8
330
1F
100
AcDbEntity
  8
1
  6
Continuous
 48
25.4
100
AcDbLine
 10
453.6160230307859
 20
417.8358625039099
 30
0.0
 11
463.648486824649
 21
417.8358625039099
 31
0.0
  0
LINE
  5
9E9
330
1F
100
AcDbEntity
  8
1
  6
Continuous
 48
25.4
100
AcDbLine
 10
472.2508462951184
 20
429.8358625039099
 30
0.0
 11
416.2281333505308
 21
429.8358625039099
 31
0.0
  0
LINE
  5
9EA
330
1F
100
AcDbEntity
  8
1
  6
Continuous
 48
25.4
100
AcDbLine
 10
476.9089072553894
 20
417.8358625039099
 30
0.0
 11
481.0644898228244
 21
417.8358625039099
 31
0.0
  0
LINE
  5
9EB
330
1F
100
AcDbEntity
  8
1
  6
Continuous
 48
25.4
100
AcDbLine
 10
439.2394898228241
 20
462.3358625039099
 30
0.0
 11
439.2394898228244
 21
444.83586250391
 31
0.0
  0
LINE
  5
9EC
330
1F
100
AcDbEntity
  8
1
  6
Continuous
 48
25.4
100
AcDbLine
 10
439.2394898228245
 20
441.83586250391
 30
0.0
 11
439.2394898228245
 21
433.8358625039099
 31
0.0
  0
LINE
  5
9ED
330
1F
100
AcDbEntity
  8
1
  6
Continuous
 48
25.4
100
AcDbLine
 10
449.2394898228245
 20
433.8358625039099
 30
0.0
 11
449.2394898228243
 21
441.8358625039099
 31
0.0
  0
LINE
  5
9EE
330
1F
100
AcDbEntity
  8
1
  6
Continuous
 48
25.4
100
AcDbLine
 10
449.2394898228243
 20
444.83586250391
 30
0.0
 11
449.2394898228242
 21
462.3358625039099
 31
0.0
  0
LINE
  5
9EF
330
1F
100
AcDbEntity
  8
1
  6
Continuous
 48
25.4
100
AcDbLine
 10
439.2394898228241
 20
462.3358625039099
 30
0.0
 11
449.2394898228242
 21
462.3358625039099
 31
0.0
  0
LINE
  5
9F0
330
1F
100
AcDbEntity
  8
1
  6
Continuous
 48
25.4
100
AcDbLine
 10
440.1594898228248
 20
433.8358625039099
 30
0.0
 11
440.1594898228245
 21
441.83586250391
 31
0.0
  0
LINE
  5
9F1
330
1F
100
AcDbEntity
  8
1
  6
Continuous
 48
25.4
100
AcDbLine
 10
440.1594898228245
 20
444.83586250391
 30
0.0
 11
440.1594898228243
 21
462.3358625039099
 31
0.0
  0
LINE
  5
9F2
330
1F
100
AcDbEntity
  8
1
  6
Continuous
 48
25.4
100
AcDbLine
 10
448.3194898228245
 20
433.8358625039099
 30
0.0
 11
448.3194898228243
 21
441.8358625039099
 31
0.0
  0
LINE
  5
9F3
330
1F
100
AcDbEntity
  8
1
  6
Continuous
 48
25.4
100
AcDbLine
 10
448.3194898228243
 20
444.83586250391
 30
0.0
 11
448.3194898228242
 21
462.3358625039099
 31
0.0
  0
LINE
  5
9F4
330
1F
100
AcDbEntity
  8
1
  6
Continuous
 48
25.4
100
AcDbLine
 10
458.7394898228167
 20
1070.835862503909
 30
0.0
 11
458.7394898228167
 21
1067.58022180912
 31
0.0
  0
LINE
  5
9F5
330
1F
100
AcDbEntity
  8
1
  6
Continuous
 48
25.4
100
AcDbLine
 10
439.7394898228165
 20
1070.835862503909
 30
0.0
 11
439.7394898228167
 21
1067.58022180912
 31
0.0
  0
ARC
  5
9F6
330
1F
100
AcDbEntity
  8
1
  6
Continuous
 48
25.4
100
AcDbCircle
 10
449.2394898228171
 20
1044.835862503909
 30
0.0
 40
24.64864864864859
100
AcDbArc
 50
65.81031786640166
 51
114.1896821336
  0
LINE
  5
9F7
330
1F
100
AcDbEntity
  8
1
  6
Continuous
 48
25.4
100
AcDbLine
 10
439.1394898228168
 20
1067.704837120188
 30
0.0
 11
439.1394898228168
 21
1067.320209952846
 31
0.0
  0
CIRCLE
  5
9F9
330
1F
100
AcDbEntity
  8
1
  6
Continuous
 48
25.4
100
AcDbCircle
 10
449.2394898228171
 20
1044.835862503909
 30
0.0
 40
22.5
  0
ARC
  5
9FA
330
1F
100
AcDbEntity
  8
1
  6
Continuous
 48
25.4
100
AcDbCircle
 10
449.2394898228171
 20
1044.835862503909
 30
0.0
 40
25.00000000000057
100
AcDbArc
 50
113.8284771643616
 51
66.17152283564021
  0
LINE
  5
9FB
330
1F
100
AcDbEntity
  8
1
  6
Continuous
 48
25.4
100
AcDbLine
 10
459.3394898228168
 20
1067.320209952846
 30
0.0
 11
459.3394898228168
 21
1067.704837120189
 31
0.0
  0
CIRCLE
  5
9FD
330
1F
100
AcDbEntity
  8
1
  6
Continuous
 48
25.4
100
AcDbCircle
 10
449.2394898228171
 20
1044.835862503909
 30
0.0
 40
24.01333093180209
  0
LINE
  5
9FE
330
1F
100
AcDbEntity
  8
1
  6
Continuous
 48
25.4
100
AcDbLine
 10
721.2394898228247
 20
420.3358625039134
 30
0.0
 11
721.239489822824
 21
441.8358625039142
 31
0.0
  0
LINE
  5
A01
330
1F
100
AcDbEntity
  8
1
  6
Continuous
 48
25.4
100
AcDbLine
 10
725.239489822824
 20
441.8358625039142
 30
0.0
 11
725.2394898228247
 21
421.8358625039135
 31
0.0
  0
LINE
  5
A03
330
1F
100
AcDbEntity
  8
1
  6
Continuous
 48
25.4
100
AcDbLine
 10
723.2394898228245
 20
419.8358625039135
 30
0.0
 11
721.2394898228247
 21
419.8358625039135
 31
0.0
  0
ARC
  5
A05
330
1F
100
AcDbEntity
  8
1
  6
Continuous
 48
25.4
100
AcDbCircle
 10
723.2394898228245
 20
421.8358625039135
 30
0.0
 40
2.000000000000002
100
AcDbArc
 50
270.0
 51
0.0
  0
LINE
  5
A06
330
1F
100
AcDbEntity
  8
1
  6
Continuous
 48
25.4
100
AcDbLine
 10
470.5936463268793
 20
1057.835862503909
 30
0.0
 11
471.4859553136461
 21
1057.835862503909
 31
0.0
  0
ARC
  5
A08
330
1F
100
AcDbEntity
  8
1
  6
Continuous
 48
25.4
100
AcDbCircle
 10
460.4182918776106
 20
1071.835862503909
 30
0.0
 40
1.000000000000001
100
AcDbArc
 50
270.000000000008
 51
357.0000000000025
  0
ARC
  5
A09
330
1F
100
AcDbEntity
  8
1
  6
Continuous
 48
25.4
100
AcDbCircle
 10
438.0606877680227
 20
1071.835862503909
 30
0.0
 40
1.000000000000001
100
AcDbArc
 50
182.9999999999976
 51
270.0
  0
LINE
  5
A0A
330
1F
100
AcDbEntity
  8
1
  6
Continuous
 48
25.4
100
AcDbLine
 10
471.4859553136459
 20
1057.835862503909
 30
0.0
 11
473.7394898228161
 21
1100.835862503909
 31
0.0
  0
LINE
  5
A0B
330
1F
100
AcDbEntity
  8
1
  6
Continuous
 48
25.4
100
AcDbLine
 10
459.4196623428559
 20
1070.835862503909
 30
0.0
 11
439.0593173027773
 21
1070.835862503909
 31
0.0
  0
LINE
  5
A0C
330
1F
100
AcDbEntity
  8
1
  6
Continuous
 48
25.4
100
AcDbLine
 10
460.4182918776106
 20
1070.835862503909
 30
0.0
 11
459.4196623428559
 21
1070.835862503909
 31
0.0
  0
LINE
  5
A10
330
1F
100
AcDbEntity
  8
1
  6
Continuous
 48
25.4
100
AcDbLine
 10
439.0593173027773
 20
1070.835862503909
 30
0.0
 11
438.0606877680227
 21
1070.835862503909
 31
0.0
  0
ARC
  5
A17
330
1F
100
AcDbEntity
  8
1
  6
Continuous
 48
25.4
100
AcDbCircle
 10
483.3698906758391
 20
1102.83586250391
 30
0.0
 40
2.000000000000002
100
AcDbArc
 50
270.0000000000019
 51
356.9999999999984
  0
ARC
  5
A19
330
1F
100
AcDbEntity
  8
1
  6
Continuous
 48
25.4
100
AcDbCircle
 10
392.1090889697934
 20
1102.835862503908
 30
0.0
 40
2.0
100
AcDbArc
 50
183.0000000000014
 51
270.0
  0
LINE
  5
A1A
330
1F
100
AcDbEntity
  8
1
  6
Continuous
 48
25.4
100
AcDbLine
 10
390.1118299002843
 20
1102.731190591422
 30
0.0
 11
389.7394898228161
 21
1109.835862503909
 31
0.0
  0
LINE
  5
A1B
330
1F
100
AcDbEntity
  8
1
  6
Continuous
 48
25.4
100
AcDbLine
 10
483.3698906758391
 20
1100.83586250391
 30
0.0
 11
392.1090889697934
 21
1100.835862503908
 31
0.0
  0
LINE
  5
A1C
330
1F
100
AcDbEntity
  8
1
  6
Continuous
 48
25.4
100
AcDbLine
 10
485.7394898228161
 20
1109.835862503909
 30
0.0
 11
485.3671497453484
 21
1102.731190591424
 31
0.0
  0
LINE
  5
A21
330
1F
100
AcDbEntity
  8
1
  6
Continuous
 48
25.4
100
AcDbLine
 10
462.9394898228162
 20
1100.835862503909
 30
0.0
 11
461.4169214123649
 21
1071.783526547666
 31
0.0
  0
LINE
  5
A23
330
1F
100
AcDbEntity
  8
1
  6
Continuous
 48
25.4
100
AcDbLine
 10
437.0620582332683
 20
1071.783526547666
 30
0.0
 11
435.5394898228164
 21
1100.835862503909
 31
0.0
  0
LINE
  5
A24
330
1F
100
AcDbEntity
  8
1
  6
Continuous
 48
25.4
100
AcDbLine
 10
417.6147451378194
 20
1057.835862503909
 30
0.0
 11
417.2394898228163
 21
1100.835862503909
 31
0.0
  0
LINE
  5
A25
330
1F
100
AcDbEntity
  8
1
  6
Continuous
 48
25.4
100
AcDbLine
 10
427.8853333187545
 20
1057.835862503909
 30
0.0
 11
417.6147451378194
 21
1057.835862503909
 31
0.0
  0
ARC
  5
A26
330
1F
100
AcDbEntity
  8
1
  6
Continuous
 48
25.4
100
AcDbCircle
 10
398.3857791560323
 20
1086.613316659819
 30
0.0
 40
4.275161609438823
100
AcDbArc
 50
356.2789400312663
 51
9.730273975446241
  0
LINE
  5
A28
330
1F
100
AcDbEntity
  8
1
  6
Continuous
 48
25.4
100
AcDbLine
 10
402.2845109331814
 20
1093.335862503908
 30
0.0
 11
401.7830635690495
 21
1093.335862503908
 31
0.0
  0
LINE
  5
A29
330
1F
100
AcDbEntity
  8
1
  6
Continuous
 48
25.4
100
AcDbLine
 10
402.3369988314613
 20
1092.335862503909
 30
0.0
 11
401.835550665882
 21
1092.335862503909
 31
0.0
  0
LINE
  5
A2A
330
1F
100
AcDbEntity
  8
1
  6
Continuous
 48
25.4
100
AcDbLine
 10
401.835550665882
 20
1092.335862503909
 30
0.0
 11
401.6842697737231
 21
1092.335862503909
 31
0.0
  0
ARC
  5
A2C
330
1F
100
AcDbEntity
  8
1
  6
Continuous
 48
25.4
100
AcDbCircle
 10
398.0572912298256
 20
1092.612607136379
 30
0.0
 40
4.288646027256135
100
AcDbArc
 50
356.3001552306269
 51
9.709000544660097
  0
LINE
  5
A2D
330
1F
100
AcDbEntity
  8
1
  6
Continuous
 48
25.4
100
AcDbLine
 10
401.7830635690495
 20
1093.335862503908
 30
0.0
 11
401.63186199444
 21
1093.335862503908
 31
0.0
  0
LINE
  5
A2E
330
1F
100
AcDbEntity
  8
1
  6
Continuous
 48
25.4
100
AcDbLine
 10
402.651928002262
 20
1086.335862503909
 30
0.0
 11
402.1504750012865
 21
1086.335862503909
 31
0.0
  0
LINE
  5
A2F
330
1F
100
AcDbEntity
  8
1
  6
Continuous
 48
25.4
100
AcDbLine
 10
417.6147451378193
 20
1057.835862503909
 30
0.0
 11
419.7394898228167
 21
1057.835862503909
 31
0.0
  0
LINE
  5
A30
330
1F
100
AcDbEntity
  8
1
  6
Continuous
 48
25.4
100
AcDbLine
 10
417.6147451378193
 20
1057.835862503909
 30
0.0
 11
417.2394898228161
 21
1100.835862503909
 31
0.0
  0
LINE
  5
A34
330
1F
100
AcDbEntity
  8
1
  6
Continuous
 48
25.4
100
AcDbLine
 10
411.9367236041222
 20
1012.835862503909
 30
0.0
 11
410.1472326665845
 21
1012.835862503908
 31
0.0
  0
LINE
  5
A35
330
1F
100
AcDbEntity
  8
1
  6
Continuous
 48
25.4
100
AcDbLine
 10
419.7394898228173
 20
1012.835862503909
 30
0.0
 11
411.9367236041222
 21
1012.835862503909
 31
0.0
  0
LINE
  5
A39
330
1F
100
AcDbEntity
  8
1
  6
Continuous
 48
25.4
100
AcDbLine
 10
419.7394898228167
 20
1057.835862503909
 30
0.0
 11
419.7394898228173
 21
1016.800956361916
 31
0.0
  0
LINE
  5
A3A
330
1F
100
AcDbEntity
  8
1
  6
Continuous
 48
25.4
100
AcDbLine
 10
419.7394898228173
 20
1012.835862503909
 30
0.0
 11
419.7394898228173
 21
1016.800956361916
 31
0.0
  0
LINE
  5
A3B
330
1F
100
AcDbEntity
  8
1
  6
Continuous
 48
25.4
100
AcDbLine
 10
402.0589523966358
 20
1094.835862503908
 30
0.0
 11
402.0539364985146
 21
1094.835862503908
 31
0.0
  0
LINE
  5
A3C
330
1F
100
AcDbEntity
  8
1
  6
Continuous
 48
25.4
100
AcDbLine
 10
401.8107156448271
 20
1100.335862503909
 30
0.0
 11
401.9942256656702
 21
1096.835862503909
 31
0.0
  0
ARC
  5
A3D
330
1F
100
AcDbEntity
  8
1
  6
Continuous
 48
25.4
100
AcDbCircle
 10
364.7262729302513
 20
1094.628698741316
 30
0.0
 40
37.33325425092643
100
AcDbArc
 50
0.3179382675897304
 51
3.389336282131388
  0
LINE
  5
A3F
330
1F
100
AcDbEntity
  8
1
  6
Continuous
 48
25.4
100
AcDbLine
 10
402.1849559467222
 20
1092.335862503909
 30
0.0
 11
402.2897715052883
 21
1090.335862503908
 31
0.0
  0
LINE
  5
A40
330
1F
100
AcDbEntity
  8
1
  6
Continuous
 48
25.4
100
AcDbLine
 10
402.3421792845712
 20
1089.335862503909
 30
0.0
 11
402.4469948431374
 21
1087.335862503909
 31
0.0
  0
ARC
  5
A41
330
1F
100
AcDbEntity
  8
1
  6
Continuous
 48
25.4
100
AcDbCircle
 10
410.1472326665843
 20
1016.835862503909
 30
0.0
 40
4.000000000000008
100
AcDbArc
 50
183.0000000000014
 51
270.0
  0
LINE
  5
A42
330
1F
100
AcDbEntity
  8
1
  6
Continuous
 48
25.4
100
AcDbLine
 10
401.7890853322892
 20
1090.335862503909
 30
0.0
 11
401.8414931115724
 21
1089.335862503909
 31
0.0
  0
LINE
  5
A43
330
1F
100
AcDbEntity
  8
1
  6
Continuous
 48
25.4
100
AcDbLine
 10
401.9463086701384
 20
1087.335862503909
 30
0.0
 11
401.9987164494216
 21
1086.335862503909
 31
0.0
  0
LINE
  5
A44
330
1F
100
AcDbEntity
  8
1
  6
Continuous
 48
25.4
100
AcDbLine
 10
401.63186199444
 20
1093.335862503908
 30
0.0
 11
401.6842697737231
 21
1092.335862503909
 31
0.0
  0
LINE
  5
A45
330
1F
100
AcDbEntity
  8
1
  6
Continuous
 48
25.4
100
AcDbLine
 10
402.0539364985145
 20
1094.835862503908
 30
0.0
 11
402.1325481674391
 21
1093.335862503908
 31
0.0
  0
LINE
  5
A46
330
1F
100
AcDbEntity
  8
1
  6
Continuous
 48
25.4
100
AcDbLine
 10
402.4994026224204
 20
1086.335862503909
 30
0.0
 11
406.1527145275659
 21
1016.626518678937
 31
0.0
  0
ARC
  5
A4A
330
1F
100
AcDbEntity
  8
1
  6
Continuous
 48
25.4
100
AcDbCircle
 10
405.502609828712
 20
1100.659482416715
 30
0.0
 40
3.706050797407767
100
AcDbArc
 50
177.2721222516684
 51
185.0095645473471
  0
LINE
  5
A4C
330
1F
100
AcDbEntity
  8
1
  6
Continuous
 48
25.4
100
AcDbLine
 10
402.4419748819292
 20
1090.335862503909
 30
0.0
 11
401.9405251096491
 21
1090.335862503909
 31
0.0
  0
LINE
  5
A4D
330
1F
100
AcDbEntity
  8
1
  6
Continuous
 48
25.4
100
AcDbLine
 10
401.8414931115722
 20
1089.335862503909
 30
0.0
 11
401.9930124568474
 21
1089.335862503909
 31
0.0
  0
LINE
  5
A4E
330
1F
100
AcDbEntity
  8
1
  6
Continuous
 48
25.4
100
AcDbLine
 10
401.7890853322892
 20
1090.335862503909
 30
0.0
 11
401.9405251096491
 21
1090.335862503909
 31
0.0
  0
ARC
  5
A4F
330
1F
100
AcDbEntity
  8
1
  6
Continuous
 48
25.4
100
AcDbCircle
 10
398.221534758027
 20
1089.612961896178
 30
0.0
 40
4.281903797156157
100
AcDbArc
 50
356.2895644045198
 51
9.719620417196153
  0
LINE
  5
A50
330
1F
100
AcDbEntity
  8
1
  6
Continuous
 48
25.4
100
AcDbLine
 10
401.9987164494214
 20
1086.335862503909
 30
0.0
 11
402.1504750012863
 21
1086.335862503909
 31
0.0
  0
LINE
  5
A51
330
1F
100
AcDbEntity
  8
1
  6
Continuous
 48
25.4
100
AcDbLine
 10
402.0979874025337
 20
1087.335862503909
 30
0.0
 11
401.9463086701384
 21
1087.335862503909
 31
0.0
  0
LINE
  5
A53
330
1F
100
AcDbEntity
  8
1
  6
Continuous
 48
25.4
100
AcDbLine
 10
402.4944630343857
 20
1089.335862503909
 30
0.0
 11
401.9930124568475
 21
1089.335862503909
 31
0.0
  0
LINE
  5
A54
330
1F
100
AcDbEntity
  8
1
  6
Continuous
 48
25.4
100
AcDbLine
 10
402.5994395944169
 20
1087.335862503909
 30
0.0
 11
402.0979874025337
 21
1087.335862503909
 31
0.0
  0
ARC
  5
A55
330
1F
100
AcDbEntity
  8
1
  6
Continuous
 48
25.4
100
AcDbCircle
 10
375.7619989249858
 20
1188.777708830575
 30
0.0
 40
3.499999999999972
100
AcDbArc
 50
93.55862915325916
 51
165.2481142873684
  0
ARC
  5
A5B
330
1F
100
AcDbEntity
  8
1
  6
Continuous
 48
25.4
100
AcDbCircle
 10
496.4444249932328
 20
1112.208711788861
 30
0.0
 40
69.99999999999825
100
AcDbArc
 50
79.59379297954503
 51
85.0000000000009
  0
LINE
  5
A5D
330
1F
100
AcDbEntity
  8
1
  6
Continuous
 48
25.4
100
AcDbLine
 10
500.4340366092929
 20
1182.127054628617
 30
0.0
 11
502.5453269855677
 21
1181.942340655281
 31
0.0
  0
LINE
  5
A5E
330
1F
100
AcDbEntity
  8
1
  6
Continuous
 48
25.4
100
AcDbLine
 10
384.5077806115787
 20
1192.253430613247
 30
0.0
 11
385.9905473088321
 21
1192.139562556757
 31
0.0
  0
ARC
  5
A5F
330
1F
100
AcDbEntity
  8
1
  6
Continuous
 48
25.4
100
AcDbCircle
 10
496.4444249932094
 20
1112.208711788747
 30
0.0
 40
70.00000000011481
100
AcDbArc
 50
76.4413708900464
 51
79.59379297954547
  0
LINE
  5
A62
330
1F
100
AcDbEntity
  8
1
  6
Continuous
 48
25.4
100
AcDbLine
 10
500.1159507000634
 20
1183.158703377245
 30
0.0
 11
500.0287949573158
 21
1182.162508679154
 31
0.0
  0
LINE
  5
A63
330
1F
100
AcDbEntity
  8
1
  6
Continuous
 48
25.4
100
AcDbLine
 10
385.0815083534894
 20
1193.222912997596
 30
0.0
 11
384.9943526107417
 21
1192.226718299504
 31
0.0
  0
ELLIPSE
  5
A66
330
1F
100
AcDbEntity
  8
1
  6
Continuous
 48
25.4
100
AcDbEllipse
 10
499.6190344965207
 20
1183.202177911778
 30
0.0
 11
-0.0435778713675505
 21
-0.4980973490464895
 31
0.0
210
0.0
220
0.0
230
1.0
 40
0.9976286854257436
 41
1.570796326782551
 42
3.141592653589813
  0
LINE
  5
A6B
330
1F
100
AcDbEntity
  8
1
  6
Continuous
 48
25.4
100
AcDbLine
 10
390.106059715322
 20
1193.285231632904
 30
0.0
 11
495.1903665360097
 21
1184.091546071614
 31
0.0
  0
LINE
  5
A6C
330
1F
100
AcDbEntity
  8
1
  6
Continuous
 48
25.4
100
AcDbLine
 10
385.6231835739091
 20
1193.677432475268
 30
0.0
 11
390.106059715322
 21
1193.285231632904
 31
0.0
  0
LINE
  5
A6D
330
1F
100
AcDbEntity
  8
1
  6
Continuous
 48
25.4
100
AcDbLine
 10
495.1903665360094
 20
1184.091546071615
 30
0.0
 11
499.6626123678944
 21
1183.700275260824
 31
0.0
  0
LINE
  5
A6E
330
1F
100
AcDbEntity
  8
1
  6
Continuous
 48
25.4
100
AcDbLine
 10
503.174157948735
 20
1183.393054831046
 30
0.0
 11
499.6626123678941
 21
1183.700275260824
 31
0.0
  0
LINE
  5
A75
330
1F
100
AcDbEntity
  8
1
  6
Continuous
 48
25.4
100
AcDbLine
 10
383.1537953540104
 20
1182.851457737377
 30
0.0
 11
371.2158419794463
 21
1183.895893323352
 31
0.0
  0
LINE
  5
A77
330
1F
100
AcDbEntity
  8
1
  6
Continuous
 48
25.4
100
AcDbLine
 10
512.0787817227596
 20
1171.571982984878
 30
0.0
 11
500.1694713718966
 21
1172.613912630991
 31
0.0
  0
LINE
  5
A78
330
1F
100
AcDbEntity
  8
1
  6
Continuous
 48
25.4
100
AcDbLine
 10
515.6640732027494
 20
1171.258310624943
 30
0.0
 11
512.078781722759
 21
1171.571982984878
 31
0.0
  0
LINE
  5
A7A
330
1F
100
AcDbEntity
  8
1
  6
Continuous
 48
25.4
100
AcDbLine
 10
383.1537953540104
 20
1182.851457737377
 30
0.0
 11
500.1694713718966
 21
1172.613912630991
 31
0.0
  0
ARC
  5
A7B
330
1F
100
AcDbEntity
  8
1
  6
Continuous
 48
25.4
100
AcDbCircle
 10
379.8896453164962
 20
1122.405933690336
 30
0.0
 40
69.99999999999895
100
AcDbArc
 50
86.21725738759897
 51
93.55862915325896
  0
ARC
  5
A7C
330
1F
100
AcDbEntity
  8
1
  6
Continuous
 48
25.4
100
AcDbCircle
 10
512.0347009628906
 20
1176.855392254216
 30
0.0
 40
3.500000000000015
100
AcDbArc
 50
5.17282582854552
 51
71.68237739987933
  0
ARC
  5
A7D
330
1F
100
AcDbEntity
  8
1
  6
Continuous
 48
25.4
100
AcDbCircle
 10
512.0347009628918
 20
1176.855392254219
 30
0.0
 40
3.499999999996469
100
AcDbArc
 50
71.68237739988239
 51
76.44137084731745
  0
LINE
  5
A7E
330
1F
100
AcDbEntity
  8
1
  6
Continuous
 48
25.4
100
AcDbLine
 10
503.5415216836594
 20
1181.855184912534
 30
0.0
 11
503.6286774264072
 21
1182.851379610626
 31
0.0
  0
ARC
  5
A7F
330
1F
100
AcDbEntity
  8
1
  6
Continuous
 48
25.4
100
AcDbCircle
 10
503.1305800773611
 20
1182.894957482
 30
0.0
 40
0.499999999999955
100
AcDbArc
 50
355.0000000000038
 51
84.99999999998701
  0
ARC
  5
A80
330
1F
100
AcDbEntity
  8
1
  6
Continuous
 48
25.4
100
AcDbCircle
 10
465.6945318517945
 20
1173.003285460068
 30
0.0
 40
50.00000000000004
100
AcDbArc
 50
358.0000000000006
 51
4.773419970398073
  0
LINE
  5
A81
330
1F
100
AcDbEntity
  8
1
  6
Continuous
 48
25.4
100
AcDbLine
 10
385.9905473088321
 20
1192.139562556757
 30
0.0
 11
500.434036609293
 21
1182.127054628617
 31
0.0
  0
ARC
  5
A82
330
1F
100
AcDbEntity
  8
1
  6
Continuous
 48
25.4
100
AcDbCircle
 10
420.7292454165278
 20
1176.93723827535
 30
0.0
 40
50.00000000000264
100
AcDbArc
 50
165.248114287371
 51
172.0000000000009
  0
ARC
  5
A83
330
1F
100
AcDbEntity
  8
1
  6
Continuous
 48
25.4
100
AcDbCircle
 10
385.5796057025352
 20
1193.179335126222
 30
0.0
 40
0.49999999999995
100
AcDbArc
 50
84.99999999998701
 51
175.0000000000025
  0
ARC
  5
A84
330
1F
100
AcDbEntity
  8
1
  6
Continuous
 48
25.4
100
AcDbCircle
 10
466.0635140229232
 20
1177.220770974855
 30
0.0
 40
49.99999999999997
100
AcDbArc
 50
344.7763597464499
 51
351.9999999999992
  0
ARC
  5
A85
330
1F
100
AcDbEntity
  8
1
  6
Continuous
 48
25.4
100
AcDbCircle
 10
510.9369471956285
 20
1165.029585827664
 30
0.0
 40
3.499999999999718
100
AcDbArc
 50
279.0892199057519
 51
344.6519265928553
  0
ARC
  5
A86
330
1F
100
AcDbEntity
  8
1
  6
Continuous
 48
25.4
100
AcDbCircle
 10
383.2038545825064
 20
1170.557632264098
 30
0.0
 40
0.9999999999999552
100
AcDbArc
 50
265.4999999999985
 51
0.0
  0
LINE
  5
A8C
330
1F
100
AcDbEntity
  8
1
  6
Continuous
 48
25.4
100
AcDbLine
 10
500.1694713718966
 20
1172.613912630991
 30
0.0
 11
511.2837381197477
 21
1171.64154028715
 31
0.0
  0
LINE
  5
A8E
330
1F
100
AcDbEntity
  8
1
  6
Continuous
 48
25.4
100
AcDbLine
 10
371.9256419951694
 20
1182.829974031063
 30
0.0
 11
372.012797737918
 21
1183.826168729154
 31
0.0
  0
LINE
  5
A8F
330
1F
100
AcDbEntity
  8
1
  6
Continuous
 48
25.4
100
AcDbLine
 10
372.012797737918
 20
1183.826168729154
 30
0.0
 11
383.1537953540085
 21
1182.851457737378
 31
0.0
  0
ARC
  5
A91
330
1F
100
AcDbEntity
  8
1
  6
Continuous
 48
25.4
100
AcDbCircle
 10
488.7630093807394
 20
1113.335862503909
 30
0.0
 40
3.499999999999948
100
AcDbArc
 50
270.0
 51
350.0621890536546
  0
LINE
  5
A92
330
1F
100
AcDbEntity
  8
1
  6
Continuous
 48
25.4
100
AcDbLine
 10
384.203854582507
 20
1113.335862503908
 30
0.0
 11
384.2038545825065
 21
1170.820266052776
 31
0.0
  0
ARC
  5
A94
330
1F
100
AcDbEntity
  8
1
  6
Continuous
 48
25.4
100
AcDbCircle
 10
383.2389665416897
 20
1170.859352247792
 30
0.0
 40
0.9656793784439644
100
AcDbArc
 50
357.6803005391381
 51
82.98741855179361
  0
LINE
  5
A96
330
1F
100
AcDbEntity
  8
1
  6
Continuous
 48
25.4
100
AcDbLine
 10
500.6036028127295
 20
1160.635507285628
 30
0.0
 11
492.2104941601353
 21
1112.731835438429
 31
0.0
  0
LINE
  5
A9B
330
1F
100
AcDbEntity
  8
1
  6
Continuous
 48
25.4
100
AcDbLine
 10
500.0823156291487
 20
1171.617717932899
 30
0.0
 11
511.9916259800158
 21
1170.575788286787
 31
0.0
  0
ARC
  5
A9D
330
1F
100
AcDbEntity
  8
1
  6
Continuous
 48
25.4
100
AcDbCircle
 10
374.7894990623318
 20
1176.941451621353
 30
0.0
 40
3.49999999999992
100
AcDbArc
 50
185.1985860486964
 51
255.6111438364449
  0
ARC
  5
AA1
330
1F
100
AcDbEntity
  8
1
  6
Continuous
 48
25.4
100
AcDbCircle
 10
421.0982275876537
 20
1181.154723790136
 30
0.0
 40
50.00000000000199
100
AcDbArc
 50
178.0000000000005
 51
185.1985860486966
  0
LINE
  5
AA2
330
1F
100
AcDbEntity
  8
1
  6
Continuous
 48
25.4
100
AcDbLine
 10
371.1286862366986
 20
1182.899698625261
 30
0.0
 11
383.066639611261
 21
1181.855263039286
 31
0.0
  0
ARC
  5
AA6
330
1F
100
AcDbEntity
  8
1
  6
Continuous
 48
25.4
100
AcDbCircle
 10
505.8514060972728
 20
1231.334844078704
 30
0.0
 40
70.00000000000111
100
AcDbArc
 50
265.8291680417466
 51
271.2192346905944
  0
LINE
  5
AA7
330
1F
100
AcDbEntity
  8
1
  6
Continuous
 48
25.4
100
AcDbLine
 10
400.0251064249865
 20
1131.686327321451
 30
0.0
 11
399.0663932547624
 21
1120.728185642442
 31
0.0
  0
LINE
  5
AA8
330
1F
100
AcDbEntity
  8
1
  6
Continuous
 48
25.4
100
AcDbLine
 10
402.9448238070327
 20
1165.058849707526
 30
0.0
 11
400.1994179104817
 21
1133.678716717635
 31
0.0
  0
LINE
  5
AA9
330
1F
100
AcDbEntity
  8
1
  6
Continuous
 48
25.4
100
AcDbLine
 10
400.1994179104817
 20
1133.678716717635
 30
0.0
 11
478.4007017106839
 21
1126.836990911945
 31
0.0
  0
LINE
  5
AAA
330
1F
100
AcDbEntity
  8
1
  6
Continuous
 48
25.4
100
AcDbLine
 10
478.4007017106839
 20
1126.836990911945
 30
0.0
 11
481.146107607235
 21
1158.217123901834
 31
0.0
  0
ARC
  5
AAB
330
1F
100
AcDbEntity
  8
1
  6
Continuous
 48
25.4
100
AcDbCircle
 10
391.3148485659071
 20
1241.355447179624
 30
0.0
 40
69.9999999999714
100
AcDbArc
 50
255.6111438364434
 51
259.2488241096984
  0
ARC
  5
AAC
330
1F
100
AcDbEntity
  8
1
  6
Continuous
 48
25.4
100
AcDbCircle
 10
391.3148485659135
 20
1241.35544717965
 30
0.0
 40
69.99999999999815
100
AcDbArc
 50
255.6111438364438
 51
262.9738151940701
  0
LINE
  5
AAD
330
1F
100
AcDbEntity
  8
1
  6
Continuous
 48
25.4
100
AcDbLine
 10
384.2038545825048
 20
1171.717571245876
 30
0.0
 11
382.7522430984978
 21
1171.881122515
 31
0.0
  0
ARC
  5
AAE
330
1F
100
AcDbEntity
  8
1
  6
Continuous
 48
25.4
100
AcDbCircle
 10
391.3148485659285
 20
1241.355447179742
 30
0.0
 40
70.00000000009115
100
AcDbArc
 50
260.8919812467811
 51
264.1695146747823
  0
ARC
  5
AB0
330
1F
100
AcDbEntity
  8
1
  6
Continuous
 48
25.4
100
AcDbCircle
 10
383.203854582507
 20
1122.825051756866
 30
0.0
 40
0.9999999999999008
100
AcDbArc
 50
0.0
 51
84.50000000000441
  0
LINE
  5
AB2
330
1F
100
AcDbEntity
  8
1
  6
Continuous
 48
25.4
100
AcDbLine
 10
441.4046679236616
 20
1117.024066575668
 30
0.0
 11
442.3633810938857
 21
1127.982208254676
 31
0.0
  0
LINE
  5
AB3
330
1F
100
AcDbEntity
  8
1
  6
Continuous
 48
25.4
100
AcDbLine
 10
442.3633810938857
 20
1127.982208254676
 30
0.0
 11
400.0251064249864
 21
1131.686327321451
 31
0.0
  0
LINE
  5
AB5
330
1F
100
AcDbEntity
  8
1
  6
Continuous
 48
25.4
100
AcDbLine
 10
514.7799617015319
 20
1170.331840521049
 30
0.0
 11
514.8671174442797
 21
1171.328035219141
 31
0.0
  0
ARC
  5
AB7
330
1F
100
AcDbEntity
  8
1
  6
Continuous
 48
25.4
100
AcDbCircle
 10
501.5647572326436
 20
1160.50584561313
 30
0.0
 40
0.969860798380356
100
AcDbArc
 50
87.23850988132769
 51
172.317065677596
  0
LINE
  5
ABE
330
1F
100
AcDbEntity
  8
1
  6
Continuous
 48
25.4
100
AcDbLine
 10
500.0823156291487
 20
1171.617717932899
 30
0.0
 11
383.0666396112609
 21
1181.855263039286
 31
0.0
  0
LINE
  5
ABF
330
1F
100
AcDbEntity
  8
1
  6
Continuous
 48
25.4
100
AcDbLine
 10
511.9916259800155
 20
1170.575788286787
 30
0.0
 11
515.5769174600061
 21
1170.262115926851
 31
0.0
  0
LINE
  5
AC1
330
1F
100
AcDbEntity
  8
1
  6
Continuous
 48
25.4
100
AcDbLine
 10
383.1253954867786
 20
1169.560714930365
 30
0.0
 11
379.0242930882055
 21
1169.883478688996
 31
0.0
  0
LINE
  5
AC3
330
1F
100
AcDbEntity
  8
1
  6
Continuous
 48
25.4
100
AcDbLine
 10
378.4646261301432
 20
1163.486456086216
 30
0.0
 11
379.0242930882055
 21
1169.883478688996
 31
0.0
  0
LINE
  5
AC4
330
1F
100
AcDbEntity
  8
1
  6
Continuous
 48
25.4
100
AcDbLine
 10
375.6233489165698
 20
1131.010508928425
 30
0.0
 11
378.4646261301432
 21
1163.486456086216
 31
0.0
  0
LINE
  5
AC5
330
1F
100
AcDbEntity
  8
1
  6
Continuous
 48
25.4
100
AcDbLine
 10
375.0636819585077
 20
1124.613486325646
 30
0.0
 11
375.6233489165698
 21
1131.010508928425
 31
0.0
  0
LINE
  5
AC6
330
1F
100
AcDbEntity
  8
1
  6
Continuous
 48
25.4
100
AcDbLine
 10
383.299700335027
 20
1123.820447955233
 30
0.0
 11
375.0636819585076
 21
1124.613486325646
 31
0.0
  0
LINE
  5
AC7
330
1F
100
AcDbEntity
  8
1
  6
Continuous
 48
25.4
100
AcDbLine
 10
481.1461076072348
 20
1158.217123901834
 30
0.0
 11
402.9448238070327
 21
1165.058849707526
 31
0.0
  0
LINE
  5
AC8
330
1F
100
AcDbEntity
  8
1
  6
Continuous
 48
25.4
100
AcDbLine
 10
399.0663932547624
 20
1120.728185642442
 30
0.0
 11
441.4046679236614
 21
1117.024066575668
 31
0.0
  0
ARC
  5
AC9
330
1F
100
AcDbEntity
  8
1
  6
Continuous
 48
25.4
100
AcDbCircle
 10
505.8514060972765
 20
1231.334844078606
 30
0.0
 40
69.99999999990325
100
AcDbArc
 50
271.219234690593
 51
274.3859368809896
  0
LINE
  5
ACC
330
1F
100
AcDbEntity
  8
1
  6
Continuous
 48
25.4
100
AcDbLine
 10
500.7586342592409
 20
1161.520349344401
 30
0.0
 11
498.5735416004712
 21
1161.711520180797
 31
0.0
  0
LINE
  5
ACD
330
1F
100
AcDbEntity
  8
1
  6
Continuous
 48
25.4
100
AcDbLine
 10
498.5735416004712
 20
1161.711520180797
 30
0.0
 11
384.2038545825048
 21
1171.717571245876
 31
0.0
  0
LINE
  5
AD1
330
1F
100
AcDbEntity
  8
1
  6
Continuous
 48
25.4
100
AcDbLine
 10
500.7586342592408
 20
1161.520349344401
 30
0.0
 11
496.7738554668738
 21
1161.868972315391
 31
0.0
  0
LINE
  5
AD2
330
1F
100
AcDbEntity
  8
1
  6
Continuous
 48
25.4
100
AcDbLine
 10
388.1886333748733
 20
1171.368948274886
 30
0.0
 11
384.2038545825046
 21
1171.717571245876
 31
0.0
  0
ARC
  5
AD4
330
1F
100
AcDbEntity
  8
1
  6
Continuous
 48
25.4
100
AcDbCircle
 10
387.703854582507
 20
1113.335862503908
 30
0.0
 40
3.499999999999948
100
AcDbArc
 50
180.0
 51
270.0
  0
LINE
  5
AD7
330
1F
100
AcDbEntity
  8
1
  6
Continuous
 48
25.4
100
AcDbLine
 10
488.7630093807394
 20
1109.835862503909
 30
0.0
 11
479.8949495152568
 21
1109.835862503909
 31
0.0
  0
LINE
  5
AD8
330
1F
100
AcDbEntity
  8
1
  6
Continuous
 48
25.4
100
AcDbLine
 10
479.8949495152568
 20
1109.835862503909
 30
0.0
 11
396.4478183096841
 21
1109.835862503908
 31
0.0
  0
LINE
  5
AD9
330
1F
100
AcDbEntity
  8
1
  6
Continuous
 48
25.4
100
AcDbLine
 10
396.4478183096843
 20
1109.835862503908
 30
0.0
 11
387.703854582507
 21
1109.835862503908
 31
0.0
  0
LINE
  5
ADC
330
1F
100
AcDbEntity
  8
1
  6
Continuous
 48
25.4
100
AcDbLine
 10
395.8548438262086
 20
1109.835862503909
 30
0.0
 11
396.4478183096843
 21
1109.835862503909
 31
0.0
  0
LINE
  5
ADD
330
1F
100
AcDbEntity
  8
1
  6
Continuous
 48
25.4
100
AcDbLine
 10
393.8472041511218
 20
1109.835862503909
 30
0.0
 11
393.628482492307
 21
1107.335862503909
 31
0.0
  0
LINE
  5
ADE
330
1F
100
AcDbEntity
  8
1
  6
Continuous
 48
25.4
100
AcDbLine
 10
465.1184126166994
 20
1109.835862503909
 30
0.0
 11
464.8996909578847
 21
1107.335862503909
 31
0.0
  0
LINE
  5
ADF
330
1F
100
AcDbEntity
  8
1
  6
Continuous
 48
25.4
100
AcDbLine
 10
409.6895998930006
 20
1107.335862503909
 30
0.0
 11
409.9083215518154
 21
1109.835862503909
 31
0.0
  0
LINE
  5
AE0
330
1F
100
AcDbEntity
  8
1
  6
Continuous
 48
25.4
100
AcDbLine
 10
480.9608083585782
 20
1107.335862503909
 30
0.0
 11
481.1795300173931
 21
1109.835862503909
 31
0.0
  0
LINE
  5
AE1
330
1F
100
AcDbEntity
  8
1
  6
Continuous
 48
25.4
100
AcDbLine
 10
409.6895998930006
 20
1107.335862503909
 30
0.0
 11
393.6284824923071
 21
1107.335862503908
 31
0.0
  0
LINE
  5
AE2
330
1F
100
AcDbEntity
  8
1
  6
Continuous
 48
25.4
100
AcDbLine
 10
480.9608083585782
 20
1107.335862503909
 30
0.0
 11
464.8996909578847
 21
1107.335862503909
 31
0.0
  0
LINE
  5
AE3
330
1F
100
AcDbEntity
  8
1
  6
Continuous
 48
25.4
100
AcDbLine
 10
372.0569176893915
 20
1136.140866450257
 30
0.0
 11
374.049307085575
 21
1135.96655496476
 31
0.0
  0
LINE
  5
AE4
330
1F
100
AcDbEntity
  8
1
  6
Continuous
 48
25.4
100
AcDbLine
 10
372.3401738533215
 20
1139.378499219054
 30
0.0
 11
374.3325632495049
 21
1139.204187733559
 31
0.0
  0
LINE
  5
AE5
330
1F
100
AcDbEntity
  8
1
  6
Continuous
 48
25.4
100
AcDbLine
 10
372.2094402391999
 20
1137.884207171917
 30
0.0
 11
374.2018296353835
 21
1137.709895686422
 31
0.0
  0
ARC
  5
AE6
330
1F
100
AcDbEntity
  8
1
  6
Continuous
 48
25.4
100
AcDbCircle
 10
372.2748070462606
 20
1138.631353195486
 30
0.0
 40
2.499999999999976
100
AcDbArc
 50
84.99999999999863
 51
265.0000000000003
  0
LINE
  5
AE7
330
1F
100
AcDbEntity
  8
1
  6
Continuous
 48
25.4
100
AcDbLine
 10
377.8686028605514
 20
1168.247717952726
 30
0.0
 11
378.8742581210572
 21
1168.168571167248
 31
0.0
  0
LINE
  5
AE8
330
1F
100
AcDbEntity
  8
1
  6
Continuous
 48
25.4
100
AcDbLine
 10
375.2137169256558
 20
1126.328393847394
 30
0.0
 11
374.2095961331857
 21
1126.425079682776
 31
0.0
  0
ARC
  5
AEB
330
1F
100
AcDbEntity
  8
1
  6
Continuous
 48
25.4
100
AcDbCircle
 10
377.7901437648234
 20
1167.250800618993
 30
0.0
 40
0.9999999999999552
100
AcDbArc
 50
85.49999999999442
 51
174.9999999999865
  0
ARC
  5
AEC
330
1F
100
AcDbEntity
  8
1
  6
Continuous
 48
25.4
100
AcDbCircle
 10
374.3054418857058
 20
1127.420475881143
 30
0.0
 40
1.000000000000009
100
AcDbArc
 50
175.0000000000031
 51
264.500000000001
  0
LINE
  5
AEE
330
1F
100
AcDbEntity
  8
1
  6
Continuous
 48
25.4
100
AcDbLine
 10
372.4926964031299
 20
1141.121839940715
 30
0.0
 11
374.4850857993133
 21
1140.947528455219
 31
0.0
  0
ARC
  5
AEF
330
1F
100
AcDbEntity
  8
1
  6
Continuous
 48
25.4
100
AcDbCircle
 10
372.2748070462606
 20
1138.631353195486
 30
0.0
 40
0.750000000000033
100
AcDbArc
 50
84.99999999999877
 51
265.000000000004
  0
LINE
  5
AF3
330
1F
100
AcDbEntity
  8
1
  6
Continuous
 48
25.4
100
AcDbLine
 10
376.4460900111353
 20
1163.361909162283
 30
0.0
 11
376.7939490667317
 21
1167.337956361741
 31
0.0
  0
LINE
  5
AF4
330
1F
100
AcDbEntity
  8
1
  6
Continuous
 48
25.4
100
AcDbLine
 10
373.6571062432107
 20
1131.483678823348
 30
0.0
 11
376.4460900111354
 21
1163.361909162283
 31
0.0
  0
LINE
  5
AF5
330
1F
100
AcDbEntity
  8
1
  6
Continuous
 48
25.4
100
AcDbLine
 10
373.3092471876141
 20
1127.507631623891
 30
0.0
 11
373.6571062432107
 21
1131.483678823348
 31
0.0
  0
LINE
  5
AF7
330
1F
100
AcDbEntity
  8
1
  6
Continuous
 48
25.4
100
AcDbLine
 10
375.8991877253939
 20
1157.110787431758
 30
0.0
 11
371.9144089330268
 21
1157.459410402749
 31
0.0
  0
ARC
  5
AFA
330
1F
100
AcDbEntity
  8
1
  6
Continuous
 48
25.4
100
AcDbCircle
 10
371.1735851196718
 20
1148.991755468969
 30
0.0
 40
8.499999999999921
100
AcDbArc
 50
85.00000000000005
 51
175.0000000000033
  0
LINE
  5
AFC
330
1F
100
AcDbEntity
  8
1
  6
Continuous
 48
25.4
100
AcDbLine
 10
365.6801505381674
 20
1141.215950554878
 30
0.0
 11
364.8659748945754
 21
1141.287181693811
 31
0.0
  0
LINE
  5
B07
330
1F
100
AcDbEntity
  8
1
  6
Continuous
 48
25.4
100
AcDbLine
 10
364.8659748945752
 20
1141.287181693811
 30
0.0
 11
361.9890742017925
 21
1141.538877890519
 31
0.0
  0
LINE
  5
B08
330
1F
100
AcDbEntity
  8
1
  6
Continuous
 48
25.4
100
AcDbLine
 10
365.6801505381674
 20
1141.215950554878
 30
0.0
 11
370.9548264846182
 21
1140.754476205791
 31
0.0
  0
LINE
  5
B09
330
1F
100
AcDbEntity
  8
1
  6
Continuous
 48
25.4
100
AcDbLine
 10
362.705930185892
 20
1149.732579282324
 30
0.0
 11
361.9890742017926
 21
1141.538877890519
 31
0.0
  0
LINE
  5
B0A
330
1F
100
AcDbEntity
  8
1
  6
Continuous
 48
25.4
100
AcDbLine
 10
375.269487484042
 20
1149.913280738046
 30
0.0
 11
372.7790007388128
 21
1150.131170094915
 31
0.0
  0
LINE
  5
B0B
330
1F
100
AcDbEntity
  8
1
  6
Continuous
 48
25.4
100
AcDbLine
 10
372.3432220250745
 20
1145.150196604456
 30
0.0
 11
374.8337087703037
 21
1144.932307247586
 31
0.0
  0
LINE
  5
B0C
330
1F
100
AcDbEntity
  8
1
  6
Continuous
 48
25.4
100
AcDbLine
 10
372.9097343529342
 20
1151.625462142052
 30
0.0
 11
371.9135396548425
 21
1151.712617884799
 31
0.0
  0
LINE
  5
B0D
330
1F
100
AcDbEntity
  8
1
  6
Continuous
 48
25.4
100
AcDbLine
 10
369.4230529096131
 20
1151.930507241669
 30
0.0
 11
366.4344688153379
 21
1152.191974469911
 31
0.0
  0
LINE
  5
B0E
330
1F
100
AcDbEntity
  8
1
  6
Continuous
 48
25.4
100
AcDbLine
 10
371.2162937128614
 20
1143.743060300066
 30
0.0
 11
372.212488410953
 21
1143.655904557318
 31
0.0
  0
LINE
  5
B0F
330
1F
100
AcDbEntity
  8
1
  6
Continuous
 48
25.4
100
AcDbLine
 10
366.4344688153379
 20
1152.191974469912
 30
0.0
 11
365.8927935949181
 21
1151.73745499224
 31
0.0
  0
LINE
  5
B10
330
1F
100
AcDbEntity
  8
1
  6
Continuous
 48
25.4
100
AcDbLine
 10
365.7372228733567
 20
1144.222416885178
 30
0.0
 11
368.7258069676318
 21
1143.960949656935
 31
0.0
  0
ARC
  5
B11
330
1F
100
AcDbEntity
  8
1
  6
Continuous
 48
25.4
100
AcDbCircle
 10
369.7165397652854
 20
1140.942606757151
 30
0.0
 40
3.501774664427397
100
AcDbArc
 50
72.63439782780476
 51
97.36773538958704
  0
ARC
  5
B12
330
1F
100
AcDbEntity
  8
1
  6
Continuous
 48
25.4
100
AcDbCircle
 10
370.9224902185058
 20
1154.726762483462
 30
0.0
 40
3.497662059157087
100
AcDbArc
 50
252.6177050681546
 51
277.3806675151803
  0
LINE
  5
B13
330
1F
100
AcDbEntity
  8
1
  6
Continuous
 48
25.4
100
AcDbLine
 10
365.2827033956845
 20
1144.764092105598
 30
0.0
 11
365.7372228733567
 21
1144.222416885178
 31
0.0
  0
LINE
  5
B14
330
1F
100
AcDbEntity
  8
1
  6
Continuous
 48
25.4
100
AcDbLine
 10
371.9135396548423
 20
1151.7126178848
 30
0.0
 11
371.2162937128612
 21
1143.743060300066
 31
0.0
  0
LINE
  5
B15
330
1F
100
AcDbEntity
  8
1
  6
Continuous
 48
25.4
100
AcDbLine
 10
372.9097343529341
 20
1151.625462142053
 30
0.0
 11
372.2124884109529
 21
1143.655904557318
 31
0.0
  0
LINE
  5
B16
330
1F
100
AcDbEntity
  8
1
  6
Continuous
 48
25.4
100
AcDbLine
 10
366.4344688153378
 20
1152.191974469912
 30
0.0
 11
365.7372228733567
 21
1144.222416885178
 31
0.0
  0
LINE
  5
B17
330
1F
100
AcDbEntity
  8
1
  6
Continuous
 48
25.4
100
AcDbLine
 10
369.423052909613
 20
1151.930507241669
 30
0.0
 11
368.7258069676318
 21
1143.960949656935
 31
0.0
  0
LINE
  5
B18
330
1F
100
AcDbEntity
  8
1
  6
Continuous
 48
25.4
100
AcDbLine
 10
365.2827033956845
 20
1144.764092105598
 30
0.0
 11
365.8927935949181
 21
1151.73745499224
 31
0.0
  0
LINE
  5
B19
330
1F
100
AcDbEntity
  8
1
  6
Continuous
 48
25.4
100
AcDbLine
 10
369.8804628859805
 20
1151.388579135381
 30
0.0
 11
369.3794750382393
 21
1151.432409892624
 31
0.0
  0
LINE
  5
B1A
330
1F
100
AcDbEntity
  8
1
  6
Continuous
 48
25.4
100
AcDbLine
 10
371.8699617834686
 20
1151.214520535754
 30
0.0
 11
371.3628165959658
 21
1151.258889990422
 31
0.0
  0
LINE
  5
B1B
330
1F
100
AcDbEntity
  8
1
  6
Continuous
 48
25.4
100
AcDbLine
 10
370.7519705544366
 20
1144.285593231413
 30
0.0
 11
371.2598715842351
 21
1144.241157649111
 31
0.0
  0
LINE
  5
B1C
330
1F
100
AcDbEntity
  8
1
  6
Continuous
 48
25.4
100
AcDbLine
 10
368.7693848390058
 20
1144.459047005981
 30
0.0
 11
369.2674821880516
 21
1144.415469134607
 31
0.0
  0
DIMENSION
  5
B1D
330
1F
100
AcDbEntity
  8
MEASURE
 48
25.4
100
AcDbDimension
  2
*D34
 10
461.2394898228201
 20
848.1236390777931
 30
0.0
 11
441.23948982282
 21
859.373639077793
 31
0.0
 70
    32
 71
     5
 42
40.00000000000028
  3
AD-STANDARD
100
AcDbAlignedDimension
 13
421.2394898228198
 23
808.8358625039093
 33
0.0
 14
461.2394898228201
 24
791.3700064041795
 34
0.0
100
AcDbRotatedDimension
1001
ACAD
1000
DSTYLE
1002
{
1070
    76
1070
     1
1070
    75
1070
     1
1070
    40
1040
5.0
1002
}
  0
DIMENSION
  5
B39
330
1F
100
AcDbEntity
  8
MEASURE
 48
25.4
100
AcDbDimension
  2
*D35
 10
241.6914659593869
 20
1193.679335126222
 30
0.0
 11
225.8581326260534
 21
803.2575988150664
 31
0.0
 70
    32
  1
(<>)
 71
     5
 42
780.8434726223128
  3
AD-STANDARD
100
AcDbAlignedDimension
 13
432.2394898228248
 23
412.8358625039099
 33
0.0
 14
385.5796057025352
 24
1193.679335126222
 34
0.0
 50
90.0
100
AcDbRotatedDimension
1001
ACAD
1000
DSTYLE
1002
{
1070
   271
1070
     0
1070
    40
1040
5.0
1002
}
  0
DIMENSION
  5
B58
330
1F
100
AcDbEntity
  8
MEASURE
 48
25.4
100
AcDbDimension
  2
*D36
 10
1129.249693610819
 20
412.8358625039162
 30
0.0
 11
1117.999693610819
 21
471.5858625039147
 31
0.0
 70
    32
 71
     5
 42
117.4999999999967
  3
AD-STANDARD
100
AcDbAlignedDimension
 13
974.7394898228245
 23
530.335862503913
 33
0.0
 14
958.2394898228246
 24
412.8358625039162
 34
0.0
 50
90.0
100
AcDbRotatedDimension
1001
ACAD
1000
DSTYLE
1002
{
1070
   271
1070
     0
1070
    40
1040
5.0
1002
}
  0
DIMENSION
  5
B6F
330
1F
100
AcDbEntity
  8
MEASURE
 48
25.4
100
AcDbDimension
  2
*D37
 10
1094.379132041376
 20
441.8358625039142
 30
0.0
 11
1083.129132041376
 21
427.3358625039153
 31
0.0
 70
    32
 71
     5
 42
28.99999999999806
  3
AD-STANDARD
100
AcDbAlignedDimension
 13
958.2394898228246
 23
412.8358625039162
 33
0.0
 14
963.2394898228241
 24
441.8358625039142
 34
0.0
 50
90.0
100
AcDbRotatedDimension
1001
ACAD
1000
DSTYLE
1002
{
1070
    40
1040
5.0
1002
}
  0
DIMENSION
  5
B7E
330
1F
100
AcDbEntity
  8
MEASURE
 48
25.4
100
AcDbDimension
  2
*D38
 10
1094.379132041376
 20
530.335862503913
 30
0.0
 11
1083.129132041376
 21
486.0858625039138
 31
0.0
 70
    32
 71
     5
 42
88.49999999999869
  3
AD-STANDARD
100
AcDbAlignedDimension
 13
963.2394898228241
 23
441.8358625039142
 33
0.0
 14
974.7394898228245
 24
530.335862503913
 34
0.0
 50
90.0
100
AcDbRotatedDimension
1001
ACAD
1000
DSTYLE
1002
{
1070
   271
1070
     0
1070
   279
1070
     1
1070
    40
1040
5.0
1002
}
  0
DIMENSION
  5
B94
330
1F
100
AcDbEntity
  8
MEASURE
 48
25.4
100
AcDbDimension
  2
*D39
 10
444.2394898228245
 20
326.133444167609
 30
0.0
 11
403.1142820123085
 21
341.9667775009423
 31
0.0
 70
    32
  1
(<>)
 71
     5
 42
82.25041562103205
  3
AD-STANDARD
100
AcDbAlignedDimension
 13
361.9890742017925
 23
1141.538877890519
 33
0.0
 14
444.2394898228245
 24
417.8358625039099
 34
0.0
100
AcDbRotatedDimension
1001
ACAD
1000
DSTYLE
1002
{
1070
   271
1070
     0
1070
    40
1040
5.0
1002
}
  0
DIMENSION
  5
BA2
330
1F
100
AcDbEntity
  8
MEASURE
 48
25.4
100
AcDbDimension
  2
*D40
 10
646.2394898228247
 20
326.133444167609
 30
0.0
 11
545.2394898228247
 21
337.383444167609
 31
0.0
 70
    32
 71
     5
 42
202.0000000000001
  3
AD-STANDARD
100
AcDbAlignedDimension
 13
444.2394898228245
 23
417.8358625039099
 33
0.0
 14
646.2394898228247
 24
417.8358625039125
 34
0.0
100
AcDbRotatedDimension
1001
ACAD
1000
DSTYLE
1002
{
1070
   279
1070
     1
1070
    40
1040
5.0
1002
}
  0
DIMENSION
  5
BAF
330
1F
100
AcDbEntity
  8
MEASURE
 48
25.4
100
AcDbDimension
  2
*D41
 10
946.2394898228245
 20
326.133444167609
 30
0.0
 11
796.2394898228247
 21
337.383444167609
 31
0.0
 70
    32
 71
     5
 42
299.9999999999999
  3
AD-STANDARD
100
AcDbAlignedDimension
 13
646.2394898228247
 23
417.8358625039125
 33
0.0
 14
946.2394898228245
 24
412.835862503916
 34
0.0
100
AcDbRotatedDimension
1001
ACAD
1000
DSTYLE
1002
{
1070
   279
1070
     1
1070
    40
1040
5.0
1002
}
  0
LINE
  5
BCE
330
1F
100
AcDbEntity
  8
1
  6
Continuous
 48
25.4
100
AcDbLine
 10
1508.784032783684
 20
470.3358625039133
 30
0.0
 11
1508.784032783684
 21
468.8358625039164
 31
0.0
  0
LINE
  5
BCF
330
1F
100
AcDbEntity
  8
1
  6
Continuous
 48
25.4
100
AcDbLine
 10
1508.784032783684
 20
468.8358625039164
 30
0.0
 11
1534.784032783684
 21
468.8358625039164
 31
0.0
  0
LINE
  5
BD0
330
1F
100
AcDbEntity
  8
1
  6
Continuous
 48
25.4
100
AcDbLine
 10
1534.784032783684
 20
470.3358625039133
 30
0.0
 11
1534.784032783684
 21
468.8358625039164
 31
0.0
  0
LINE
  5
BD1
330
1F
100
AcDbEntity
  8
1
  6
Continuous
 48
25.4
100
AcDbLine
 10
1676.784032783684
 20
470.3358625039133
 30
0.0
 11
1676.784032783684
 21
468.8358625039162
 31
0.0
  0
LINE
  5
BD2
330
1F
100
AcDbEntity
  8
1
  6
Continuous
 48
25.4
100
AcDbLine
 10
1676.784032783684
 20
468.8358625039162
 30
0.0
 11
1702.784032783684
 21
468.8358625039162
 31
0.0
  0
LINE
  5
BD3
330
1F
100
AcDbEntity
  8
1
  6
Continuous
 48
25.4
100
AcDbLine
 10
1702.784032783684
 20
470.3358625039133
 30
0.0
 11
1702.784032783684
 21
468.8358625039162
 31
0.0
  0
CIRCLE
  5
BD4
330
1F
100
AcDbEntity
  8
1
  6
Continuous
 48
25.4
100
AcDbCircle
 10
1565.784032783684
 20
457.8358625039142
 30
0.0
 40
1.65
  0
LINE
  5
BD5
330
1F
100
AcDbEntity
  8
1
  6
Continuous
 48
25.4
100
AcDbLine
 10
1702.784032783684
 20
441.8358625039142
 30
0.0
 11
1697.784032783684
 21
441.8358625039142
 31
0.0
  0
LINE
  5
BD6
330
1F
100
AcDbEntity
  8
1
  6
Continuous
 48
25.4
100
AcDbLine
 10
1513.784032783684
 20
441.8358625039142
 30
0.0
 11
1508.784032783684
 21
441.8358625039142
 31
0.0
  0
LINE
  5
BD7
330
1F
100
AcDbEntity
  8
1
  6
Continuous
 48
25.4
100
AcDbLine
 10
1575.784032783684
 20
441.8358625039142
 30
0.0
 11
1570.784032783684
 21
441.8358625039142
 31
0.0
  0
LINE
  5
BD8
330
1F
100
AcDbEntity
  8
1
  6
Continuous
 48
25.4
100
AcDbLine
 10
1640.784032783684
 20
441.8358625039142
 30
0.0
 11
1635.784032783684
 21
441.8358625039142
 31
0.0
  0
LINE
  5
BDC
330
1F
100
AcDbEntity
  8
1
  6
Continuous
 48
25.4
100
AcDbLine
 10
1732.784032783684
 20
441.8358625039142
 30
0.0
 11
1478.784032783683
 21
441.8358625039142
 31
0.0
  0
LINE
  5
BDD
330
1F
100
AcDbEntity
  8
1
  6
Continuous
 48
25.4
100
AcDbLine
 10
1475.784032783684
 20
444.8358625039142
 30
0.0
 11
1475.784032783684
 21
470.3358625039133
 31
0.0
  0
LINE
  5
BDE
330
1F
100
AcDbEntity
  8
1
  6
Continuous
 48
25.4
100
AcDbLine
 10
1735.784032783684
 20
470.3358625039133
 30
0.0
 11
1735.784032783684
 21
444.8358625039142
 31
0.0
  0
LINE
  5
BDF
330
1F
100
AcDbEntity
  8
1
  6
Continuous
 48
25.4
100
AcDbLine
 10
1697.784032783684
 20
441.8358625039142
 30
0.0
 11
1640.784032783683
 21
441.8358625039142
 31
0.0
  0
LINE
  5
BE0
330
1F
100
AcDbEntity
  8
1
  6
Continuous
 48
25.4
100
AcDbLine
 10
1570.784032783684
 20
441.8358625039142
 30
0.0
 11
1513.784032783684
 21
441.8358625039142
 31
0.0
  0
LINE
  5
BE1
330
1F
100
AcDbEntity
  8
1
  6
Continuous
 48
25.4
100
AcDbLine
 10
1508.284032783684
 20
470.3358625039133
 30
0.0
 11
1508.284032783684
 21
468.8358625039143
 31
0.0
  0
LINE
  5
BE2
330
1F
100
AcDbEntity
  8
1
  6
Continuous
 48
25.4
100
AcDbLine
 10
1508.284032783684
 20
468.8358625039143
 30
0.0
 11
1535.284032783684
 21
468.8358625039143
 31
0.0
  0
LINE
  5
BE3
330
1F
100
AcDbEntity
  8
1
  6
Continuous
 48
25.4
100
AcDbLine
 10
1535.284032783684
 20
468.8358625039143
 30
0.0
 11
1535.284032783684
 21
470.3358625039133
 31
0.0
  0
LINE
  5
BE4
330
1F
100
AcDbEntity
  8
1
  6
Continuous
 48
25.4
100
AcDbLine
 10
1703.284032783684
 20
470.3358625039133
 30
0.0
 11
1703.284032783684
 21
468.8358625039143
 31
0.0
  0
LINE
  5
BE5
330
1F
100
AcDbEntity
  8
1
  6
Continuous
 48
25.4
100
AcDbLine
 10
1676.284032783684
 20
468.8358625039143
 30
0.0
 11
1676.284032783684
 21
470.3358625039133
 31
0.0
  0
LINE
  5
BE6
330
1F
100
AcDbEntity
  8
1
  6
Continuous
 48
25.4
100
AcDbLine
 10
1703.284032783684
 20
468.8358625039143
 30
0.0
 11
1676.284032783684
 21
468.8358625039143
 31
0.0
  0
ARC
  5
BEA
330
1F
100
AcDbEntity
  8
1
  6
Continuous
 48
25.4
100
AcDbCircle
 10
1478.784032783684
 20
444.8358625039142
 30
0.0
 40
2.999999999999996
100
AcDbArc
 50
180.0
 51
270.0
  0
ARC
  5
BEB
330
1F
100
AcDbEntity
  8
1
  6
Continuous
 48
25.4
100
AcDbCircle
 10
1732.784032783684
 20
444.8358625039142
 30
0.0
 40
3.000000000000003
100
AcDbArc
 50
270.0
 51
0.0
  0
CIRCLE
  5
BED
330
1F
100
AcDbEntity
  8
1
  6
Continuous
 48
25.4
100
AcDbCircle
 10
1565.784032783684
 20
457.8358625039142
 30
0.0
 40
4.0
  0
CIRCLE
  5
BEE
330
1F
100
AcDbEntity
  8
1
  6
Continuous
 48
25.4
100
AcDbCircle
 10
1645.784032783684
 20
457.8358625039142
 30
0.0
 40
4.0
  0
CIRCLE
  5
BEF
330
1F
100
AcDbEntity
  8
1
  6
Continuous
 48
25.4
100
AcDbCircle
 10
1565.784032783684
 20
457.8358625039142
 30
0.0
 40
2.0
  0
LINE
  5
BF0
330
1F
100
AcDbEntity
  8
1
  6
Continuous
 48
25.4
100
AcDbLine
 10
1620.784032783684
 20
440.3358625039138
 30
0.0
 11
1609.784032783684
 21
440.3358625039138
 31
0.0
  0
LINE
  5
BF1
330
1F
100
AcDbEntity
  8
1
  6
Continuous
 48
25.4
100
AcDbLine
 10
1620.784032783684
 20
440.3358625039138
 30
0.0
 11
1620.784032783684
 21
441.8358625039099
 31
0.0
  0
LINE
  5
BF2
330
1F
100
AcDbEntity
  8
1
  6
Continuous
 48
25.4
100
AcDbLine
 10
1601.784032783684
 20
440.3358625039138
 30
0.0
 11
1590.784032783684
 21
440.3358625039138
 31
0.0
  0
LINE
  5
BF3
330
1F
100
AcDbEntity
  8
1
  6
Continuous
 48
25.4
100
AcDbLine
 10
1590.784032783684
 20
441.83586250391
 30
0.0
 11
1590.784032783684
 21
440.3358625039138
 31
0.0
  0
ARC
  5
BF4
330
1F
100
AcDbEntity
  8
1
  6
Continuous
 48
25.4
100
AcDbCircle
 10
1722.550845546651
 20
437.2249239162416
 30
0.0
 40
4.613762189606617
100
AcDbArc
 50
57.62038109428722
 51
87.99537143766626
  0
LINE
  5
BF5
330
1F
100
AcDbEntity
  8
1
  6
Continuous
 48
25.4
100
AcDbLine
 10
1707.784032783684
 20
441.8358625039161
 30
0.0
 11
1706.54642847665
 21
441.1213313240997
 31
0.0
  0
LINE
  5
BF6
330
1F
100
AcDbEntity
  8
1
  6
Continuous
 48
25.4
100
AcDbLine
 10
1725.021637090718
 20
441.1213313240997
 30
0.0
 11
1723.784032783684
 21
441.8358625039161
 31
0.0
  0
ARC
  5
BF7
330
1F
100
AcDbEntity
  8
1
  6
Continuous
 48
25.4
100
AcDbCircle
 10
1715.96962548675
 20
425.3507035920802
 30
0.0
 40
16.48620359573156
100
AcDbArc
 50
90.64501831163102
 51
106.9429354623634
  0
ARC
  5
BF8
330
1F
100
AcDbEntity
  8
1
  6
Continuous
 48
25.4
100
AcDbCircle
 10
1709.017220020717
 20
437.2249239162416
 30
0.0
 40
4.613762189606609
100
AcDbArc
 50
92.00462856233372
 51
122.3796189057132
  0
ARC
  5
BF9
330
1F
100
AcDbEntity
  8
1
  6
Continuous
 48
25.4
100
AcDbCircle
 10
1708.724702468896
 20
437.3227367070467
 30
0.0
 40
4.515030317800933
100
AcDbArc
 50
57.27999054336049
 51
88.3357619886034
  0
LINE
  5
BFA
330
1F
100
AcDbEntity
  8
1
  6
Continuous
 48
25.4
100
AcDbLine
 10
1720.402834937201
 20
433.8358625039162
 30
0.0
 11
1720.402834937201
 21
441.1213313240997
 31
0.0
  0
LINE
  5
BFB
330
1F
100
AcDbEntity
  8
1
  6
Continuous
 48
25.4
100
AcDbLine
 10
1711.165230630167
 20
441.1213313240997
 30
0.0
 11
1711.165230630167
 21
433.8358625039162
 31
0.0
  0
LINE
  5
BFC
330
1F
100
AcDbEntity
  8
1
  6
Continuous
 48
25.4
100
AcDbLine
 10
1706.54642847665
 20
433.8358625039162
 30
0.0
 11
1706.54642847665
 21
441.1213313240997
 31
0.0
  0
LINE
  5
BFD
330
1F
100
AcDbEntity
  8
1
  6
Continuous
 48
25.4
100
AcDbLine
 10
1725.021637090718
 20
441.1213313240997
 30
0.0
 11
1725.021637090718
 21
433.8358625039162
 31
0.0
  0
ARC
  5
BFE
330
1F
100
AcDbEntity
  8
1
  6
Continuous
 48
25.4
100
AcDbCircle
 10
1715.600219616346
 20
425.3622066918614
 30
0.0
 40
16.47468127444445
100
AcDbArc
 50
73.05132640703646
 51
89.36071981896994
  0
ARC
  5
BFF
330
1F
100
AcDbEntity
  8
1
  6
Continuous
 48
25.4
100
AcDbCircle
 10
1722.843363098471
 20
437.3227367070468
 30
0.0
 40
4.515030317800763
100
AcDbArc
 50
91.66423801139663
 51
122.7200094566409
  0
LINE
  5
C00
330
1F
100
AcDbEntity
  8
1
  6
Continuous
 48
25.4
100
AcDbLine
 10
1505.021637090718
 20
441.1213313240997
 30
0.0
 11
1503.784032783684
 21
441.8358625039161
 31
0.0
  0
LINE
  5
C01
330
1F
100
AcDbEntity
  8
1
  6
Continuous
 48
25.4
100
AcDbLine
 10
1487.784032783684
 20
441.8358625039162
 30
0.0
 11
1486.54642847665
 21
441.1213313240998
 31
0.0
  0
ARC
  5
C02
330
1F
100
AcDbEntity
  8
1
  6
Continuous
 48
25.4
100
AcDbCircle
 10
1495.598440080617
 20
425.3507035920802
 30
0.0
 40
16.48620359573166
100
AcDbArc
 50
73.0570645376377
 51
89.35498168836994
  0
ARC
  5
C03
330
1F
100
AcDbEntity
  8
1
  6
Continuous
 48
25.4
100
AcDbCircle
 10
1495.967845951022
 20
425.3622066918615
 30
0.0
 40
16.47468127444436
100
AcDbArc
 50
90.63928018103103
 51
106.9486735929636
  0
ARC
  5
C04
330
1F
100
AcDbEntity
  8
1
  6
Continuous
 48
25.4
100
AcDbCircle
 10
1502.581108929447
 20
437.3227367070464
 30
0.0
 40
4.515030317801127
100
AcDbArc
 50
57.27999054335793
 51
88.33576198859988
  0
ARC
  5
C05
330
1F
100
AcDbEntity
  8
1
  6
Continuous
 48
25.4
100
AcDbCircle
 10
1502.873626481267
 20
437.2249239162416
 30
0.0
 40
4.613762189606619
100
AcDbArc
 50
92.00462856233022
 51
122.3796189057088
  0
LINE
  5
C06
330
1F
100
AcDbEntity
  8
1
  6
Continuous
 48
25.4
100
AcDbLine
 10
1505.021637090718
 20
433.8358625039162
 30
0.0
 11
1505.021637090718
 21
441.1213313240997
 31
0.0
  0
LINE
  5
C07
330
1F
100
AcDbEntity
  8
1
  6
Continuous
 48
25.4
100
AcDbLine
 10
1486.54642847665
 20
441.1213313240997
 30
0.0
 11
1486.54642847665
 21
433.8358625039162
 31
0.0
  0
ARC
  5
C08
330
1F
100
AcDbEntity
  8
1
  6
Continuous
 48
25.4
100
AcDbCircle
 10
1488.6944390861
 20
437.2249239162417
 30
0.0
 40
4.613762189606573
100
AcDbArc
 50
57.62038109429067
 51
87.99537143766977
  0
LINE
  5
C09
330
1F
100
AcDbEntity
  8
1
  6
Continuous
 48
25.4
100
AcDbLine
 10
1500.402834937201
 20
433.8358625039162
 30
0.0
 11
1500.402834937201
 21
441.1213313240998
 31
0.0
  0
LINE
  5
C0A
330
1F
100
AcDbEntity
  8
1
  6
Continuous
 48
25.4
100
AcDbLine
 10
1491.165230630167
 20
433.8358625039162
 30
0.0
 11
1491.165230630167
 21
441.1213313240998
 31
0.0
  0
ARC
  5
C0B
330
1F
100
AcDbEntity
  8
1
  6
Continuous
 48
25.4
100
AcDbCircle
 10
1488.986956637921
 20
437.3227367070464
 30
0.0
 40
4.515030317801039
100
AcDbArc
 50
91.6642380114002
 51
122.7200094566424
  0
LINE
  5
C0C
330
1F
100
AcDbEntity
  8
1
  6
Continuous
 48
25.4
100
AcDbLine
 10
1703.784032783684
 20
412.835862503916
 30
0.0
 11
1727.784032783684
 21
412.835862503916
 31
0.0
  0
LINE
  5
C0D
330
1F
100
AcDbEntity
  8
1
  6
Continuous
 48
25.4
100
AcDbLine
 10
1721.21356306378
 20
417.8358625039165
 30
0.0
 11
1720.564588831114
 21
425.8358625039165
 31
0.0
  0
LINE
  5
C0F
330
1F
100
AcDbEntity
  8
1
  6
Continuous
 48
25.4
100
AcDbLine
 10
1704.784032783684
 20
433.8358625039162
 30
0.0
 11
1726.784032783684
 21
433.8358625039162
 31
0.0
  0
ARC
  5
C10
330
1F
100
AcDbEntity
  8
1
  6
Continuous
 48
25.4
100
AcDbCircle
 10
1703.784032783684
 20
414.835862503916
 30
0.0
 40
2.000000000000002
100
AcDbArc
 50
180.0
 51
270.0
  0
LINE
  5
C11
330
1F
100
AcDbEntity
  8
1
  6
Continuous
 48
25.4
100
AcDbLine
 10
1704.784032783684
 20
433.8358625039162
 30
0.0
 11
1701.784032783684
 21
429.8358625039161
 31
0.0
  0
LINE
  5
C12
330
1F
100
AcDbEntity
  8
1
  6
Continuous
 48
25.4
100
AcDbLine
 10
1687.77267631139
 20
429.8358625039161
 30
0.0
 11
1679.194648629351
 21
425.8358625039161
 31
0.0
  0
LINE
  5
C13
330
1F
100
AcDbEntity
  8
1
  6
Continuous
 48
25.4
100
AcDbLine
 10
1701.784032783684
 20
417.8358625039165
 30
0.0
 11
1701.784032783684
 21
414.835862503916
 31
0.0
  0
ARC
  5
C14
330
1F
100
AcDbEntity
  8
1
  6
Continuous
 48
25.4
100
AcDbCircle
 10
1727.784032783684
 20
414.835862503916
 30
0.0
 40
2.000000000000002
100
AcDbArc
 50
270.0
 51
0.0
  0
LINE
  5
C15
330
1F
100
AcDbEntity
  8
1
  6
Continuous
 48
25.4
100
AcDbLine
 10
1729.784032783684
 20
429.8358625039161
 30
0.0
 11
1726.784032783684
 21
433.8358625039161
 31
0.0
  0
LINE
  5
C16
330
1F
100
AcDbEntity
  8
1
  6
Continuous
 48
25.4
100
AcDbLine
 10
1752.373416938016
 20
425.8358625039161
 30
0.0
 11
1743.795389255978
 21
429.8358625039161
 31
0.0
  0
LINE
  5
C17
330
1F
100
AcDbEntity
  8
1
  6
Continuous
 48
25.4
100
AcDbLine
 10
1679.194648629351
 20
425.8358625039161
 30
0.0
 11
1677.784032783684
 21
417.835862503916
 31
0.0
  0
LINE
  5
C18
330
1F
100
AcDbEntity
  8
1
  6
Continuous
 48
25.4
100
AcDbLine
 10
1753.784032783684
 20
417.8358625039161
 30
0.0
 11
1752.373416938016
 21
425.8358625039161
 31
0.0
  0
LINE
  5
C19
330
1F
100
AcDbEntity
  8
1
  6
Continuous
 48
25.4
100
AcDbLine
 10
1729.784032783684
 20
414.835862503916
 30
0.0
 11
1729.784032783684
 21
417.8358625039165
 31
0.0
  0
LINE
  5
C1A
330
1F
100
AcDbEntity
  8
1
  6
Continuous
 48
25.4
100
AcDbLine
 10
1679.194648629351
 20
425.8358625039161
 30
0.0
 11
1679.508292726854
 21
425.8358625039161
 31
0.0
  0
LINE
  5
C1B
330
1F
100
AcDbEntity
  8
1
  6
Continuous
 48
25.4
100
AcDbLine
 10
1752.059772840514
 20
425.8358625039161
 30
0.0
 11
1752.373416938016
 21
425.8358625039161
 31
0.0
  0
LINE
  5
C1C
330
1F
100
AcDbEntity
  8
1
  6
Continuous
 48
25.4
100
AcDbLine
 10
1685.350412910663
 20
417.8358625039163
 30
0.0
 11
1678.173925087248
 21
417.8358625039161
 31
0.0
  0
LINE
  5
C1D
330
1F
100
AcDbEntity
  8
1
  6
Continuous
 48
25.4
100
AcDbLine
 10
1738.539137297276
 20
417.8358625039165
 30
0.0
 11
1746.217652656704
 21
417.8358625039163
 31
0.0
  0
LINE
  5
C1E
330
1F
100
AcDbEntity
  8
1
  6
Continuous
 48
25.4
100
AcDbLine
 10
1753.39414048012
 20
417.8358625039161
 30
0.0
 11
1753.784032783684
 21
417.8358625039161
 31
0.0
  0
SPLINE
  5
C1F
330
1F
100
AcDbEntity
  8
1
  6
Continuous
 48
25.4
100
AcDbSpline
210
0.0
220
0.0
230
1.0
 70
     8
 71
     3
 72
    21
 73
    17
 74
     0
 42
0.0000000001
 43
0.0000000001
 40
0.0
 40
0.0
 40
0.0
 40
0.0
 40
0.2499999999999991
 40
0.2499999999999991
 40
0.3124999999999991
 40
0.3124999999999991
 40
0.3749999999999989
 40
0.3749999999999989
 40
0.4999999999999992
 40
0.6249999999999992
 40
0.6249999999999992
 40
0.6874999999999992
 40
0.6874999999999992
 40
0.7499999999999993
 40
0.7499999999999993
 40
1.0
 40
1.0
 40
1.0
 40
1.0
 10
1686.752847397959
 20
425.8358625039162
 30
0.0
 10
1686.793676048919
 20
426.3040486731133
 30
0.0
 10
1686.676396969737
 20
426.6847721877625
 30
0.0
 10
1686.314503572949
 20
427.0166870492053
 30
0.0
 10
1686.231236859554
 20
427.0758039345028
 30
0.0
 10
1686.041949026523
 20
427.1783729894728
 30
0.0
 10
1685.935709734126
 20
427.2217804948911
 30
0.0
 10
1685.587201546983
 20
427.3254613369212
 30
0.0
 10
1685.04057876077
 20
427.3946960787314
 30
0.0
 10
1684.332711671791
 20
427.3255999537146
 30
0.0
 10
1683.740634065533
 20
427.2222590471664
 30
0.0
 10
1683.532332429674
 20
427.1790522484866
 30
0.0
 10
1683.098528222698
 20
427.0764480737814
 30
0.0
 10
1682.873839122152
 20
427.017294065301
 30
0.0
 10
1681.713002289438
 20
426.6851449258503
 30
0.0
 10
1680.666084442131
 20
426.3041014583341
 30
0.0
 10
1679.508292726854
 20
425.8358625039161
 30
0.0
  0
LINE
  5
C20
330
1F
100
AcDbEntity
  8
1
  6
Continuous
 48
25.4
100
AcDbLine
 10
1753.39414048012
 20
417.8358625039161
 30
0.0
 11
1746.217652656704
 21
417.8358625039163
 31
0.0
  0
SPLINE
  5
C21
330
1F
100
AcDbEntity
  8
1
  6
Continuous
 48
25.4
100
AcDbSpline
210
0.0
220
0.0
230
1.0
 70
     8
 71
     3
 72
    21
 73
    17
 74
     0
 42
0.0000000001
 43
0.0000000001
 40
0.0
 40
0.0
 40
0.0
 40
0.0
 40
0.2499999999999998
 40
0.2499999999999998
 40
0.3124999999999996
 40
0.3124999999999996
 40
0.3749999999999996
 40
0.3749999999999996
 40
0.4999999999999997
 40
0.6249999999999996
 40
0.6249999999999996
 40
0.6874999999999995
 40
0.6874999999999995
 40
0.7499999999999995
 40
0.7499999999999995
 40
1.0
 40
1.0
 40
1.0
 40
1.0
 10
1752.059772840514
 20
425.8358625039162
 30
0.0
 10
1750.902111644689
 20
426.3040486731131
 30
0.0
 10
1749.855962429324
 20
426.6847721877625
 30
0.0
 10
1748.696448275379
 20
427.0166870492053
 30
0.0
 10
1748.472041266153
 20
427.0758039345028
 30
0.0
 10
1748.038821648211
 20
427.1783729894728
 30
0.0
 10
1747.829896412602
 20
427.2217804948911
 30
0.0
 10
1747.236697489688
 20
427.3254613369212
 30
0.0
 10
1746.528191177385
 20
427.3946960514343
 30
0.0
 10
1745.981884022637
 20
427.3255999537146
 30
0.0
 10
1745.633689581961
 20
427.2222590471665
 30
0.0
 10
1745.527594430016
 20
427.1790522484866
 30
0.0
 10
1745.337795979857
 20
427.0764480737814
 30
0.0
 10
1745.254330367848
 20
427.0172940653011
 30
0.0
 10
1744.891651110353
 20
426.6851449258505
 30
0.0
 10
1744.774384915259
 20
426.3041014583343
 30
0.0
 10
1744.815218169408
 20
425.8358625039163
 30
0.0
  0
ARC
  5
C22
330
1F
100
AcDbEntity
  8
1
  6
Continuous
 48
25.4
100
AcDbCircle
 10
1729.309539901281
 20
401.6131168172986
 30
0.0
 40
25.7529722132844
100
AcDbArc
 50
70.14928786570493
 51
109.8507121342949
  0
ARC
  5
C23
330
1F
100
AcDbEntity
  8
1
  6
Continuous
 48
25.4
100
AcDbCircle
 10
1702.258525666086
 20
401.6120697598911
 30
0.0
 40
25.75395705760816
100
AcDbArc
 50
70.15007887062243
 51
109.8499211293788
  0
ARC
  5
C24
330
1F
100
AcDbEntity
  8
1
  6
Continuous
 48
25.4
100
AcDbCircle
 10
-1353.252479453712
 20
234.5473617225654
 30
0.0
 40
3097.2197332334
100
AcDbArc
 50
3.392654614599778
 51
3.540918781462641
  0
LINE
  5
C25
330
1F
100
AcDbEntity
  8
1
  6
Continuous
 48
25.4
100
AcDbLine
 10
1738.539137297276
 20
417.8358625039165
 30
0.0
 11
1721.21356306378
 21
417.8358625039165
 31
0.0
  0
ARC
  5
C26
330
1F
100
AcDbEntity
  8
1
  6
Continuous
 48
25.4
100
AcDbCircle
 10
-5978.853605958312
 20
1765.526793126118
 30
0.0
 40
7781.79247264592
100
AcDbArc
 50
350.0269374223015
 51
350.0867380565396
  0
LINE
  5
C27
330
1F
100
AcDbEntity
  8
1
  6
Continuous
 48
25.4
100
AcDbLine
 10
1678.173925087248
 20
417.8358625039161
 30
0.0
 11
1679.508292726854
 21
425.8358625039162
 31
0.0
  0
LINE
  5
C28
330
1F
100
AcDbEntity
  8
1
  6
Continuous
 48
25.4
100
AcDbLine
 10
1746.217652656704
 20
417.8358625039163
 30
0.0
 11
1744.815218169409
 21
425.8358625039163
 31
0.0
  0
ARC
  5
C29
330
1F
100
AcDbEntity
  8
1
  6
Continuous
 48
25.4
100
AcDbCircle
 10
-5890.529764637813
 20
-853.0284412589136
 30
0.0
 40
7748.849511108855
100
AcDbArc
 50
9.439544516720905
 51
9.499514528323627
  0
LINE
  5
C2A
330
1F
100
AcDbEntity
  8
1
  6
Continuous
 48
25.4
100
AcDbLine
 10
1744.815218169408
 20
425.8358625039163
 30
0.0
 11
1738.054490971449
 21
425.8358625039164
 31
0.0
  0
LINE
  5
C2B
330
1F
100
AcDbEntity
  8
1
  6
Continuous
 48
25.4
100
AcDbLine
 10
1693.513574595919
 20
425.8358625039164
 30
0.0
 11
1686.752847397959
 21
425.8358625039163
 31
0.0
  0
LINE
  5
C2C
330
1F
100
AcDbEntity
  8
1
  6
Continuous
 48
25.4
100
AcDbLine
 10
1710.354502503587
 20
417.8358625039165
 30
0.0
 11
1721.21356306378
 21
417.8358625039165
 31
0.0
  0
LINE
  5
C2D
330
1F
100
AcDbEntity
  8
1
  6
Continuous
 48
25.4
100
AcDbLine
 10
1693.028928270091
 20
417.8358625039163
 30
0.0
 11
1693.513574595918
 21
425.8358625039163
 31
0.0
  0
LINE
  5
C2E
330
1F
100
AcDbEntity
  8
1
  6
Continuous
 48
25.4
100
AcDbLine
 10
1720.564588831114
 20
425.8358625039165
 30
0.0
 11
1711.003476736255
 21
425.8358625039165
 31
0.0
  0
LINE
  5
C2F
330
1F
100
AcDbEntity
  8
1
  6
Continuous
 48
25.4
100
AcDbLine
 10
1687.77267631139
 20
429.8358625039161
 30
0.0
 11
1743.795389255977
 21
429.8358625039161
 31
0.0
  0
ARC
  5
C30
330
1F
100
AcDbEntity
  8
1
  6
Continuous
 48
25.4
100
AcDbCircle
 10
-1389.837178028973
 20
673.3552501004194
 30
0.0
 40
3110.703877497984
100
AcDbArc
 50
355.2883022971946
 51
355.4361376758937
  0
LINE
  5
C31
330
1F
100
AcDbEntity
  8
1
  6
Continuous
 48
25.4
100
AcDbLine
 10
1710.354502503587
 20
417.8358625039165
 30
0.0
 11
1693.028928270091
 21
417.8358625039163
 31
0.0
  0
LINE
  5
C32
330
1F
100
AcDbEntity
  8
1
  6
Continuous
 48
25.4
100
AcDbLine
 10
1685.350412910663
 20
417.8358625039163
 30
0.0
 11
1693.028928270091
 21
417.8358625039163
 31
0.0
  0
LINE
  5
C33
330
1F
100
AcDbEntity
  8
1
  6
Continuous
 48
25.4
100
AcDbLine
 10
1678.173925087248
 20
417.835862503916
 30
0.0
 11
1677.784032783684
 21
417.835862503916
 31
0.0
  0
LINE
  5
C34
330
1F
100
AcDbEntity
  8
1
  6
Continuous
 48
25.4
100
AcDbLine
 10
1483.784032783684
 20
412.835862503916
 30
0.0
 11
1507.784032783684
 21
412.835862503916
 31
0.0
  0
LINE
  5
C35
330
1F
100
AcDbEntity
  8
1
  6
Continuous
 48
25.4
100
AcDbLine
 10
1509.784032783683
 20
414.835862503916
 30
0.0
 11
1481.784032783684
 21
414.835862503916
 31
0.0
  0
LINE
  5
C36
330
1F
100
AcDbEntity
  8
1
  6
Continuous
 48
25.4
100
AcDbLine
 10
1506.784032783684
 20
433.8358625039162
 30
0.0
 11
1484.784032783684
 21
433.8358625039162
 31
0.0
  0
ARC
  5
C37
330
1F
100
AcDbEntity
  8
1
  6
Continuous
 48
25.4
100
AcDbCircle
 10
1483.784032783684
 20
414.835862503916
 30
0.0
 40
2.000000000000002
100
AcDbArc
 50
180.0
 51
270.0
  0
LINE
  5
C38
330
1F
100
AcDbEntity
  8
1
  6
Continuous
 48
25.4
100
AcDbLine
 10
1484.784032783684
 20
433.8358625039162
 30
0.0
 11
1481.784032783684
 21
429.8358625039161
 31
0.0
  0
LINE
  5
C39
330
1F
100
AcDbEntity
  8
1
  6
Continuous
 48
25.4
100
AcDbLine
 10
1467.77267631139
 20
429.8358625039161
 30
0.0
 11
1462.459855604231
 21
427.3584535217635
 31
0.0
  0
LINE
  5
C3A
330
1F
100
AcDbEntity
  8
1
  6
Continuous
 48
25.4
100
AcDbLine
 10
1481.784032783684
 20
417.8358625039161
 30
0.0
 11
1481.784032783684
 21
414.835862503916
 31
0.0
  0
ARC
  5
C3B
330
1F
100
AcDbEntity
  8
1
  6
Continuous
 48
25.4
100
AcDbCircle
 10
1507.784032783684
 20
414.835862503916
 30
0.0
 40
2.000000000000002
100
AcDbArc
 50
270.0
 51
0.0
  0
LINE
  5
C3C
330
1F
100
AcDbEntity
  8
1
  6
Continuous
 48
25.4
100
AcDbLine
 10
1509.784032783684
 20
429.8358625039161
 30
0.0
 11
1506.784032783684
 21
433.8358625039161
 31
0.0
  0
LINE
  5
C3D
330
1F
100
AcDbEntity
  8
1
  6
Continuous
 48
25.4
100
AcDbLine
 10
1529.108209963136
 20
427.3584535217636
 30
0.0
 11
1523.795389255978
 21
429.8358625039161
 31
0.0
  0
LINE
  5
C3E
330
1F
100
AcDbEntity
  8
1
  6
Continuous
 48
25.4
100
AcDbLine
 10
1509.784032783684
 20
414.835862503916
 30
0.0
 11
1509.784032783684
 21
417.8358625039161
 31
0.0
  0
LINE
  5
C3F
330
1F
100
AcDbEntity
  8
1
  6
Continuous
 48
25.4
100
AcDbLine
 10
1514.082815386458
 20
425.8358625039164
 30
0.0
 11
1505.249499613972
 21
425.8358625039165
 31
0.0
  0
LINE
  5
C40
330
1F
100
AcDbEntity
  8
1
  6
Continuous
 48
25.4
100
AcDbLine
 10
1531.127886145732
 20
425.8358625039162
 30
0.0
 11
1527.469006952045
 21
425.8358625039162
 31
0.0
  0
LINE
  5
C41
330
1F
100
AcDbEntity
  8
1
  6
Continuous
 48
25.4
100
AcDbLine
 10
1505.160565991644
 20
417.8358625039165
 30
0.0
 11
1486.407499575723
 21
417.8358625039165
 31
0.0
  0
LINE
  5
C42
330
1F
100
AcDbEntity
  8
1
  6
Continuous
 48
25.4
100
AcDbLine
 10
1486.318565953395
 20
425.8358625039164
 30
0.0
 11
1477.485250180909
 21
425.8358625039163
 31
0.0
  0
LINE
  5
C43
330
1F
100
AcDbEntity
  8
1
  6
Continuous
 48
25.4
100
AcDbLine
 10
1464.099058615323
 20
425.8358625039162
 30
0.0
 11
1460.440179421635
 21
425.8358625039162
 31
0.0
  0
LINE
  5
C44
330
1F
100
AcDbEntity
  8
1
  6
Continuous
 48
25.4
100
AcDbLine
 10
1476.375035781859
 20
417.8358625039165
 30
0.0
 11
1463.114615351119
 21
417.8358625039163
 31
0.0
  0
LINE
  5
C45
330
1F
100
AcDbEntity
  8
1
  6
Continuous
 48
25.4
100
AcDbLine
 10
1528.453450216248
 20
417.8358625039163
 30
0.0
 11
1515.193029785508
 21
417.8358625039165
 31
0.0
  0
LINE
  5
C46
330
1F
100
AcDbEntity
  8
1
  6
Continuous
 48
25.4
100
AcDbLine
 10
1528.453450216249
 20
417.8358625039163
 30
0.0
 11
1532.609032783684
 21
417.8358625039161
 31
0.0
  0
LINE
  5
C47
330
1F
100
AcDbEntity
  8
1
  6
Continuous
 48
25.4
100
AcDbLine
 10
1505.160565991644
 20
417.8358625039165
 30
0.0
 11
1515.193029785508
 21
417.8358625039163
 31
0.0
  0
LINE
  5
C48
330
1F
100
AcDbEntity
  8
1
  6
Continuous
 48
25.4
100
AcDbLine
 10
1476.375035781859
 20
417.8358625039165
 30
0.0
 11
1486.407499575722
 21
417.8358625039165
 31
0.0
  0
LINE
  5
C49
330
1F
100
AcDbEntity
  8
1
  6
Continuous
 48
25.4
100
AcDbLine
 10
1458.959032783684
 20
417.8358625039161
 30
0.0
 11
1463.114615351119
 21
417.8358625039163
 31
0.0
  0
SPLINE
  5
C4A
330
1F
100
AcDbEntity
  8
1
  6
Continuous
 48
25.4
100
AcDbSpline
210
0.0
220
0.0
230
1.0
 70
     8
 71
     3
 72
    21
 73
    17
 74
     0
 42
0.0000000001
 43
0.0000000001
 40
0.0
 40
0.0
 40
0.0
 40
0.0
 40
0.2500000000000004
 40
0.2500000000000004
 40
0.3125000000000003
 40
0.3125000000000003
 40
0.3750000000000002
 40
0.3750000000000002
 40
0.5
 40
0.625
 40
0.625
 40
0.6875
 40
0.6875
 40
0.75
 40
0.75
 40
1.0
 40
1.0
 40
1.0
 40
1.0
 10
1527.469006952045
 20
425.8358625039162
 30
0.0
 10
1525.97854601438
 20
426.3040486731133
 30
0.0
 10
1524.548215213568
 20
426.6847721877627
 30
0.0
 10
1522.837381667762
 20
427.0166870492053
 30
0.0
 10
1522.499116159888
 20
427.0758039345029
 30
0.0
 10
1521.830645614384
 20
427.1783729894729
 30
0.0
 10
1521.500175348382
 20
427.2217804948913
 30
0.0
 10
1520.536512333149
 20
427.3254613369212
 30
0.0
 10
1519.314974499748
 20
427.3946960514344
 30
0.0
 10
1518.218094501144
 20
427.3255999537147
 30
0.0
 10
1517.44272644889
 20
427.2222590471668
 30
0.0
 10
1517.191374419626
 20
427.1790522484868
 30
0.0
 10
1516.708617648813
 20
427.0764480737816
 30
0.0
 10
1516.477963706361
 20
427.0172940653012
 30
0.0
 10
1515.375860053619
 20
426.6851449258505
 30
0.0
 10
1514.656056529941
 20
426.3041014583344
 30
0.0
 10
1514.082815386458
 20
425.8358625039164
 30
0.0
  0
SPLINE
  5
C4B
330
1F
100
AcDbEntity
  8
1
  6
Continuous
 48
25.4
100
AcDbSpline
210
0.0
220
0.0
230
1.0
 70
     8
 71
     3
 72
    21
 73
    17
 74
     0
 42
0.0000000001
 43
0.0000000001
 40
0.0
 40
0.0
 40
0.0
 40
0.0
 40
0.2500000000000004
 40
0.2500000000000004
 40
0.3125000000000003
 40
0.3125000000000003
 40
0.3750000000000002
 40
0.3750000000000002
 40
0.5
 40
0.625
 40
0.625
 40
0.6875
 40
0.6875
 40
0.75
 40
0.75
 40
1.0
 40
1.0
 40
1.0
 40
1.0
 10
1477.485250180909
 20
425.8358625039164
 30
0.0
 10
1476.912073659689
 20
426.3040486731133
 30
0.0
 10
1476.192669282749
 20
426.6847721877628
 30
0.0
 10
1475.092308235091
 20
427.0166870492054
 30
0.0
 10
1474.862066832926
 20
427.0758039345029
 30
0.0
 10
1474.380293592846
 20
427.1783729894729
 30
0.0
 10
1474.128415745252
 20
427.2217804948913
 30
0.0
 10
1473.352030911285
 20
427.3254613369212
 30
0.0
 10
1472.254393923013
 20
427.3946960514343
 30
0.0
 10
1471.033860745766
 20
427.3255999537147
 30
0.0
 10
1470.07183259971
 20
427.2222590471667
 30
0.0
 10
1469.742255114298
 20
427.1790522484866
 30
0.0
 10
1469.072744422415
 20
427.0764480737814
 30
0.0
 10
1468.734002701314
 20
427.0172940653011
 30
0.0
 10
1467.021015687666
 20
426.6851449258505
 30
0.0
 10
1465.589687593642
 20
426.3041014583341
 30
0.0
 10
1464.099058615323
 20
425.8358625039162
 30
0.0
  0
ARC
  5
C4C
330
1F
100
AcDbEntity
  8
1
  6
Continuous
 48
25.4
100
AcDbCircle
 10
1495.784032783684
 20
397.1248299831259
 30
0.0
 40
30.23108418044543
100
AcDbArc
 50
71.75362118793898
 51
108.2463788120609
  0
SPLINE
  5
C4D
330
1F
100
AcDbEntity
  8
1
  6
Continuous
 48
25.4
100
AcDbSpline
210
0.0
220
0.0
230
1.0
 70
     8
 71
     3
 72
    14
 73
    10
 74
     0
 42
0.0000000001
 43
0.0000000001
 40
0.5000635921715842
 40
0.5000635921715842
 40
0.5000635921715842
 40
0.5000635921715842
 40
0.625
 40
0.625
 40
0.6874999999999997
 40
0.6874999999999997
 40
0.7499999999999997
 40
0.7499999999999997
 40
1.0
 40
1.0
 40
1.0
 40
1.0
 10
1529.104650185458
 20
427.3601133744143
 30
0.0
 10
1529.104650930056
 20
427.3601128419179
 30
0.0
 10
1529.148369202231
 20
427.3255649047936
 30
0.0
 10
1529.280313055306
 20
427.2222590471664
 30
0.0
 10
1529.335626805811
 20
427.1790522484864
 30
0.0
 10
1529.467681769813
 20
427.0764480737814
 30
0.0
 10
1529.544111371058
 20
427.017294065301
 30
0.0
 10
1529.97607113807
 20
426.6851449258505
 30
0.0
 10
1530.479194986742
 20
426.3041014583341
 30
0.0
 10
1531.127886145732
 20
425.8358625039162
 30
0.0
  0
SPLINE
  5
C4E
330
1F
100
AcDbEntity
  8
1
  6
Continuous
 48
25.4
100
AcDbSpline
210
0.0
220
0.0
230
1.0
 70
     8
 71
     3
 72
    15
 73
    11
 74
     0
 42
0.0000000001
 43
0.0000000001
 40
0.0
 40
0.0
 40
0.0
 40
0.0
 40
0.2499999999999998
 40
0.2499999999999998
 40
0.3124999999999996
 40
0.3124999999999996
 40
0.3749999999999996
 40
0.3749999999999996
 40
0.4999999999999997
 40
0.5000635921714994
 40
0.5000635921714994
 40
0.5000635921714994
 40
0.5000635921714994
 10
1460.440179421635
 20
425.8358625039162
 30
0.0
 10
1461.08879745278
 20
426.3040486731131
 30
0.0
 10
1461.591498348024
 20
426.6847721877625
 30
0.0
 10
1462.023167591192
 20
427.0166870492051
 30
0.0
 10
1462.099552168871
 20
427.0758039345026
 30
0.0
 10
1462.231567099566
 20
427.1783729894727
 30
0.0
 10
1462.287140331572
 20
427.2217804948909
 30
0.0
 10
1462.419566003513
 20
427.325461336921
 30
0.0
 10
1462.463393852933
 20
427.3600963053208
 30
0.0
 10
1462.463415382289
 20
427.3601133746852
 30
0.0
 10
1462.46341538191
 20
427.3601133744143
 30
0.0
  0
LINE
  5
C4F
330
1F
100
AcDbEntity
  8
1
  6
Continuous
 48
25.4
100
AcDbLine
 10
1515.193029785508
 20
417.8358625039165
 30
0.0
 11
1514.082815386458
 21
425.8358625039165
 31
0.0
  0
ARC
  5
C50
330
1F
100
AcDbEntity
  8
1
  6
Continuous
 48
25.4
100
AcDbCircle
 10
-2625.114591946682
 20
991.104503786858
 30
0.0
 40
4141.358967952815
100
AcDbArc
 50
352.0432676390214
 51
352.1550085195924
  0
LINE
  5
C51
330
1F
100
AcDbEntity
  8
1
  6
Continuous
 48
25.4
100
AcDbLine
 10
1463.114615351119
 20
417.8358625039163
 30
0.0
 11
1464.099058615323
 21
425.8358625039162
 31
0.0
  0
ARC
  5
C52
330
1F
100
AcDbEntity
  8
1
  6
Continuous
 48
25.4
100
AcDbCircle
 10
-2557.514669319945
 20
-80.90404109100164
 30
0.0
 40
4116.29408148932
100
AcDbArc
 50
6.959190389150072
 51
7.071384439756887
  0
LINE
  5
C53
330
1F
100
AcDbEntity
  8
1
  6
Continuous
 48
25.4
100
AcDbLine
 10
1532.609032783684
 20
417.8358625039161
 30
0.0
 11
1531.127886145732
 21
425.8358625039162
 31
0.0
  0
ARC
  5
C54
330
1F
100
AcDbEntity
  8
1
  6
Continuous
 48
25.4
100
AcDbCircle
 10
-1340.922004243057
 20
453.4754108798322
 30
0.0
 40
2846.305706350289
100
AcDbArc
 50
359.282561580242
 51
359.4436105876651
  0
LINE
  5
C55
330
1F
100
AcDbEntity
  8
1
  6
Continuous
 48
25.4
100
AcDbLine
 10
1486.407499575722
 20
417.8358625039165
 30
0.0
 11
1486.318565953395
 21
425.8358625039164
 31
0.0
  0
LINE
  5
C56
330
1F
100
AcDbEntity
  8
1
  6
Continuous
 48
25.4
100
AcDbLine
 10
1460.440179421635
 20
425.8358625039162
 30
0.0
 11
1458.959032783684
 21
417.8358625039161
 31
0.0
  0
LINE
  5
C57
330
1F
100
AcDbEntity
  8
1
  6
Continuous
 48
25.4
100
AcDbLine
 10
1523.795389255977
 20
429.8358625039161
 30
0.0
 11
1467.77267631139
 21
429.8358625039161
 31
0.0
  0
LINE
  5
C59
330
1F
100
AcDbEntity
  8
1
  6
Continuous
 48
25.4
100
AcDbLine
 10
1462.459855604232
 20
427.3584535217606
 30
0.0
 11
1459.194648629352
 21
425.8358625039125
 31
0.0
  0
LINE
  5
C5A
330
1F
100
AcDbEntity
  8
1
  6
Continuous
 48
25.4
100
AcDbLine
 10
1532.373416938016
 20
425.8358625039125
 30
0.0
 11
1529.108209963135
 21
427.3584535217606
 31
0.0
  0
LINE
  5
C5B
330
1F
100
AcDbEntity
  8
1
  6
Continuous
 48
25.4
100
AcDbLine
 10
1459.194648629352
 20
425.8358625039125
 30
0.0
 11
1457.784032783684
 21
417.8358625039125
 31
0.0
  0
LINE
  5
C5C
330
1F
100
AcDbEntity
  8
1
  6
Continuous
 48
25.4
100
AcDbLine
 10
1533.784032783684
 20
417.8358625039126
 30
0.0
 11
1532.373416938016
 21
425.8358625039126
 31
0.0
  0
LINE
  5
C5D
330
1F
100
AcDbEntity
  8
1
  6
Continuous
 48
25.4
100
AcDbLine
 10
1459.508292726854
 20
425.8358625039125
 30
0.0
 11
1459.194648629352
 21
425.8358625039124
 31
0.0
  0
LINE
  5
C5E
330
1F
100
AcDbEntity
  8
1
  6
Continuous
 48
25.4
100
AcDbLine
 10
1532.059772840513
 20
425.8358625039125
 30
0.0
 11
1532.373416938016
 21
425.8358625039126
 31
0.0
  0
LINE
  5
C5F
330
1F
100
AcDbEntity
  8
1
  6
Continuous
 48
25.4
100
AcDbLine
 10
1458.959032783684
 20
417.8358625039126
 30
0.0
 11
1458.173925087248
 21
417.8358625039126
 31
0.0
  0
LINE
  5
C60
330
1F
100
AcDbEntity
  8
1
  6
Continuous
 48
25.4
100
AcDbLine
 10
1533.394140480119
 20
417.8358625039126
 30
0.0
 11
1533.784032783683
 21
417.8358625039125
 31
0.0
  0
SPLINE
  5
C61
330
1F
100
AcDbEntity
  8
1
  6
Continuous
 48
25.4
100
AcDbSpline
210
0.0
220
0.0
230
1.0
 70
     8
 71
     3
 72
     8
 73
     4
 74
     0
 42
0.0000000001
 43
0.0000000001
 40
0.8542386620871893
 40
0.8542386620871893
 40
0.8542386620871893
 40
0.8542386620871893
 40
1.0
 40
1.0
 40
1.0
 40
1.0
 10
1461.418894306293
 20
426.5603768022786
 30
0.0
 10
1460.820692211047
 20
426.352230197657
 30
0.0
 10
1460.183337804626
 20
426.1088670497479
 30
0.0
 10
1459.508292726854
 20
425.8358625039125
 30
0.0
  0
LINE
  5
C62
330
1F
100
AcDbEntity
  8
1
  6
Continuous
 48
25.4
100
AcDbLine
 10
1533.394140480119
 20
417.8358625039126
 30
0.0
 11
1532.536144107202
 21
417.8358625039126
 31
0.0
  0
SPLINE
  5
C63
330
1F
100
AcDbEntity
  8
1
  6
Continuous
 48
25.4
100
AcDbSpline
210
0.0
220
0.0
230
1.0
 70
     8
 71
     3
 72
     8
 73
     4
 74
     0
 42
0.0000000001
 43
0.0000000001
 40
0.0
 40
0.0
 40
0.0
 40
0.0
 40
0.1458044916917623
 40
0.1458044916917623
 40
0.1458044916917623
 40
0.1458044916917623
 10
1532.059772840513
 20
425.8358625039126
 30
0.0
 10
1531.384604031679
 20
426.1089170895801
 30
0.0
 10
1530.747365264356
 20
426.3522218483328
 30
0.0
 10
1530.14945032222
 20
426.5602759728082
 30
0.0
  0
LINE
  5
C64
330
1F
100
AcDbEntity
  8
1
  6
Continuous
 48
25.4
100
AcDbLine
 10
1458.173925087248
 20
417.8358625039126
 30
0.0
 11
1459.508292726853
 21
425.8358625039126
 31
0.0
  0
ARC
  5
C65
330
1F
100
AcDbEntity
  8
1
  6
Continuous
 48
25.4
100
AcDbCircle
 10
-6110.529764670861
 20
-853.028441264403
 30
0.0
 40
7748.849511142354
100
AcDbArc
 50
9.439544516720866
 51
9.49951452832329
  0
LINE
  5
C66
330
1F
100
AcDbEntity
  8
1
  6
Continuous
 48
25.4
100
AcDbLine
 10
1458.173925087248
 20
417.8358625039124
 30
0.0
 11
1457.784032783684
 21
417.8358625039125
 31
0.0
  0
LINE
  5
C67
330
1F
100
AcDbEntity
  8
1
  6
Continuous
 48
25.4
100
AcDbLine
 10
1613.289586283149
 20
441.8358625039142
 30
0.0
 11
1613.289586283149
 21
441.4164190875158
 31
0.0
  0
LINE
  5
C68
330
1F
100
AcDbEntity
  8
1
  6
Continuous
 48
25.4
100
AcDbLine
 10
1611.413197908282
 20
440.835862503915
 30
0.0
 11
1605.784032783684
 21
440.835862503915
 31
0.0
  0
LINE
  5
C69
330
1F
100
AcDbEntity
  8
1
  6
Continuous
 48
25.4
100
AcDbLine
 10
1598.278479284219
 20
441.4164190875158
 30
0.0
 11
1599.284032783684
 21
440.835862503915
 31
0.0
  0
LINE
  5
C6A
330
1F
100
AcDbEntity
  8
1
  6
Continuous
 48
25.4
100
AcDbLine
 10
1612.284032783683
 20
440.835862503915
 30
0.0
 11
1613.289586283149
 21
441.4164190875158
 31
0.0
  0
ARC
  5
C6B
330
1F
100
AcDbEntity
  8
1
  6
Continuous
 48
25.4
100
AcDbCircle
 10
1611.51973867034
 20
444.5027772329128
 30
0.0
 40
3.66846215241749
100
AcDbArc
 50
237.2799906266989
 51
268.3357619052646
  0
ARC
  5
C6C
330
1F
100
AcDbEntity
  8
1
  6
Continuous
 48
25.4
100
AcDbCircle
 10
1611.282068117771
 20
444.5822502221836
 30
0.0
 40
3.748681896020686
100
AcDbArc
 50
272.0046290476262
 51
302.3796184204128
  0
LINE
  5
C6D
330
1F
100
AcDbEntity
  8
1
  6
Continuous
 48
25.4
100
AcDbLine
 10
1612.284032783683
 20
440.835862503915
 30
0.0
 11
1611.413197908282
 21
440.835862503915
 31
0.0
  0
LINE
  5
C6E
330
1F
100
AcDbEntity
  8
1
  6
Continuous
 48
25.4
100
AcDbLine
 10
1600.154867659085
 20
440.835862503915
 30
0.0
 11
1599.284032783684
 21
440.835862503915
 31
0.0
  0
LINE
  5
C6F
330
1F
100
AcDbEntity
  8
1
  6
Continuous
 48
25.4
100
AcDbLine
 10
1605.784032783684
 20
440.835862503915
 30
0.0
 11
1600.154867659085
 21
440.835862503915
 31
0.0
  0
ARC
  5
C70
330
1F
100
AcDbEntity
  8
1
  6
Continuous
 48
25.4
100
AcDbCircle
 10
1600.285997449597
 20
444.5822502221836
 30
0.0
 40
3.7486818960206
100
AcDbArc
 50
237.6203815795815
 51
267.9953709523735
  0
LINE
  5
C71
330
1F
100
AcDbEntity
  8
1
  6
Continuous
 48
25.4
100
AcDbLine
 10
1598.278479284219
 20
441.4164190875158
 30
0.0
 11
1598.278479284219
 21
441.8358625039143
 31
0.0
  0
LINE
  5
C72
330
1F
100
AcDbEntity
  8
1
  6
Continuous
 48
25.4
100
AcDbLine
 10
1602.031256033951
 20
441.8358625039143
 30
0.0
 11
1602.031256033951
 21
441.4164190875158
 31
0.0
  0
LINE
  5
C73
330
1F
100
AcDbEntity
  8
1
  6
Continuous
 48
25.4
100
AcDbLine
 10
1609.536809533416
 20
441.4164190875158
 30
0.0
 11
1609.536809533416
 21
441.8358625039143
 31
0.0
  0
ARC
  5
C74
330
1F
100
AcDbEntity
  8
1
  6
Continuous
 48
25.4
100
AcDbCircle
 10
1600.048326897027
 20
444.5027772329128
 30
0.0
 40
3.66846215241751
100
AcDbArc
 50
271.6642380947396
 51
302.7200093733053
  0
ARC
  5
C75
330
1F
100
AcDbEntity
  8
1
  6
Continuous
 48
25.4
100
AcDbCircle
 10
1605.934826854053
 20
454.2300541141414
 30
0.0
 40
13.39504041588215
100
AcDbArc
 50
253.0570645341764
 51
269.3549816918298
  0
ARC
  5
C76
330
1F
100
AcDbEntity
  8
1
  6
Continuous
 48
25.4
100
AcDbCircle
 10
1605.634684586069
 20
454.2207078457337
 30
0.0
 40
13.38567853000119
100
AcDbArc
 50
270.6392801776658
 51
286.9486735963271
  0
LINE
  5
C77
330
1F
100
AcDbEntity
  8
1
  6
Continuous
 48
25.4
100
AcDbLine
 10
1601.784032783684
 20
440.835862503915
 30
0.0
 11
1601.784032783684
 21
438.835862503915
 31
0.0
  0
LINE
  5
C78
330
1F
100
AcDbEntity
  8
1
  6
Continuous
 48
25.4
100
AcDbLine
 10
1609.784032783683
 20
438.835862503915
 30
0.0
 11
1609.784032783683
 21
440.835862503915
 31
0.0
  0
LINE
  5
C79
330
1F
100
AcDbEntity
  8
1
  6
Continuous
 48
25.4
100
AcDbLine
 10
1609.784032783683
 20
438.835862503915
 30
0.0
 11
1601.784032783684
 21
438.835862503915
 31
0.0
  0
LINE
  5
C7A
330
1F
100
AcDbEntity
  8
1
  6
Continuous
 48
25.4
100
AcDbLine
 10
1602.549032783684
 20
440.835862503915
 30
0.0
 11
1602.549032783684
 21
438.835862503915
 31
0.0
  0
LINE
  5
C7B
330
1F
100
AcDbEntity
  8
1
  6
Continuous
 48
25.4
100
AcDbLine
 10
1609.019032783684
 20
440.835862503915
 30
0.0
 11
1609.019032783684
 21
438.835862503915
 31
0.0
  0
CIRCLE
  5
C7C
330
1F
100
AcDbEntity
  8
1
  6
Continuous
 48
25.4
100
AcDbCircle
 10
1645.784032783684
 20
457.8358625039124
 30
0.0
 40
2.0
  0
CIRCLE
  5
C7D
330
1F
100
AcDbEntity
  8
1
  6
Continuous
 48
25.4
100
AcDbCircle
 10
1645.784032783684
 20
457.8358625039124
 30
0.0
 40
1.57
  0
CIRCLE
  5
C7E
330
1F
100
AcDbEntity
  8
1
  6
Continuous
 48
25.4
100
AcDbCircle
 10
1645.784032783684
 20
457.8358625039123
 30
0.0
 40
2.0
  0
CIRCLE
  5
C7F
330
1F
100
AcDbEntity
  8
1
  6
Continuous
 48
25.4
100
AcDbCircle
 10
1645.784032783684
 20
457.8358625039123
 30
0.0
 40
1.57
  0
LINE
  5
C80
330
1F
100
AcDbEntity
  8
1
  6
Continuous
 48
25.4
100
AcDbLine
 10
1744.284032783684
 20
530.335862503913
 30
0.0
 11
1710.784032783684
 21
530.335862503913
 31
0.0
  0
ARC
  5
C81
330
1F
100
AcDbEntity
  8
1
  6
Continuous
 48
25.4
100
AcDbCircle
 10
1744.284032783684
 20
518.8358625039134
 30
0.0
 40
11.49999999999999
100
AcDbArc
 50
0.0
 51
90.0
  0
LINE
  5
C84
330
1F
100
AcDbEntity
  8
1
  6
Continuous
 48
25.4
100
AcDbLine
 10
1755.784032783684
 20
470.3358625039133
 30
0.0
 11
1710.784032783683
 21
470.3358625039133
 31
0.0
  0
LINE
  5
C86
330
1F
100
AcDbEntity
  8
1
  6
Continuous
 48
25.4
100
AcDbLine
 10
1755.784032783684
 20
518.8358625039134
 30
0.0
 11
1755.784032783684
 21
470.3358625039133
 31
0.0
  0
LINE
  5
C87
330
1F
100
AcDbEntity
  8
1
  6
Continuous
 48
25.4
100
AcDbLine
 10
1455.784032783684
 20
470.3358625039133
 30
0.0
 11
1455.784032783684
 21
518.8358625039134
 31
0.0
  0
LINE
  5
C88
330
1F
100
AcDbEntity
  8
1
  6
Continuous
 48
25.4
100
AcDbLine
 10
1500.784032783684
 20
470.3358625039133
 30
0.0
 11
1455.784032783684
 21
470.3358625039133
 31
0.0
  0
ARC
  5
C89
330
1F
100
AcDbEntity
  8
1
  6
Continuous
 48
25.4
100
AcDbCircle
 10
1467.284032783684
 20
518.8358625039134
 30
0.0
 40
11.50000000000001
100
AcDbArc
 50
90.0
 51
180.0
  0
LINE
  5
C8A
330
1F
100
AcDbEntity
  8
1
  6
Continuous
 48
25.4
100
AcDbLine
 10
1500.784032783684
 20
530.335862503913
 30
0.0
 11
1467.284032783684
 21
530.335862503913
 31
0.0
  0
LINE
  5
C8D
330
1F
100
AcDbEntity
  8
1
  6
Continuous
 48
25.4
100
AcDbLine
 10
1500.784032783684
 20
530.335862503913
 30
0.0
 11
1710.784032783684
 21
530.335862503913
 31
0.0
  0
LINE
  5
C8E
330
1F
100
AcDbEntity
  8
1
  6
Continuous
 48
25.4
100
AcDbLine
 10
1500.784032783684
 20
470.3358625039133
 30
0.0
 11
1710.784032783684
 21
470.3358625039133
 31
0.0
  0
LINE
  5
C91
330
1F
100
AcDbEntity
  8
1
  6
Continuous
 48
25.4
100
AcDbLine
 10
1585.784032783683
 20
1057.835862503909
 30
0.0
 11
1585.784032783683
 21
559.8358625039099
 31
0.0
  0
LINE
  5
C92
330
1F
100
AcDbEntity
  8
1
  6
Continuous
 48
25.4
100
AcDbLine
 10
1625.784032783683
 20
1057.835862503909
 30
0.0
 11
1625.784032783683
 21
559.8358625039099
 31
0.0
  0
LINE
  5
C93
330
1F
100
AcDbEntity
  8
1
  6
Continuous
 48
25.4
100
AcDbLine
 10
1625.784032783683
 20
559.8358625039099
 30
0.0
 11
1625.784032783683
 21
530.335862503913
 31
0.0
  0
LINE
  5
C94
330
1F
100
AcDbEntity
  8
1
  6
Continuous
 48
25.4
100
AcDbLine
 10
1585.784032783683
 20
530.335862503913
 30
0.0
 11
1585.784032783683
 21
559.8358625039099
 31
0.0
  0
LINE
  5
C96
330
1F
100
AcDbEntity
  8
1
  6
Continuous
 48
25.4
100
AcDbLine
 10
1625.784032783684
 20
419.8358625039135
 30
0.0
 11
1625.784032783684
 21
420.3358625039134
 31
0.0
  0
LINE
  5
C97
330
1F
100
AcDbEntity
  8
1
  6
Continuous
 48
25.4
100
AcDbLine
 10
1585.784032783684
 20
420.3358625039134
 30
0.0
 11
1585.784032783684
 21
419.8358625039134
 31
0.0
  0
LINE
  5
C98
330
1F
100
AcDbEntity
  8
1
  6
Continuous
 48
25.4
100
AcDbLine
 10
1585.784032783684
 20
419.8358625039135
 30
0.0
 11
1586.284032783684
 21
419.8358625039135
 31
0.0
  0
LINE
  5
C99
330
1F
100
AcDbEntity
  8
1
  6
Continuous
 48
25.4
100
AcDbLine
 10
1625.284032783684
 20
419.8358625039135
 30
0.0
 11
1625.784032783684
 21
419.8358625039135
 31
0.0
  0
LINE
  5
C9A
330
1F
100
AcDbEntity
  8
1
  6
Continuous
 48
25.4
100
AcDbLine
 10
1625.193029785507
 20
417.8358625039099
 30
0.0
 11
1624.915476185745
 21
419.8358625039135
 31
0.0
  0
ARC
  5
C9C
330
1F
100
AcDbEntity
  8
1
  6
Continuous
 48
25.4
100
AcDbCircle
 10
1593.784032783683
 20
414.8358625039099
 30
0.0
 40
2.0
100
AcDbArc
 50
180.0
 51
270.0
  0
LINE
  5
C9D
330
1F
100
AcDbEntity
  8
1
  6
Continuous
 48
25.4
100
AcDbLine
 10
1577.772676311389
 20
429.8358625039099
 30
0.0
 11
1572.459855604231
 21
427.3584535217573
 31
0.0
  0
LINE
  5
C9E
330
1F
100
AcDbEntity
  8
1
  6
Continuous
 48
25.4
100
AcDbLine
 10
1591.784032783683
 20
417.8358625039099
 30
0.0
 11
1591.784032783683
 21
414.8358625039099
 31
0.0
  0
ARC
  5
C9F
330
1F
100
AcDbEntity
  8
1
  6
Continuous
 48
25.4
100
AcDbCircle
 10
1617.784032783683
 20
414.8358625039099
 30
0.0
 40
2.000000000000002
100
AcDbArc
 50
270.0
 51
0.0
  0
LINE
  5
CA0
330
1F
100
AcDbEntity
  8
1
  6
Continuous
 48
25.4
100
AcDbLine
 10
1639.108209963135
 20
427.3584535217573
 30
0.0
 11
1633.795389255977
 21
429.8358625039099
 31
0.0
  0
LINE
  5
CA1
330
1F
100
AcDbEntity
  8
1
  6
Continuous
 48
25.4
100
AcDbLine
 10
1619.784032783683
 20
414.8358625039099
 30
0.0
 11
1619.784032783683
 21
417.8358625039099
 31
0.0
  0
LINE
  5
CA2
330
1F
100
AcDbEntity
  8
1
  6
Continuous
 48
25.4
100
AcDbLine
 10
1574.099058615322
 20
425.8358625039099
 30
0.0
 11
1570.440179421634
 21
425.8358625039099
 31
0.0
  0
LINE
  5
CA3
330
1F
100
AcDbEntity
  8
1
  6
Continuous
 48
25.4
100
AcDbLine
 10
1586.375035781859
 20
417.8358625039099
 30
0.0
 11
1573.114615351118
 21
417.8358625039099
 31
0.0
  0
LINE
  5
CA4
330
1F
100
AcDbEntity
  8
1
  6
Continuous
 48
25.4
100
AcDbLine
 10
1638.453450216248
 20
417.8358625039099
 30
0.0
 11
1642.609032783683
 21
417.8358625039099
 31
0.0
  0
SPLINE
  5
CA5
330
1F
100
AcDbEntity
  8
1
  6
Continuous
 48
25.4
100
AcDbSpline
210
0.0
220
0.0
230
1.0
 70
     8
 71
     3
 72
    21
 73
    17
 74
     0
 42
0.0000000001
 43
0.0000000001
 40
0.2001793837758878
 40
0.2001793837758878
 40
0.2001793837758878
 40
0.2001793837758878
 40
0.2499999999999991
 40
0.2499999999999991
 40
0.3124999999999991
 40
0.3124999999999991
 40
0.3749999999999989
 40
0.3749999999999989
 40
0.4999999999999992
 40
0.6249999999999992
 40
0.6249999999999992
 40
0.6874999999999992
 40
0.6874999999999992
 40
0.7499999999999993
 40
0.7499999999999993
 40
1.0
 40
1.0
 40
1.0
 40
1.0
 10
1585.819606972899
 20
426.7780519933754
 30
0.0
 10
1585.656843418407
 20
426.8398977154387
 30
0.0
 10
1585.487806574104
 20
426.8973882275311
 30
0.0
 10
1585.092308235091
 20
427.016687049199
 30
0.0
 10
1584.862066832925
 20
427.0758039344965
 30
0.0
 10
1584.380293592846
 20
427.1783729894665
 30
0.0
 10
1584.128415745251
 20
427.2217804948849
 30
0.0
 10
1583.352030911284
 20
427.3254613369148
 30
0.0
 10
1582.254393366103
 20
427.394696078725
 30
0.0
 10
1581.033860745765
 20
427.3255999537082
 30
0.0
 10
1580.07183259971
 20
427.2222590471603
 30
0.0
 10
1579.742255114297
 20
427.1790522484803
 30
0.0
 10
1579.072744422415
 20
427.076448073775
 30
0.0
 10
1578.734002701314
 20
427.0172940652947
 30
0.0
 10
1577.021015687664
 20
426.6851449258441
 30
0.0
 10
1575.589687593641
 20
426.3041014583277
 30
0.0
 10
1574.099058615322
 20
425.8358625039099
 30
0.0
  0
SPLINE
  5
CA6
330
1F
100
AcDbEntity
  8
1
  6
Continuous
 48
25.4
100
AcDbSpline
210
0.0
220
0.0
230
1.0
 70
     8
 71
     3
 72
    15
 73
    11
 74
     0
 42
0.0000000001
 43
0.0000000001
 40
0.0
 40
0.0
 40
0.0
 40
0.0
 40
0.2499999999999999
 40
0.2499999999999999
 40
0.3124999999999999
 40
0.3124999999999999
 40
0.3749999999999998
 40
0.3749999999999998
 40
0.5
 40
0.5000635921715375
 40
0.5000635921715375
 40
0.5000635921715375
 40
0.5000635921715375
 10
1570.440179421634
 20
425.8358625039099
 30
0.0
 10
1571.088797452779
 20
426.3040486731069
 30
0.0
 10
1571.591498348023
 20
426.6847721877561
 30
0.0
 10
1572.023167591192
 20
427.016687049199
 30
0.0
 10
1572.09955216887
 20
427.0758039344965
 30
0.0
 10
1572.231567099565
 20
427.1783729894665
 30
0.0
 10
1572.287140331571
 20
427.2217804948849
 30
0.0
 10
1572.419566003513
 20
427.3254613369148
 30
0.0
 10
1572.463393852932
 20
427.3600963053147
 30
0.0
 10
1572.463415382289
 20
427.360113374679
 30
0.0
 10
1572.463415381909
 20
427.360113374408
 30
0.0
  0
SPLINE
  5
CA7
330
1F
100
AcDbEntity
  8
1
  6
Continuous
 48
25.4
100
AcDbSpline
210
0.0
220
0.0
230
1.0
 70
     8
 71
     3
 72
    14
 73
    10
 74
     0
 42
0.0000000001
 43
0.0000000001
 40
0.5000635921715375
 40
0.5000635921715375
 40
0.5000635921715375
 40
0.5000635921715375
 40
0.6249999999999996
 40
0.6249999999999996
 40
0.6874999999999995
 40
0.6874999999999995
 40
0.7499999999999995
 40
0.7499999999999995
 40
1.0
 40
1.0
 40
1.0
 40
1.0
 10
1639.104650185456
 20
427.360113374408
 30
0.0
 10
1639.104650930056
 20
427.3601128419117
 30
0.0
 10
1639.148369202231
 20
427.3255649047874
 30
0.0
 10
1639.280313055307
 20
427.2222590471603
 30
0.0
 10
1639.33562680581
 20
427.1790522484803
 30
0.0
 10
1639.467681769812
 20
427.076448073775
 30
0.0
 10
1639.544111371057
 20
427.0172940652947
 30
0.0
 10
1639.976071138069
 20
426.6851449258441
 30
0.0
 10
1640.479194986741
 20
426.3041014583277
 30
0.0
 10
1641.127886145732
 20
425.8358625039099
 30
0.0
  0
SPLINE
  5
CA8
330
1F
100
AcDbEntity
  8
1
  6
Continuous
 48
25.4
100
AcDbSpline
210
0.0
220
0.0
230
1.0
 70
     8
 71
     3
 72
    21
 73
    17
 74
     0
 42
0.0000000001
 43
0.0000000001
 40
0.0
 40
0.0
 40
0.0
 40
0.0
 40
0.2499999999999996
 40
0.2499999999999996
 40
0.3124999999999996
 40
0.3124999999999996
 40
0.3749999999999996
 40
0.3749999999999996
 40
0.4999999999999997
 40
0.6249999999999996
 40
0.6249999999999996
 40
0.6874999999999996
 40
0.6874999999999996
 40
0.7499999999999996
 40
0.7499999999999996
 40
0.7997600854463234
 40
0.7997600854463234
 40
0.7997600854463234
 40
0.7997600854463234
 10
1637.469006952044
 20
425.8358625039099
 30
0.0
 10
1635.978546014379
 20
426.3040486731069
 30
0.0
 10
1634.548215213567
 20
426.6847721877561
 30
0.0
 10
1632.837381667761
 20
427.016687049199
 30
0.0
 10
1632.499116159887
 20
427.0758039344965
 30
0.0
 10
1631.830645614383
 20
427.1783729894665
 30
0.0
 10
1631.500175348381
 20
427.2217804948849
 30
0.0
 10
1630.536512333148
 20
427.3254613369148
 30
0.0
 10
1629.314974499748
 20
427.3946960514279
 30
0.0
 10
1628.218094501144
 20
427.3255999537082
 30
0.0
 10
1627.442726448889
 20
427.2222590471603
 30
0.0
 10
1627.191374419625
 20
427.1790522484803
 30
0.0
 10
1626.708617648813
 20
427.076448073775
 30
0.0
 10
1626.47796370636
 20
427.0172940652947
 30
0.0
 10
1626.082052505632
 20
426.8979753748126
 30
0.0
 10
1625.912975220917
 20
426.8405177084849
 30
0.0
 10
1625.750190340962
 20
426.7787130440226
 30
0.0
  0
ARC
  5
CA9
330
1F
100
AcDbEntity
  8
1
  6
Continuous
 48
25.4
100
AcDbCircle
 10
-2447.514669298747
 20
-80.90404108838702
 30
0.0
 40
4116.294081467961
100
AcDbArc
 50
6.959190389149577
 51
7.071384439756968
  0
LINE
  5
CAA
330
1F
100
AcDbEntity
  8
1
  6
Continuous
 48
25.4
100
AcDbLine
 10
1638.453450216248
 20
417.8358625039099
 30
0.0
 11
1625.193029785507
 21
417.8358625039099
 31
0.0
  0
ARC
  5
CAB
330
1F
100
AcDbEntity
  8
1
  6
Continuous
 48
25.4
100
AcDbCircle
 10
-2515.114591981898
 20
991.1045037917416
 30
0.0
 40
4141.358967988366
100
AcDbArc
 50
352.0432676390218
 51
352.0712055936033
  0
LINE
  5
CAC
330
1F
100
AcDbEntity
  8
1
  6
Continuous
 48
25.4
100
AcDbLine
 10
1573.114615351118
 20
417.8358625039099
 30
0.0
 11
1574.099058615322
 21
425.8358625039099
 31
0.0
  0
LINE
  5
CAD
330
1F
100
AcDbEntity
  8
1
  6
Continuous
 48
25.4
100
AcDbLine
 10
1570.440179421634
 20
425.8358625039099
 30
0.0
 11
1568.959032783683
 21
417.8358625039098
 31
0.0
  0
LINE
  5
CAE
330
1F
100
AcDbEntity
  8
1
  6
Continuous
 48
25.4
100
AcDbLine
 10
1642.609032783683
 20
417.8358625039099
 30
0.0
 11
1641.127886145732
 21
425.8358625039099
 31
0.0
  0
LINE
  5
CAF
330
1F
100
AcDbEntity
  8
1
  6
Continuous
 48
25.4
100
AcDbLine
 10
1596.407499575722
 20
417.8358625039099
 30
0.0
 11
1596.38526617014
 21
419.8358625039135
 31
0.0
  0
LINE
  5
CB0
330
1F
100
AcDbEntity
  8
1
  6
Continuous
 48
25.4
100
AcDbLine
 10
1615.160565991644
 20
417.8358625039099
 30
0.0
 11
1625.193029785507
 21
417.8358625039099
 31
0.0
  0
LINE
  5
CB1
330
1F
100
AcDbEntity
  8
1
  6
Continuous
 48
25.4
100
AcDbLine
 10
1641.127886145732
 20
425.8358625039099
 30
0.0
 11
1637.469006952044
 21
425.8358625039099
 31
0.0
  0
LINE
  5
CB2
330
1F
100
AcDbEntity
  8
1
  6
Continuous
 48
25.4
100
AcDbLine
 10
1586.375035781859
 20
417.8358625039099
 30
0.0
 11
1596.407499575722
 21
417.8358625039099
 31
0.0
  0
ARC
  5
CB3
330
1F
100
AcDbEntity
  8
1
  6
Continuous
 48
25.4
100
AcDbCircle
 10
-1230.922004253615
 20
453.4754108799393
 30
0.0
 40
2846.305706360845
100
AcDbArc
 50
359.2825615802423
 51
359.3228241552941
  0
LINE
  5
CB4
330
1F
100
AcDbEntity
  8
1
  6
Continuous
 48
25.4
100
AcDbLine
 10
1615.160565991644
 20
417.8358625039099
 30
0.0
 11
1596.407499575722
 21
417.8358625039099
 31
0.0
  0
LINE
  5
CB5
330
1F
100
AcDbEntity
  8
1
  6
Continuous
 48
25.4
100
AcDbLine
 10
1633.795389255977
 20
429.8358625039099
 30
0.0
 11
1625.784032783684
 21
429.8358625039099
 31
0.0
  0
LINE
  5
CB6
330
1F
100
AcDbEntity
  8
1
  6
Continuous
 48
25.4
100
AcDbLine
 10
1585.784032783684
 20
429.8358625039099
 30
0.0
 11
1577.772676311389
 21
429.8358625039099
 31
0.0
  0
LINE
  5
CB7
330
1F
100
AcDbEntity
  8
1
  6
Continuous
 48
25.4
100
AcDbLine
 10
1568.959032783683
 20
417.8358625039099
 30
0.0
 11
1573.114615351118
 21
417.8358625039099
 31
0.0
  0
LINE
  5
CB8
330
1F
100
AcDbEntity
  8
1
  6
Continuous
 48
25.4
100
AcDbLine
 10
1617.784032783683
 20
412.8358625039099
 30
0.0
 11
1593.784032783683
 21
412.8358625039099
 31
0.0
  0
LINE
  5
CB9
330
1F
100
AcDbEntity
  8
1
  6
Continuous
 48
25.4
100
AcDbLine
 10
1625.784032783683
 20
1033.440586087132
 30
0.0
 11
1631.784032783683
 21
1033.377751937198
 31
0.0
  0
LINE
  5
CBA
330
1F
100
AcDbEntity
  8
1
  6
Continuous
 48
25.4
100
AcDbLine
 10
1631.784032783683
 20
1056.29397307062
 30
0.0
 11
1625.784032783683
 21
1056.231138920686
 31
0.0
  0
LINE
  5
CBB
330
1F
100
AcDbEntity
  8
1
  6
Continuous
 48
25.4
100
AcDbLine
 10
1585.784032783683
 20
1056.231138920686
 30
0.0
 11
1579.784032783683
 21
1056.29397307062
 31
0.0
  0
LINE
  5
CBC
330
1F
100
AcDbEntity
  8
1
  6
Continuous
 48
25.4
100
AcDbLine
 10
1579.784032783683
 20
1033.377751937198
 30
0.0
 11
1585.784032783683
 21
1033.440586087132
 31
0.0
  0
LINE
  5
CBD
330
1F
100
AcDbEntity
  8
1
  6
Continuous
 48
25.4
100
AcDbLine
 10
1578.330246297037
 20
1067.691425112301
 30
0.0
 11
1578.284032783683
 21
1067.735862503909
 31
0.0
  0
LINE
  5
CC0
330
1F
100
AcDbEntity
  8
1
  6
Continuous
 48
25.4
100
AcDbLine
 10
1633.284032783683
 20
1067.735862503909
 30
0.0
 11
1633.23781927033
 21
1067.691425112301
 31
0.0
  0
LINE
  5
CC3
330
1F
100
AcDbEntity
  8
1
  6
Continuous
 48
25.4
100
AcDbLine
 10
1641.484032783683
 20
1070.835862503909
 30
0.0
 11
1641.484032783683
 21
1067.447477616316
 31
0.0
  0
LINE
  5
CC4
330
1F
100
AcDbEntity
  8
1
  6
Continuous
 48
25.4
100
AcDbLine
 10
1570.084032783683
 20
1067.447477616316
 30
0.0
 11
1570.084032783683
 21
1070.835862503909
 31
0.0
  0
LINE
  5
CC5
330
1F
100
AcDbEntity
  8
1
  6
Continuous
 48
25.4
100
AcDbLine
 10
1569.284032783684
 20
1070.835862503909
 30
0.0
 11
1569.284032783684
 21
1067.423799911484
 31
0.0
  0
LINE
  5
CC6
330
1F
100
AcDbEntity
  8
1
  6
Continuous
 48
25.4
100
AcDbLine
 10
1642.284032783683
 20
1067.423799911483
 30
0.0
 11
1642.284032783683
 21
1070.835862503909
 31
0.0
  0
LINE
  5
CC7
330
1F
100
AcDbEntity
  8
1
  6
Continuous
 48
25.4
100
AcDbLine
 10
1579.784032783683
 20
1066.607173902169
 30
0.0
 11
1579.784032783683
 21
1066.293511932063
 31
0.0
  0
LINE
  5
CC8
330
1F
100
AcDbEntity
  8
1
  6
Continuous
 48
25.4
100
AcDbLine
 10
1560.770524203009
 20
1020.32271408717
 30
0.0
 11
1578.784032783683
 21
1019.835862503909
 31
0.0
  0
LINE
  5
CC9
330
1F
100
AcDbEntity
  8
1
  6
Continuous
 48
25.4
100
AcDbLine
 10
1565.784032783683
 20
1067.320209952846
 30
0.0
 11
1565.784032783683
 21
1069.484511152558
 31
0.0
  0
ARC
  5
CCA
330
1F
100
AcDbEntity
  8
1
  6
Continuous
 48
25.4
100
AcDbCircle
 10
1560.784032783683
 20
1020.822531572107
 30
0.0
 40
0.5000000000000006
100
AcDbArc
 50
180.0
 51
268.4518423010044
  0
LINE
  5
CCB
330
1F
100
AcDbEntity
  8
1
  6
Continuous
 48
25.4
100
AcDbLine
 10
1578.784032783683
 20
1067.704837120189
 30
0.0
 11
1578.784032783683
 21
1019.835862503909
 31
0.0
  0
LINE
  5
CCC
330
1F
100
AcDbEntity
  8
1
  6
Continuous
 48
25.4
100
AcDbLine
 10
1579.784032783683
 20
1023.378213075756
 30
0.0
 11
1579.784032783683
 21
1022.335862503909
 31
0.0
  0
SPLINE
  5
CCD
330
1F
100
AcDbEntity
  8
1
  6
Continuous
 48
25.4
100
AcDbSpline
210
0.0
220
0.0
230
1.0
 70
     8
 71
     3
 72
    11
 73
     7
 74
     0
 42
0.0000000001
 43
0.0000000001
 40
0.0
 40
0.0
 40
0.0
 40
0.0
 40
0.7479459833743065
 40
0.7479459833743065
 40
0.7479459833743065
 40
1.0
 40
1.0
 40
1.0
 40
1.0
 10
1565.784032783683
 20
1067.320209952846
 30
0.0
 10
1569.025128026342
 20
1067.416239061065
 30
0.0
 10
1572.266226327772
 20
1067.512164983527
 30
0.0
 10
1575.507327564161
 20
1067.607991582598
 30
0.0
 10
1576.599562305252
 20
1067.640284662324
 30
0.0
 10
1577.691797379947
 20
1067.672566460624
 30
0.0
 10
1578.784032783683
 20
1067.704837120189
 30
0.0
  0
LINE
  5
CCE
330
1F
100
AcDbEntity
  8
1
  6
Continuous
 48
25.4
100
AcDbLine
 10
1579.784032783683
 20
1066.60717390217
 30
0.0
 11
1579.784032783683
 21
1020.835862503909
 31
0.0
  0
ARC
  5
CCF
330
1F
100
AcDbEntity
  8
1
  6
Continuous
 48
25.4
100
AcDbCircle
 10
1578.734117391215
 20
1066.655018156005
 30
0.0
 40
1.051004949543588
100
AcDbArc
 50
357.3908576847354
 51
87.27782675439049
  0
LINE
  5
CD1
330
1F
100
AcDbEntity
  8
1
  6
Continuous
 48
25.4
100
AcDbLine
 10
1560.284032783684
 20
1020.822531572107
 30
0.0
 11
1560.284032783684
 21
1068.849193435711
 31
0.0
  0
LINE
  5
CD2
330
1F
100
AcDbEntity
  8
1
  6
Continuous
 48
25.4
100
AcDbLine
 10
1565.784032783683
 20
1069.484511152558
 30
0.0
 11
1560.770524203009
 21
1069.349010920648
 31
0.0
  0
ARC
  5
CD3
330
1F
100
AcDbEntity
  8
1
  6
Continuous
 48
25.4
100
AcDbCircle
 10
1560.784032783683
 20
1068.849193435711
 30
0.0
 40
0.5000000000000111
100
AcDbArc
 50
91.54815769899554
 51
180.0
  0
ARC
  5
CD4
330
1F
100
AcDbEntity
  8
1
  6
Continuous
 48
25.4
100
AcDbCircle
 10
1578.784032783683
 20
1020.835862503909
 30
0.0
 40
0.9999999999998898
100
AcDbArc
 50
270.0
 51
0.0
  0
LINE
  5
CD5
330
1F
100
AcDbEntity
  8
1
  6
Continuous
 48
25.4
100
AcDbLine
 10
1650.797541364357
 20
1069.349010920648
 30
0.0
 11
1645.784032783683
 21
1069.484511152558
 31
0.0
  0
LINE
  5
CD6
330
1F
100
AcDbEntity
  8
1
  6
Continuous
 48
25.4
100
AcDbLine
 10
1645.784032783683
 20
1069.484511152558
 30
0.0
 11
1645.784032783683
 21
1067.320209952846
 31
0.0
  0
ARC
  5
CD7
330
1F
100
AcDbEntity
  8
1
  6
Continuous
 48
25.4
100
AcDbCircle
 10
1650.784032783683
 20
1068.849193435711
 30
0.0
 40
0.5000000000000006
100
AcDbArc
 50
0.0
 51
88.45184230100443
  0
SPLINE
  5
CD8
330
1F
100
AcDbEntity
  8
1
  6
Continuous
 48
25.4
100
AcDbSpline
210
0.0
220
0.0
230
1.0
 70
     8
 71
     3
 72
    11
 73
     7
 74
     0
 42
0.0000000001
 43
0.0000000001
 40
0.0
 40
0.0
 40
0.0
 40
0.0
 40
0.2520540166256879
 40
0.2520540166256879
 40
0.2520540166256879
 40
1.0
 40
1.0
 40
1.0
 40
1.0
 10
1632.784032783684
 20
1067.704837120188
 30
0.0
 10
1633.87626818742
 20
1067.672566460624
 30
0.0
 10
1634.968503262116
 20
1067.640284662324
 30
0.0
 10
1636.060738003206
 20
1067.607991582598
 30
0.0
 10
1639.301839239595
 20
1067.512164983527
 30
0.0
 10
1642.542937541025
 20
1067.416239061065
 30
0.0
 10
1645.784032783683
 20
1067.320209952846
 30
0.0
  0
LINE
  5
CD9
330
1F
100
AcDbEntity
  8
1
  6
Continuous
 48
25.4
100
AcDbLine
 10
1632.784032783684
 20
1019.835862503909
 30
0.0
 11
1632.784032783684
 21
1067.704837120189
 31
0.0
  0
LINE
  5
CDA
330
1F
100
AcDbEntity
  8
1
  6
Continuous
 48
25.4
100
AcDbLine
 10
1631.784032783683
 20
1022.335862503909
 30
0.0
 11
1631.784032783683
 21
1023.378213075756
 31
0.0
  0
LINE
  5
CDB
330
1F
100
AcDbEntity
  8
1
  6
Continuous
 48
25.4
100
AcDbLine
 10
1631.784032783683
 20
1020.835862503909
 30
0.0
 11
1631.784032783683
 21
1066.60717390217
 31
0.0
  0
LINE
  5
CDC
330
1F
100
AcDbEntity
  8
1
  6
Continuous
 48
25.4
100
AcDbLine
 10
1631.784032783683
 20
1066.607173902169
 30
0.0
 11
1631.784032783683
 21
1066.293511932063
 31
0.0
  0
SPLINE
  5
CDD
330
1F
100
AcDbEntity
  8
1
  6
Continuous
 48
25.4
100
AcDbSpline
210
0.0
220
0.0
230
1.0
 70
     8
 71
     3
 72
    12
 73
     8
 74
     0
 42
0.0000000001
 43
0.0000000001
 40
0.0
 40
0.0
 40
0.0
 40
0.0
 40
0.2500000000000001
 40
0.2500000000000001
 40
0.5000000000000001
 40
0.5000000000000001
 40
1.0
 40
1.0
 40
1.0
 40
1.0
 10
1632.784032783684
 20
1067.704837120188
 30
0.0
 10
1632.646494992362
 20
1067.704837120188
 30
0.0
 10
1632.508701873773
 20
1067.67305712866
 30
0.0
 10
1632.259420151047
 20
1067.55405573132
 30
0.0
 10
1632.149393683524
 20
1067.468258614084
 30
0.0
 10
1631.879726132933
 20
1067.157602958452
 30
0.0
 10
1631.784032783684
 20
1066.880355145632
 30
0.0
 10
1631.784032783684
 20
1066.60717390217
 30
0.0
  0
LINE
  5
CDF
330
1F
100
AcDbEntity
  8
1
  6
Continuous
 48
25.4
100
AcDbLine
 10
1651.284032783684
 20
1068.849193435711
 30
0.0
 11
1651.284032783684
 21
1020.822531572107
 31
0.0
  0
LINE
  5
CE0
330
1F
100
AcDbEntity
  8
1
  6
Continuous
 48
25.4
100
AcDbLine
 10
1632.784032783684
 20
1019.835862503909
 30
0.0
 11
1650.797541364357
 21
1020.32271408717
 31
0.0
  0
ARC
  5
CE1
330
1F
100
AcDbEntity
  8
1
  6
Continuous
 48
25.4
100
AcDbCircle
 10
1650.784032783683
 20
1020.822531572107
 30
0.0
 40
0.5000000000000111
100
AcDbArc
 50
271.5481576989954
 51
0.0
  0
ARC
  5
CE2
330
1F
100
AcDbEntity
  8
1
  6
Continuous
 48
25.4
100
AcDbCircle
 10
1632.784032783684
 20
1020.835862503909
 30
0.0
 40
1.000000000000001
100
AcDbArc
 50
180.0
 51
270.0
  0
ARC
  5
CE3
330
1F
100
AcDbEntity
  8
1
  6
Continuous
 48
25.4
100
AcDbCircle
 10
1586.284032783684
 20
420.3358625039134
 30
0.0
 40
0.5000000000000006
100
AcDbArc
 50
180.0
 51
270.0
  0
LINE
  5
CE4
330
1F
100
AcDbEntity
  8
1
  6
Continuous
 48
25.4
100
AcDbLine
 10
1585.784032783684
 20
420.3358625039134
 30
0.0
 11
1585.784032783684
 21
441.8358625039142
 31
0.0
  0
ARC
  5
CE5
330
1F
100
AcDbEntity
  8
1
  6
Continuous
 48
25.4
100
AcDbCircle
 10
1625.284032783684
 20
420.3358625039134
 30
0.0
 40
0.5000000000000006
100
AcDbArc
 50
270.0
 51
0.0
  0
LINE
  5
CE6
330
1F
100
AcDbEntity
  8
1
  6
Continuous
 48
25.4
100
AcDbLine
 10
1625.784032783684
 20
441.8358625039142
 30
0.0
 11
1625.784032783684
 21
420.3358625039134
 31
0.0
  0
LINE
  5
CE7
330
1F
100
AcDbEntity
  8
1
  6
Continuous
 48
25.4
100
AcDbLine
 10
1625.284032783684
 20
419.8358625039135
 30
0.0
 11
1586.284032783684
 21
419.8358625039135
 31
0.0
  0
LINE
  5
CE8
330
1F
100
AcDbEntity
  8
1
  6
Continuous
 48
25.4
100
AcDbLine
 10
1587.784032783684
 20
421.8358625039135
 30
0.0
 11
1623.784032783684
 21
421.8358625039135
 31
0.0
  0
LINE
  5
CE9
330
1F
100
AcDbEntity
  8
1
  6
Continuous
 48
25.4
100
AcDbLine
 10
1587.784032783684
 20
441.8358625039142
 30
0.0
 11
1587.784032783684
 21
421.8358625039135
 31
0.0
  0
LINE
  5
CEA
330
1F
100
AcDbEntity
  8
1
  6
Continuous
 48
25.4
100
AcDbLine
 10
1623.784032783684
 20
421.8358625039135
 30
0.0
 11
1623.784032783684
 21
441.8358625039142
 31
0.0
  0
LINE
  5
CEB
330
1F
100
AcDbEntity
  8
1
  6
Continuous
 48
25.4
100
AcDbLine
 10
1587.784032783684
 20
421.8358625039135
 30
0.0
 11
1585.784032783684
 21
420.3358625039134
 31
0.0
  0
LINE
  5
CEC
330
1F
100
AcDbEntity
  8
1
  6
Continuous
 48
25.4
100
AcDbLine
 10
1625.784032783684
 20
420.3358625039134
 30
0.0
 11
1623.784032783684
 21
421.8358625039135
 31
0.0
  0
LINE
  5
CED
330
1F
100
AcDbEntity
  8
1
  6
Continuous
 48
25.4
100
AcDbLine
 10
1587.784032783684
 20
421.8358625039135
 30
0.0
 11
1586.284032783684
 21
419.8358625039135
 31
0.0
  0
LINE
  5
CEE
330
1F
100
AcDbEntity
  8
1
  6
Continuous
 48
25.4
100
AcDbLine
 10
1625.284032783684
 20
419.8358625039135
 30
0.0
 11
1623.784032783684
 21
421.8358625039135
 31
0.0
  0
LINE
  5
CEF
330
1F
100
AcDbEntity
  8
1
  6
Continuous
 48
25.4
100
AcDbLine
 10
1586.252153729638
 20
1100.835862503909
 30
0.0
 11
1586.624643731483
 21
1057.835862503909
 31
0.0
  0
LINE
  5
CF0
330
1F
100
AcDbEntity
  8
1
  6
Continuous
 48
25.4
100
AcDbLine
 10
1583.409288098686
 20
1057.835862503909
 30
0.0
 11
1583.034032783683
 21
1100.835862503909
 31
0.0
  0
LINE
  5
CF4
330
1F
100
AcDbEntity
  8
1
  6
Continuous
 48
25.4
100
AcDbLine
 10
1643.764205303723
 20
1070.835862503909
 30
0.0
 11
1628.272226749961
 21
1070.835862503909
 31
0.0
  0
LINE
  5
CF5
330
1F
100
AcDbEntity
  8
1
  6
Continuous
 48
25.4
100
AcDbLine
 10
1644.762834838477
 20
1070.835862503909
 30
0.0
 11
1643.764205303723
 21
1070.835862503909
 31
0.0
  0
LINE
  5
CF6
330
1F
100
AcDbEntity
  8
1
  6
Continuous
 48
25.4
100
AcDbLine
 10
1583.295838817406
 20
1070.835862503909
 30
0.0
 11
1567.803860263644
 21
1070.835862503909
 31
0.0
  0
ARC
  5
CF9
330
1F
100
AcDbEntity
  8
1
  6
Continuous
 48
25.4
100
AcDbCircle
 10
1566.805230728889
 20
1071.835862503909
 30
0.0
 40
1.000000000000001
100
AcDbArc
 50
182.9999999999966
 51
270.0
  0
ARC
  5
CFB
330
1F
100
AcDbEntity
  8
1
  6
Continuous
 48
25.4
100
AcDbCircle
 10
1560.153631930661
 20
1102.83586250391
 30
0.0
 40
2.0
100
AcDbArc
 50
183.0000000000012
 51
270.0
  0
ARC
  5
CFE
330
1F
100
AcDbEntity
  8
1
  6
Continuous
 48
25.4
100
AcDbCircle
 10
1651.414433636706
 20
1102.83586250391
 30
0.0
 40
2.000000000000002
100
AcDbArc
 50
270.0
 51
356.9999999999986
  0
LINE
  5
CFF
330
1F
100
AcDbEntity
  8
1
  6
Continuous
 48
25.4
100
AcDbLine
 10
1653.784032783683
 20
1109.835862503909
 30
0.0
 11
1653.411692706215
 21
1102.731190591424
 31
0.0
  0
LINE
  5
D00
330
1F
100
AcDbEntity
  8
1
  6
Continuous
 48
25.4
100
AcDbLine
 10
1651.414433636706
 20
1100.83586250391
 30
0.0
 11
1560.153631930661
 21
1100.83586250391
 31
0.0
  0
LINE
  5
D04
330
1F
100
AcDbEntity
  8
1
  6
Continuous
 48
25.4
100
AcDbLine
 10
1558.156372861151
 20
1102.731190591424
 30
0.0
 11
1557.784032783684
 21
1109.83586250391
 31
0.0
  0
LINE
  5
D05
330
1F
100
AcDbEntity
  8
1
  6
Continuous
 48
25.4
100
AcDbLine
 10
1624.943421835884
 20
1057.835862503909
 30
0.0
 11
1625.315911837729
 21
1100.835862503909
 31
0.0
  0
LINE
  5
D06
330
1F
100
AcDbEntity
  8
1
  6
Continuous
 48
25.4
100
AcDbLine
 10
1628.534032783683
 20
1100.835862503909
 30
0.0
 11
1628.15877746868
 21
1057.835862503909
 31
0.0
  0
LINE
  5
D08
330
1F
100
AcDbEntity
  8
1
  6
Continuous
 48
25.4
100
AcDbLine
 10
1565.806601194135
 20
1071.783526547666
 30
0.0
 11
1564.284032783683
 21
1100.835862503909
 31
0.0
  0
LINE
  5
D09
330
1F
100
AcDbEntity
  8
1
  6
Continuous
 48
25.4
100
AcDbLine
 10
1647.284032783684
 20
1100.835862503909
 30
0.0
 11
1645.761464373231
 21
1071.783526547666
 31
0.0
  0
LINE
  5
D0B
330
1F
100
AcDbEntity
  8
1
  6
Continuous
 48
25.4
100
AcDbLine
 10
1624.943421835884
 20
1057.835862503909
 30
0.0
 11
1586.624643731483
 21
1057.835862503909
 31
0.0
  0
LINE
  5
D0C
330
1F
100
AcDbEntity
  8
1
  6
Continuous
 48
25.4
100
AcDbLine
 10
1586.624643731483
 20
1057.835862503909
 30
0.0
 11
1583.409288098686
 21
1057.835862503909
 31
0.0
  0
LINE
  5
D0D
330
1F
100
AcDbEntity
  8
1
  6
Continuous
 48
25.4
100
AcDbLine
 10
1628.15877746868
 20
1057.835862503909
 30
0.0
 11
1624.943421835884
 21
1057.835862503909
 31
0.0
  0
ARC
  5
D10
330
1F
100
AcDbEntity
  8
1
  6
Continuous
 48
25.4
100
AcDbCircle
 10
1644.762834838477
 20
1071.835862503909
 30
0.0
 40
1.000000000000001
100
AcDbArc
 50
270.0
 51
357.0000000000031
  0
LINE
  5
D11
330
1F
100
AcDbEntity
  8
1
  6
Continuous
 48
25.4
100
AcDbLine
 10
1567.803860263644
 20
1070.835862503909
 30
0.0
 11
1566.805230728889
 21
1070.835862503909
 31
0.0
  0
ARC
  5
D12
330
1F
100
AcDbEntity
  8
1
  6
Continuous
 48
25.4
100
AcDbCircle
 10
1587.76724199165
 20
1016.835862503909
 30
0.0
 40
2.000000000000002
100
AcDbArc
 50
180.500000000002
 51
187.4295503791478
  0
ELLIPSE
  5
D13
330
1F
100
AcDbEntity
  8
1
  6
Continuous
 48
25.4
100
AcDbEllipse
 10
1623.800823575717
 20
1016.835862503909
 30
0.0
 11
-1.999923846128346
 21
0.0174530709967645
 31
0.0
210
0.0
220
0.0
230
1.0
 40
0.0516303435354064
 41
3.012664664279812
 42
3.141592653589792
  0
LINE
  5
D14
330
1F
100
AcDbEntity
  8
1
  6
Continuous
 48
25.4
100
AcDbLine
 10
1585.409364255457
 20
1057.835862503909
 30
0.0
 11
1585.423335501565
 21
1056.23491627187
 31
0.0
  0
LINE
  5
D15
330
1F
100
AcDbEntity
  8
1
  6
Continuous
 48
25.4
100
AcDbLine
 10
1585.6222733908
 20
1033.438892084808
 30
0.0
 11
1585.767318145522
 21
1016.818409432912
 31
0.0
  0
LINE
  5
D16
330
1F
100
AcDbEntity
  8
1
  6
Continuous
 48
25.4
100
AcDbLine
 10
1583.409288098686
 20
1057.835862503909
 30
0.0
 11
1583.423076539353
 21
1056.25586370046
 31
0.0
  0
LINE
  5
D17
330
1F
100
AcDbEntity
  8
1
  6
Continuous
 48
25.4
100
AcDbLine
 10
1583.622380006058
 20
1033.417948484676
 30
0.0
 11
1583.767394299393
 21
1016.800956361916
 31
0.0
  0
ARC
  5
D18
330
1F
100
AcDbEntity
  8
1
  6
Continuous
 48
25.4
100
AcDbCircle
 10
1587.76724199165
 20
1016.835862503909
 30
0.0
 40
4.000000000000004
100
AcDbArc
 50
180.500000000002
 51
240.2773310377323
  0
ARC
  5
D19
330
1F
100
AcDbEntity
  8
1
  6
Continuous
 48
25.4
100
AcDbCircle
 10
1623.800823575717
 20
1016.835862503909
 30
0.0
 40
4.000000000000004
100
AcDbArc
 50
299.7226689622639
 51
359.4999999999977
  0
ARC
  5
D1A
330
1F
100
AcDbEntity
  8
1
  6
Continuous
 48
25.4
100
AcDbCircle
 10
1623.800823575717
 20
1016.835862503909
 30
0.0
 40
2.000000000000002
100
AcDbArc
 50
352.5704496208792
 51
359.4999999999977
  0
LINE
  5
D1B
330
1F
100
AcDbEntity
  8
1
  6
Continuous
 48
25.4
100
AcDbLine
 10
1626.158701311909
 20
1057.835862503909
 30
0.0
 11
1626.144730065802
 21
1056.23491627187
 31
0.0
  0
LINE
  5
D1C
330
1F
100
AcDbEntity
  8
1
  6
Continuous
 48
25.4
100
AcDbLine
 10
1625.945792176566
 20
1033.438892084808
 30
0.0
 11
1625.800747421845
 21
1016.818409432912
 31
0.0
  0
LINE
  5
D1D
330
1F
100
AcDbEntity
  8
1
  6
Continuous
 48
25.4
100
AcDbLine
 10
1628.15877746868
 20
1057.835862503909
 30
0.0
 11
1628.144989028014
 21
1056.25586370046
 31
0.0
  0
LINE
  5
D1E
330
1F
100
AcDbEntity
  8
1
  6
Continuous
 48
25.4
100
AcDbLine
 10
1627.945685561309
 20
1033.417948484676
 30
0.0
 11
1627.800671267973
 21
1016.800956361916
 31
0.0
  0
ELLIPSE
  5
D1F
330
1F
100
AcDbEntity
  8
1
  6
Continuous
 48
25.4
100
AcDbEllipse
 10
1587.76724199165
 20
1016.835862503909
 30
0.0
 11
-1.999923846128338
 21
-0.0174530709968755
 31
0.0
210
0.0
220
0.0
230
1.0
 40
0.0516303435354117
 41
0.000000000000854
 42
0.1289279893099438
  0
ARC
  5
D20
330
1F
100
AcDbEntity
  8
1
  6
Continuous
 48
25.4
100
AcDbCircle
 10
1495.176965025195
 20
1188.732849197585
 30
0.0
 40
3.63948785657626
100
AcDbArc
 50
90.17061130752795
 51
167.4643124764709
  0
ARC
  5
D21
330
1F
100
AcDbEntity
  8
1
  6
Continuous
 48
25.4
100
AcDbCircle
 10
1716.395103376627
 20
1188.745492710685
 30
0.0
 40
3.627564694322806
100
AcDbArc
 50
10.77532123078793
 51
90.32020968227415
  0
LINE
  5
D22
330
1F
100
AcDbEntity
  8
1
  6
Continuous
 48
25.4
100
AcDbLine
 10
1707.784032783685
 20
1193.679335126222
 30
0.0
 11
1503.784032783684
 21
1193.679335126222
 31
0.0
  0
LINE
  5
D23
330
1F
100
AcDbEntity
  8
1
  6
Continuous
 48
25.4
100
AcDbLine
 10
1715.386547376129
 20
1192.405933690334
 30
0.0
 11
1712.784032783684
 21
1192.405933690334
 31
0.0
  0
LINE
  5
D24
330
1F
100
AcDbEntity
  8
1
  6
Continuous
 48
25.4
100
AcDbLine
 10
1498.784032783684
 20
1192.405933690334
 30
0.0
 11
1496.272773001811
 21
1192.405933690334
 31
0.0
  0
SPLINE
  5
D26
330
1F
100
AcDbEntity
  8
1
  6
Continuous
 48
25.4
100
AcDbSpline
210
0.0
220
0.0
230
1.0
 70
     8
 71
     3
 72
    12
 73
     8
 74
     0
 42
0.0000000001
 43
0.0000000001
 40
0.0
 40
0.0
 40
0.0
 40
0.0
 40
0.25
 40
0.25
 40
0.5
 40
0.5
 40
1.0
 40
1.0
 40
1.0
 40
1.0
 10
1720.784032783684
 20
1172.613912630991
 30
0.0
 10
1720.784032783684
 20
1172.482067589557
 30
0.0
 10
1720.50159097185
 20
1172.352976149281
 30
0.0
 10
1719.399471053001
 20
1172.109014228545
 30
0.0
 10
1718.587401878713
 20
1171.996998784629
 30
0.0
 10
1715.522941583598
 20
1171.710578575664
 30
0.0
 10
1712.648375873004
 20
1171.590238572747
 30
0.0
 10
1709.630108432318
 20
1171.571982984878
 30
0.0
  0
ELLIPSE
  5
D28
330
1F
100
AcDbEntity
  8
1
  6
Continuous
 48
25.4
100
AcDbEllipse
 10
1670.852556045484
 20
1176.937238275254
 30
0.0
 11
36.91937103876439
 21
36.03600648665361
 31
0.0
210
0.0
220
0.0
230
1.0
 40
0.9356985242699703
 41
5.59542486133652
 42
5.729121326133009
  0
ELLIPSE
  5
D29
330
1F
100
AcDbEntity
  8
1
  6
Continuous
 48
25.4
100
AcDbEllipse
 10
1605.784032783634
 20
1301.991924748712
 30
0.0
 11
-1500.000000013079
 21
0.000000000020983
 31
0.0
210
0.0
220
0.0
230
1.0
 40
0.0871557427483457
 41
1.50151018751791
 42
1.64008246607195
  0
SPLINE
  5
D2B
330
1F
100
AcDbEntity
  8
1
  6
Continuous
 48
25.4
100
AcDbSpline
210
0.0
220
0.0
230
1.0
 70
     8
 71
     3
 72
    12
 73
     8
 74
     0
 42
0.0000000001
 43
0.0000000001
 40
0.0
 40
0.0
 40
0.0
 40
0.0
 40
0.25
 40
0.25
 40
0.5
 40
0.5
 40
1.0
 40
1.0
 40
1.0
 40
1.0
 10
1501.93795713505
 20
1171.571982984878
 30
0.0
 10
1500.428834519711
 20
1171.581110711646
 30
0.0
 10
1498.970783781543
 20
1171.614605168173
 30
0.0
 10
1496.254651279734
 20
1171.727320437448
 30
0.0
 10
1495.028722018053
 20
1171.805682023039
 30
0.0
 10
1491.962458357637
 20
1172.091955587754
 30
0.0
 10
1490.784032783684
 20
1172.350220607662
 30
0.0
 10
1490.784032783684
 20
1172.613912630991
 30
0.0
  0
ELLIPSE
  5
D2C
330
1F
100
AcDbEntity
  8
1
  6
Continuous
 48
25.4
100
AcDbEllipse
 10
1540.715509520262
 20
1176.937238275556
 30
0.0
 11
-36.91937103353265
 21
36.03600648999828
 31
0.0
210
0.0
220
0.0
230
0.9999999999999998
 40
0.9356985242751566
 41
0.5540639811628905
 42
0.6877604459615366
  0
LINE
  5
D2E
330
1F
100
AcDbEntity
  8
1
  6
Continuous
 48
25.4
100
AcDbLine
 10
1490.784032783684
 20
1182.851457737377
 30
0.0
 11
1490.784032783684
 21
1172.613912630991
 31
0.0
  0
LINE
  5
D2F
330
1F
100
AcDbEntity
  8
1
  6
Continuous
 48
25.4
100
AcDbLine
 10
1720.784032783684
 20
1172.613912630991
 30
0.0
 11
1720.784032783684
 21
1182.851457737377
 31
0.0
  0
SPLINE
  5
D30
330
1F
100
AcDbEntity
  8
1
  6
Continuous
 48
25.4
100
AcDbSpline
210
0.0
220
0.0
230
1.0
 70
     8
 71
     3
 72
    10
 73
     6
 74
     0
 42
0.0000000001
 43
0.0000000001
 40
0.6410089718130016
 40
0.6410089718130016
 40
0.6410089718130016
 40
0.6410089718130016
 40
0.7499999999999997
 40
0.7499999999999997
 40
0.7999894916262927
 40
0.7999894916262927
 40
0.7999894916262927
 40
0.7999894916262927
 10
1496.198672607653
 20
1192.405921683211
 30
0.0
 10
1495.960205292032
 20
1192.406175147503
 30
0.0
 10
1495.757995177686
 20
1192.402482525018
 30
0.0
 10
1495.513817032934
 20
1192.389989426558
 30
0.0
 10
1495.444460920561
 20
1192.38500388143
 30
0.0
 10
1495.382782965061
 20
1192.378945915516
 30
0.0
  0
SPLINE
  5
D33
330
1F
100
AcDbEntity
  8
1
  6
Continuous
 48
25.4
100
AcDbSpline
210
0.0
220
0.0
230
1.0
 70
     8
 71
     3
 72
    10
 73
     6
 74
     0
 42
0.0000000001
 43
0.0000000001
 40
0.2294795982074614
 40
0.2294795982074614
 40
0.2294795982074614
 40
0.2294795982074614
 40
0.25
 40
0.25
 40
0.3556714806061033
 40
0.3556714806061033
 40
0.3556714806061033
 40
0.3556714806061033
 10
1716.070232203332
 20
1192.388422500773
 30
0.0
 10
1716.041208770421
 20
1192.390398750885
 30
0.0
 10
1716.010863007905
 20
1192.392200271288
 30
0.0
 10
1715.816107817655
 20
1192.402218142153
 30
0.0
 10
1715.619870767428
 20
1192.405883719654
 30
0.0
 10
1715.3911651063
 20
1192.40585675724
 30
0.0
  0
LINE
  5
D35
330
1F
100
AcDbEntity
  8
1
  6
Continuous
 48
25.4
100
AcDbLine
 10
1491.97894826716
 20
1179.125764722481
 30
0.0
 11
1491.581480124297
 21
1179.28648133653
 31
0.0
  0
ARC
  5
D36
330
1F
100
AcDbEntity
  8
1
  6
Continuous
 48
25.4
100
AcDbCircle
 10
1505.688176860289
 20
1253.502386668321
 30
0.0
 40
75.62952360482715
100
AcDbArc
 50
259.556361662205
 51
267.5958432920509
  0
ARC
  5
D38
330
1F
100
AcDbEntity
  8
1
  6
Continuous
 48
25.4
100
AcDbCircle
 10
1605.784032783699
 20
7968.777120788466
 30
0.0
 40
6791.62284430826
100
AcDbArc
 50
269.1287693499432
 51
270.8712306500564
  0
LINE
  5
D3B
330
1F
100
AcDbEntity
  8
1
  6
Continuous
 48
25.4
100
AcDbLine
 10
1719.989625633077
 20
1189.406038654907
 30
0.0
 11
1719.98658544307
 21
1189.298989264671
 31
0.0
  0
LINE
  5
D3D
330
1F
100
AcDbEntity
  8
1
  6
Continuous
 48
25.4
100
AcDbLine
 10
1719.986585443071
 20
1179.286481336532
 30
0.0
 11
1719.589117300208
 21
1179.125764722481
 31
0.0
  0
ARC
  5
D42
330
1F
100
AcDbEntity
  8
1
  6
Continuous
 48
25.4
100
AcDbCircle
 10
1706.109491782335
 20
1251.463107848818
 30
0.0
 40
73.58254898193836
100
AcDbArc
 50
272.2921409401916
 51
280.5556541055569
  0
LINE
  5
D49
330
1F
100
AcDbEntity
  8
1
  6
Continuous
 48
25.4
100
AcDbLine
 10
1498.784032783684
 20
1183.593448722569
 30
0.0
 11
1498.784032783684
 21
1182.597254024478
 31
0.0
  0
LINE
  5
D4B
330
1F
100
AcDbEntity
  8
1
  6
Continuous
 48
25.4
100
AcDbLine
 10
1712.784032783684
 20
1183.593448722569
 30
0.0
 11
1712.784032783684
 21
1182.597254024478
 31
0.0
  0
ELLIPSE
  5
D4C
330
1F
100
AcDbEntity
  8
1
  6
Continuous
 48
25.4
100
AcDbEllipse
 10
1605.78403278296
 20
1311.455774394969
 30
0.0
 11
-1487.000000095385
 21
-0.0000000001274535
 31
0.0
210
0.0
220
0.0
230
1.0
 40
0.0871557427532287
 41
1.534120167110036
 42
1.607472486480709
  0
ELLIPSE
  5
D4D
330
1F
100
AcDbEntity
  8
1
  6
Continuous
 48
25.4
100
AcDbEllipse
 10
1605.784032870163
 20
1311.455774263959
 30
0.0
 11
1486.999999340265
 21
0.000000007192025
 31
0.0
210
0.0
220
0.0
230
0.9999999999999998
 40
0.0871557427076716
 41
4.749065140029325
 42
4.781269345569733
  0
ELLIPSE
  5
D4E
330
1F
100
AcDbEntity
  8
1
  6
Continuous
 48
25.4
100
AcDbEllipse
 10
1605.784032586014
 20
1311.455774040916
 30
0.0
 11
-1486.999998056483
 21
0.00000001791034
 31
0.0
210
0.0
220
0.0
230
1.0
 40
0.0871557426346457
 41
1.501915961624545
 42
1.53412016719332
  0
ELLIPSE
  5
D4F
330
1F
100
AcDbEntity
  8
1
  6
Continuous
 48
25.4
100
AcDbEllipse
 10
1503.784032783685
 20
1182.597254024477
 30
0.0
 11
-5.000000000000545
 21
0.000000000000111
 31
0.0
210
0.0
220
0.0
230
1.0
 40
0.0871557427476356
 41
0.0
 42
1.501915961580357
  0
ELLIPSE
  5
D50
330
1F
100
AcDbEntity
  8
1
  6
Continuous
 48
25.4
100
AcDbEllipse
 10
1707.784032783684
 20
1182.597254024477
 30
0.0
 11
-4.999999999999809
 21
0.0
 31
0.0
210
0.0
220
0.0
230
1.0
 40
0.0871557427476472
 41
1.639676692008934
 42
3.141592653589792
  0
LINE
  5
D53
330
1F
100
AcDbEntity
  8
1
  6
Continuous
 48
25.4
100
AcDbLine
 10
1711.284032783686
 20
1184.656813441631
 30
0.0
 11
1711.284032783686
 21
1184.091546407886
 31
0.0
  0
ELLIPSE
  5
D54
330
1F
100
AcDbEntity
  8
1
  6
Continuous
 48
25.4
100
AcDbEllipse
 10
1709.784032783685
 20
1184.656813441631
 30
0.0
 11
-1.500000000000029
 21
0.0
 31
0.0
210
0.0
220
0.0
230
1.0
 40
0.0871557427476819
 41
3.141592653589792
 42
4.712388980384688
  0
ELLIPSE
  5
D55
330
1F
100
AcDbEntity
  8
1
  6
Continuous
 48
25.4
100
AcDbEllipse
 10
1707.784032783681
 20
1184.091546407886
 30
0.0
 11
3.50000000000361
 21
0.000000000000111
 31
0.0
210
0.0
220
0.0
230
1.0
 40
0.0871557427476316
 41
4.781097670067744
 42
6.283185307179585
  0
LINE
  5
D56
330
1F
100
AcDbEntity
  8
1
  6
Continuous
 48
25.4
100
AcDbLine
 10
1501.784032783689
 20
1184.787547055753
 30
0.0
 11
1709.784032783685
 21
1184.787547055753
 31
0.0
  0
ELLIPSE
  5
D57
330
1F
100
AcDbEntity
  8
1
  6
Continuous
 48
25.4
100
AcDbEllipse
 10
1501.784032783689
 20
1184.656813441631
 30
0.0
 11
-1.500000000000014
 21
0.0
 31
0.0
210
0.0
220
0.0
230
1.0
 40
0.0871557427476795
 41
4.712388980384688
 42
6.283185307179585
  0
LINE
  5
D58
330
1F
100
AcDbEntity
  8
1
  6
Continuous
 48
25.4
100
AcDbLine
 10
1500.284032783687
 20
1184.09154641236
 30
0.0
 11
1500.284032783689
 21
1184.656813441631
 31
0.0
  0
ELLIPSE
  5
D59
330
1F
100
AcDbEntity
  8
1
  6
Continuous
 48
25.4
100
AcDbEllipse
 10
1503.784032783689
 20
1184.09154641236
 30
0.0
 11
3.500000000001752
 21
-0.000000000000111
 31
0.0
210
0.0
220
0.0
230
1.0
 40
0.0871557427476453
 41
3.141592653590156
 42
4.643508615169983
  0
ELLIPSE
  5
D5A
330
1F
100
AcDbEntity
  8
1
  6
Continuous
 48
25.4
100
AcDbEllipse
 10
1605.784032781778
 20
1312.950066767872
 30
0.0
 11
1485.500000009738
 21
0.000000000033751
 31
0.0
210
0.0
220
0.0
230
1.0
 40
0.0871557427482595
 41
4.643508615171865
 42
4.781268941111417
  0
LINE
  5
D5D
330
1F
100
AcDbEntity
  8
1
  6
Continuous
 48
25.4
100
AcDbLine
 10
1709.784032783685
 20
1184.961858541249
 30
0.0
 11
1501.784032783689
 21
1184.961858541249
 31
0.0
  0
ELLIPSE
  5
D60
330
1F
100
AcDbEntity
  8
1
  6
Continuous
 48
25.4
100
AcDbEllipse
 10
1709.784032783685
 20
1185.092592155369
 30
0.0
 11
1.500000000000029
 21
0.0
 31
0.0
210
0.0
220
0.0
230
1.0
 40
0.0871557427476819
 41
4.712388980384688
 42
6.283185307179585
  0
LINE
  5
D61
330
1F
100
AcDbEntity
  8
1
  6
Continuous
 48
25.4
100
AcDbLine
 10
1711.284032783685
 20
1193.285231973649
 30
0.0
 11
1711.284032783686
 21
1185.09259215537
 31
0.0
  0
ELLIPSE
  5
D62
330
1F
100
AcDbEntity
  8
1
  6
Continuous
 48
25.4
100
AcDbEllipse
 10
1707.784032783686
 20
1193.285231973649
 30
0.0
 11
-3.500000000000045
 21
0.0
 31
0.0
210
0.0
220
0.0
230
1.0
 40
0.0871557427476614
 41
3.141592653589792
 42
4.712388980384688
  0
LINE
  5
D63
330
1F
100
AcDbEntity
  8
1
  6
Continuous
 48
25.4
100
AcDbLine
 10
1503.784032783685
 20
1193.590277073266
 30
0.0
 11
1707.784032783686
 21
1193.590277073266
 31
0.0
  0
ELLIPSE
  5
D64
330
1F
100
AcDbEntity
  8
1
  6
Continuous
 48
25.4
100
AcDbEllipse
 10
1503.784032783685
 20
1193.285231973649
 30
0.0
 11
-3.500000000000045
 21
0.0
 31
0.0
210
0.0
220
0.0
230
1.0
 40
0.0871557427476579
 41
4.712388980384688
 42
6.283185307179585
  0
LINE
  5
D65
330
1F
100
AcDbEntity
  8
1
  6
Continuous
 48
25.4
100
AcDbLine
 10
1500.284032783689
 20
1185.092592155369
 30
0.0
 11
1500.284032783685
 21
1193.285231973649
 31
0.0
  0
ELLIPSE
  5
D67
330
1F
100
AcDbEntity
  8
1
  6
Continuous
 48
25.4
100
AcDbEllipse
 10
1501.784032783689
 20
1185.092592155369
 30
0.0
 11
1.499999999999959
 21
0.0
 31
0.0
210
0.0
220
0.0
230
1.0
 40
0.0871557427476152
 41
3.141592653589792
 42
4.712388980384498
  0
ELLIPSE
  5
D69
330
1F
100
AcDbEntity
  8
1
  6
Continuous
 48
25.4
100
AcDbEllipse
 10
1712.284032783684
 20
1192.787134283858
 30
0.0
 11
-0.499999999999959
 21
-0.000000000014655
 31
0.0
210
0.0
220
0.0
230
1.0
 40
0.9961946980919266
 41
3.141592653589792
 42
4.71238898035549
  0
LINE
  5
D6A
330
1F
100
AcDbEntity
  8
1
  6
Continuous
 48
25.4
100
AcDbLine
 10
1503.784032783684
 20
1193.67933512622
 30
0.0
 11
1503.784032783684
 21
1193.677432475268
 31
0.0
  0
LINE
  5
D6B
330
1F
100
AcDbEntity
  8
1
  6
Continuous
 48
25.4
100
AcDbLine
 10
1707.784032783685
 20
1193.67933512622
 30
0.0
 11
1707.784032783685
 21
1193.677432475268
 31
0.0
  0
ELLIPSE
  5
D6E
330
1F
100
AcDbEntity
  8
1
  6
Continuous
 48
25.4
100
AcDbEllipse
 10
1499.284032783684
 20
1192.787134283858
 30
0.0
 11
0.499999999999959
 21
0.0
 31
0.0
210
0.0
220
0.0
230
1.0
 40
0.9961946980917128
 41
1.570796326794896
 42
3.141592653589792
  0
ELLIPSE
  5
D6F
330
1F
100
AcDbEntity
  8
1
  6
Continuous
 48
25.4
100
AcDbEllipse
 10
1605.784032783516
 20
1312.451969078231
 30
0.0
 11
1487.00000001062
 21
0.0000000000129895
 31
0.0
210
0.0
220
0.0
230
1.0
 40
0.0871557427482556
 41
4.643508615170778
 42
4.78126934559882
  0
ELLIPSE
  5
D70
330
1F
100
AcDbEntity
  8
1
  6
Continuous
 48
25.4
100
AcDbEllipse
 10
1503.784032783685
 20
1183.593448722569
 30
0.0
 11
5.000000000000555
 21
-0.000000000000222
 31
0.0
210
0.0
220
0.0
230
1.0
 40
0.0871557427476113
 41
3.141592653589649
 42
4.643508615170151
  0
ELLIPSE
  5
D71
330
1F
100
AcDbEntity
  8
1
  6
Continuous
 48
25.4
100
AcDbEllipse
 10
1707.784032783684
 20
1183.593448722569
 30
0.0
 11
4.999999999999796
 21
-0.000000000000111
 31
0.0
210
0.0
220
0.0
230
1.0
 40
0.0871557427476715
 41
4.78126934559873
 42
6.283185307179585
  0
LINE
  5
D72
330
1F
100
AcDbEntity
  8
1
  6
Continuous
 48
25.4
100
AcDbLine
 10
1712.784032783684
 20
1192.787134283858
 30
0.0
 11
1712.784032783684
 21
1183.593448722569
 31
0.0
  0
LINE
  5
D73
330
1F
100
AcDbEntity
  8
1
  6
Continuous
 48
25.4
100
AcDbLine
 10
1498.784032783684
 20
1183.593448722569
 30
0.0
 11
1498.784032783683
 21
1192.787134283858
 31
0.0
  0
ELLIPSE
  5
D75
330
1F
100
AcDbEntity
  8
1
  6
Continuous
 48
25.4
100
AcDbEllipse
 10
1707.784032783685
 20
1193.285231632904
 30
0.0
 11
4.499999999998948
 21
0.0
 31
0.0
210
0.0
220
0.0
230
1.0
 40
0.0871557427476555
 41
0.0
 42
1.570796326794896
  0
ELLIPSE
  5
D7C
330
1F
100
AcDbEntity
  8
1
  6
Continuous
 48
25.4
100
AcDbEllipse
 10
1503.784032783684
 20
1193.285231632904
 30
0.0
 11
4.499999999999989
 21
-0.000000000000111
 31
0.0
210
0.0
220
0.0
230
1.0
 40
0.0871557427476859
 41
1.570796326794898
 42
3.141592653589792
  0
LINE
  5
D7D
330
1F
100
AcDbEntity
  8
1
  6
Continuous
 48
25.4
100
AcDbLine
 10
1707.784032783685
 20
1193.677432475268
 30
0.0
 11
1503.784032783684
 21
1193.677432475268
 31
0.0
  0
LINE
  5
D7E
330
1F
100
AcDbEntity
  8
1
  6
Continuous
 48
25.4
100
AcDbLine
 10
1491.581480124297
 20
1189.298989264671
 30
0.0
 11
1491.578439934291
 21
1189.406038654907
 31
0.0
  0
ARC
  5
D8A
330
1F
100
AcDbEntity
  8
1
  6
Continuous
 48
25.4
100
AcDbCircle
 10
1498.346340285782
 20
1182.245047341159
 30
0.0
 40
20.96293301372495
100
AcDbArc
 50
259.2647100909289
 51
274.1873638342013
  0
LINE
  5
D8B
330
1F
100
AcDbEntity
  8
1
  6
Continuous
 48
25.4
100
AcDbLine
 10
1692.784032783684
 20
1107.335862503909
 30
0.0
 11
1692.784032783684
 21
1109.835862503909
 31
0.0
  0
ARC
  5
D8C
330
1F
100
AcDbEntity
  8
1
  6
Continuous
 48
25.4
100
AcDbCircle
 10
1713.876263203629
 20
1176.927587451233
 30
0.0
 40
15.61775349926239
100
AcDbArc
 50
266.7187797648213
 51
282.0270654280562
  0
LINE
  5
D8D
330
1F
100
AcDbEntity
  8
1
  6
Continuous
 48
25.4
100
AcDbLine
 10
1609.734237721292
 20
1161.334844078703
 30
0.0
 11
1712.782933447521
 21
1161.334844078703
 31
0.0
  0
ARC
  5
D8E
330
1F
100
AcDbEntity
  8
1
  6
Continuous
 48
25.4
100
AcDbCircle
 10
1716.262934926907
 20
1165.223981279946
 30
0.0
 40
3.67532598816581
100
AcDbArc
 50
285.6547920026303
 51
350.5536849222468
  0
ARC
  5
D8F
330
1F
100
AcDbEntity
  8
1
  6
Continuous
 48
25.4
100
AcDbCircle
 10
1495.281799268711
 20
1165.190347352113
 30
0.0
 40
3.63459462912349
100
AcDbArc
 50
191.1345984056225
 51
254.5700445075461
  0
LINE
  5
D90
330
1F
100
AcDbEntity
  8
1
  6
Continuous
 48
25.4
100
AcDbLine
 10
1499.867664180769
 20
1161.334844078703
 30
0.0
 11
1502.371651247222
 21
1113.153966850632
 31
0.0
  0
LINE
  5
D91
330
1F
100
AcDbEntity
  8
1
  6
Continuous
 48
25.4
100
AcDbLine
 10
1710.816562559979
 20
1144.328314546159
 30
0.0
 11
1711.700401386598
 21
1161.334844078703
 31
0.0
  0
LINE
  5
D92
330
1F
100
AcDbEntity
  8
1
  6
Continuous
 48
25.4
100
AcDbLine
 10
1708.98971661911
 20
1111.322706386569
 30
0.0
 11
1716.784032783683
 21
1111.390726353256
 31
0.0
  0
ARC
  5
D93
330
1F
100
AcDbEntity
  8
1
  6
Continuous
 48
25.4
100
AcDbCircle
 10
1708.894241866823
 20
1110.521235768081
 30
0.0
 40
0.7946064043946971
100
AcDbArc
 50
83.24592169403244
 51
124.1890475794898
  0
LINE
  5
D94
330
1F
100
AcDbEntity
  8
1
  6
Continuous
 48
25.4
100
AcDbLine
 10
1676.784032783683
 20
1109.835862503909
 30
0.0
 11
1676.784032783683
 21
1107.335862503909
 31
0.0
  0
LINE
  5
D95
330
1F
100
AcDbEntity
  8
1
  6
Continuous
 48
25.4
100
AcDbLine
 10
1499.832260896273
 20
1161.334844078703
 30
0.0
 11
1601.831124524226
 21
1161.334844078703
 31
0.0
  0
LINE
  5
D96
330
1F
100
AcDbEntity
  8
1
  6
Continuous
 48
25.4
100
AcDbLine
 10
1709.196400789808
 20
1113.153706504442
 30
0.0
 11
1709.742415318289
 21
1123.659934477399
 31
0.0
  0
LINE
  5
D97
330
1F
100
AcDbEntity
  8
1
  6
Continuous
 48
25.4
100
AcDbLine
 10
1692.784032783683
 20
1107.335862503909
 30
0.0
 11
1676.784032783683
 21
1107.335862503909
 31
0.0
  0
LINE
  5
D9B
330
1F
100
AcDbEntity
  8
1
  6
Continuous
 48
25.4
100
AcDbLine
 10
1719.984032783686
 20
1171.617717932899
 30
0.0
 11
1719.984032783686
 21
1172.243863846306
 31
0.0
  0
ARC
  5
D9C
330
1F
100
AcDbEntity
  8
1
  6
Continuous
 48
25.4
100
AcDbCircle
 10
1499.606023803538
 20
1201.291302096795
 30
0.0
 40
30.73880181553021
100
AcDbArc
 50
254.8722078297365
 51
263.5447666186345
  0
LINE
  5
D9F
330
1F
100
AcDbEntity
  8
1
  6
Continuous
 48
25.4
100
AcDbLine
 10
1491.584032783682
 20
1171.617717932899
 30
0.0
 11
1491.584032783682
 21
1172.246255237608
 31
0.0
  0
LINE
  5
DA0
330
1F
100
AcDbEntity
  8
1
  6
Continuous
 48
25.4
100
AcDbLine
 10
1516.13613375509
 20
1160.635507285628
 30
0.0
 11
1516.13613375509
 21
1161.334844078703
 31
0.0
  0
ARC
  5
DA4
330
1F
100
AcDbEntity
  8
1
  6
Continuous
 48
25.4
100
AcDbCircle
 10
1705.701055031167
 20
1113.335858837734
 30
0.0
 40
3.499996333824695
100
AcDbArc
 50
270.0
 51
357.0487462061941
  0
SPLINE
  5
DAC
330
1F
100
AcDbEntity
  8
1
  6
Continuous
 48
25.4
100
AcDbSpline
210
0.0
220
0.0
230
1.0
 70
     8
 71
     3
 72
    22
 73
    18
 74
     0
 42
0.0000000001
 43
0.0000000001
 40
0.0
 40
0.0
 40
0.0
 40
0.0
 40
0.2500000000000024
 40
0.2500000000000024
 40
0.312500000000003
 40
0.312500000000003
 40
0.3750000000000035
 40
0.3750000000000035
 40
0.5000000000000029
 40
0.5000000000000029
 40
0.6250000000000023
 40
0.6250000000000023
 40
0.7500000000000016
 40
0.7500000000000016
 40
0.8750000000000007
 40
0.8750000000000007
 40
1.0
 40
1.0
 40
1.0
 40
1.0
 10
1492.103852585709
 20
1164.143839337616
 30
0.0
 10
1492.422158861748
 20
1164.021203484332
 30
0.0
 10
1492.906893431686
 20
1163.933015395885
 30
0.0
 10
1493.721311772111
 20
1163.856160906116
 30
0.0
 10
1493.895315847792
 20
1163.842475510579
 30
0.0
 10
1494.258935846104
 20
1163.818708178787
 30
0.0
 10
1494.449174244617
 20
1163.808555198445
 30
0.0
 10
1495.044791105373
 20
1163.782776800099
 30
0.0
 10
1495.4749274829
 20
1163.771805420898
 30
0.0
 10
1496.402762446643
 20
1163.760288291729
 30
0.0
 10
1496.903237084645
 20
1163.759839764243
 30
0.0
 10
1497.938813068347
 20
1163.76762753743
 30
0.0
 10
1498.477562411452
 20
1163.775773310302
 30
0.0
 10
1499.597031979362
 20
1163.799129569602
 30
0.0
 10
1500.182143137791
 20
1163.814490788163
 30
0.0
 10
1501.368025345414
 20
1163.851011405588
 30
0.0
 10
1501.96973556793
 20
1163.872141042506
 30
0.0
 10
1502.580252832893
 20
1163.89619230433
 30
0.0
  0
SPLINE
  5
DAE
330
1F
100
AcDbEntity
  8
1
  6
Continuous
 48
25.4
100
AcDbSpline
210
0.0
220
0.0
230
1.0
 70
     8
 71
     3
 72
    12
 73
     8
 74
     0
 42
0.0000000001
 43
0.0000000001
 40
0.0
 40
0.0
 40
0.0
 40
0.0
 40
0.2499999999999996
 40
0.2499999999999996
 40
0.4999999999999992
 40
0.4999999999999992
 40
1.0
 40
1.0
 40
1.0
 40
1.0
 10
1490.784032783684
 20
1171.617717932899
 30
0.0
 10
1490.784032783684
 20
1171.485872891465
 30
0.0
 10
1491.066474595517
 20
1171.35678145119
 30
0.0
 10
1492.168594514367
 20
1171.112819530454
 30
0.0
 10
1492.980663688655
 20
1171.000804086538
 30
0.0
 10
1496.045123983771
 20
1170.714383877572
 30
0.0
 10
1498.919689694364
 20
1170.594043874655
 30
0.0
 10
1501.937957135049
 20
1170.575788286787
 30
0.0
  0
ARC
  5
DB4
330
1F
100
AcDbEntity
  8
1
  6
Continuous
 48
25.4
100
AcDbCircle
 10
1605.783027784398
 20
1120.247480728504
 30
0.0
 40
41.29306968475934
100
AcDbArc
 50
84.36372058651981
 51
95.64123001679227
  0
ARC
  5
DB5
330
1F
100
AcDbEntity
  8
1
  6
Continuous
 48
25.4
100
AcDbCircle
 10
1505.8670105362
 20
1113.335858837734
 30
0.0
 40
3.499996333824806
100
AcDbArc
 50
182.9512537938055
 51
270.0
  0
LINE
  5
DB8
330
1F
100
AcDbEntity
  8
1
  6
Continuous
 48
25.4
100
AcDbLine
 10
1514.662011910417
 20
1109.835862503909
 30
0.0
 11
1505.866920630552
 21
1109.835862503909
 31
0.0
  0
LINE
  5
DB9
330
1F
100
AcDbEntity
  8
1
  6
Continuous
 48
25.4
100
AcDbLine
 10
1705.701144754575
 20
1109.835862503909
 30
0.0
 11
1696.90605365695
 21
1109.835862503909
 31
0.0
  0
LINE
  5
DBA
330
1F
100
AcDbEntity
  8
1
  6
Continuous
 48
25.4
100
AcDbLine
 10
1696.90605365695
 20
1109.835862503909
 30
0.0
 11
1514.662011910417
 21
1109.835862503909
 31
0.0
  0
ARC
  5
DBF
330
1F
100
AcDbEntity
  8
1
  6
Continuous
 48
25.4
100
AcDbCircle
 10
1539.160572078824
 20
1174.151278426191
 30
0.0
 40
48.44283727185544
100
AcDbArc
 50
182.9979371568958
 51
191.4743259694582
  0
ARC
  5
DC0
330
1F
100
AcDbEntity
  8
1
  6
Continuous
 48
25.4
100
AcDbCircle
 10
1672.407493488544
 20
1174.151278426191
 30
0.0
 40
48.44283727185382
100
AcDbArc
 50
348.5256740305418
 51
357.0020628431043
  0
ARC
  5
DC1
330
1F
100
AcDbEntity
  8
1
  6
Continuous
 48
25.4
100
AcDbCircle
 10
1713.20377498381
 20
1207.264519808759
 30
0.0
 40
43.57276865450758
100
AcDbArc
 50
264.4475563042768
 51
278.260718960583
  0
ARC
  5
DC2
330
1F
100
AcDbEntity
  8
1
  6
Continuous
 48
25.4
100
AcDbCircle
 10
1605.784032783629
 20
-24392.64983257765
 30
0.0
 40
25556.75440548168
100
AcDbArc
 50
89.76862644612753
 51
90.23137355387223
  0
SPLINE
  5
DC5
330
1F
100
AcDbEntity
  8
1
  6
Continuous
 48
25.4
100
AcDbSpline
210
0.0
220
0.0
230
1.0
 70
     8
 71
     3
 72
    12
 73
     8
 74
     0
 42
0.0000000001
 43
0.0000000001
 40
0.0
 40
0.0
 40
0.0
 40
0.0
 40
0.2499999999999992
 40
0.2499999999999992
 40
0.4999999999999984
 40
0.4999999999999984
 40
1.0
 40
1.0
 40
1.0
 40
1.0
 10
1709.630108432318
 20
1170.575788286787
 30
0.0
 10
1711.139231047657
 20
1170.584916013554
 30
0.0
 10
1712.597281785824
 20
1170.618410470082
 30
0.0
 10
1715.313414287635
 20
1170.731125739356
 30
0.0
 10
1716.539343549315
 20
1170.809487324946
 30
0.0
 10
1719.605607209731
 20
1171.095760889662
 30
0.0
 10
1720.784032783684
 20
1171.35402590957
 30
0.0
 10
1720.784032783683
 20
1171.617717932899
 30
0.0
  0
ELLIPSE
  5
DC6
330
1F
100
AcDbEntity
  8
1
  6
Continuous
 48
25.4
100
AcDbEllipse
 10
1605.784032783781
 20
1300.995730050368
 30
0.0
 11
1500.000000011706
 21
0.000000000025868
 31
0.0
210
0.0
220
0.0
230
1.0
 40
0.0871557427481955
 41
4.643102841107586
 42
4.781675119661655
  0
LINE
  5
DC8
330
1F
100
AcDbEntity
  8
1
  6
Continuous
 48
25.4
100
AcDbLine
 10
1720.784032783683
 20
1172.613912630996
 30
0.0
 11
1720.784032783683
 21
1171.617717932899
 31
0.0
  0
LINE
  5
DC9
330
1F
100
AcDbEntity
  8
1
  6
Continuous
 48
25.4
100
AcDbLine
 10
1490.784032783684
 20
1171.617717932899
 30
0.0
 11
1490.784032783684
 21
1172.613912630984
 31
0.0
  0
LINE
  5
DCA
330
1F
100
AcDbEntity
  8
1
  6
Continuous
 48
25.4
100
AcDbLine
 10
1716.784032783683
 20
1111.390726353256
 30
0.0
 11
1716.784032783683
 21
1160.739570120998
 31
0.0
  0
LINE
  5
DCC
330
1F
100
AcDbEntity
  8
1
  6
Continuous
 48
25.4
100
AcDbLine
 10
1716.784032783683
 20
1160.739570120998
 30
0.0
 11
1716.784032783683
 21
1161.563536029311
 31
0.0
  0
ARC
  5
DCD
330
1F
100
AcDbEntity
  8
1
  6
Continuous
 48
25.4
100
AcDbCircle
 10
2052.743533684247
 20
1116.206153747468
 30
0.0
 40
343.0875983482795
100
AcDbArc
 50
175.2655424946384
 51
178.7845193010751
  0
LINE
  5
DDA
330
1F
100
AcDbEntity
  8
1
  6
Continuous
 48
25.4
100
AcDbLine
 10
1723.284032783683
 20
1153.772358135751
 30
0.0
 11
1723.284032783683
 21
1121.063264361726
 31
0.0
  0
LINE
  5
DE1
330
1F
100
AcDbEntity
  8
1
  6
Continuous
 48
25.4
100
AcDbLine
 10
1723.284032783683
 20
1154.385867190834
 30
0.0
 11
1723.284032783683
 21
1153.772358135751
 31
0.0
  0
LINE
  5
DE9
330
1F
100
AcDbEntity
  8
1
  6
Continuous
 48
25.4
100
AcDbLine
 10
1716.784032783683
 20
1119.019961605105
 30
0.0
 11
1721.303216308657
 21
1119.063288675679
 31
0.0
  0
ARC
  5
DEA
330
1F
100
AcDbEntity
  8
1
  6
Continuous
 48
25.4
100
AcDbCircle
 10
1721.284032783684
 20
1121.063264361726
 30
0.0
 40
1.999999999999914
100
AcDbArc
 50
270.5493476665909
 51
0.0
  0
LINE
  5
DEB
330
1F
100
AcDbEntity
  8
1
  6
Continuous
 48
25.4
100
AcDbLine
 10
1721.303215277186
 20
1156.385834069586
 30
0.0
 11
1716.784032783683
 21
1156.429172048706
 31
0.0
  0
ARC
  5
DEC
330
1F
100
AcDbEntity
  8
1
  6
Continuous
 48
25.4
100
AcDbCircle
 10
1721.284032783684
 20
1154.385867190834
 30
0.0
 40
2.000000000000002
100
AcDbArc
 50
0.0000000000040711
 51
89.45065233340905
  0
LINE
  5
DED
330
1F
100
AcDbEntity
  8
1
  6
Continuous
 48
25.4
100
AcDbLine
 10
1518.784032783683
 20
1109.835862503909
 30
0.0
 11
1518.784032783683
 21
1107.335862503909
 31
0.0
  0
LINE
  5
DEE
330
1F
100
AcDbEntity
  8
1
  6
Continuous
 48
25.4
100
AcDbLine
 10
1534.784032783683
 20
1107.335862503909
 30
0.0
 11
1534.784032783683
 21
1109.835862503909
 31
0.0
  0
LINE
  5
DEF
330
1F
100
AcDbEntity
  8
1
  6
Continuous
 48
25.4
100
AcDbLine
 10
1534.784032783683
 20
1107.335862503909
 30
0.0
 11
1518.784032783683
 21
1107.335862503909
 31
0.0
  0
LINE
  5
DF0
330
1F
100
AcDbEntity
  8
1
  6
Continuous
 48
25.4
100
AcDbLine
 10
1627.784032783684
 20
1188.105629042938
 30
0.0
 11
1517.784032783684
 21
1188.105629042938
 31
0.0
  0
ELLIPSE
  5
DF1
330
1F
100
AcDbEntity
  8
1
  6
Continuous
 48
25.4
100
AcDbEllipse
 10
1627.784032783684
 20
1188.192784785685
 30
0.0
 11
1.000000000000001
 21
0.0
 31
0.0
210
0.0
220
0.0
230
1.0
 40
0.087155742747642
 41
4.712388980384688
 42
6.283185307179585
  0
LINE
  5
DF2
330
1F
100
AcDbEntity
  8
1
  6
Continuous
 48
25.4
100
AcDbLine
 10
1628.784032783684
 20
1191.156080039105
 30
0.0
 11
1628.784032783684
 21
1188.192784785685
 31
0.0
  0
ELLIPSE
  5
DF3
330
1F
100
AcDbEntity
  8
1
  6
Continuous
 48
25.4
100
AcDbEllipse
 10
1627.784032783684
 20
1191.156080039105
 30
0.0
 11
-1.000000000000011
 21
0.0
 31
0.0
210
0.0
220
0.0
230
1.0
 40
0.0871557427476459
 41
3.141592653589792
 42
4.712388980384688
  0
LINE
  5
DF4
330
1F
100
AcDbEntity
  8
1
  6
Continuous
 48
25.4
100
AcDbLine
 10
1517.784032783684
 20
1191.243235781852
 30
0.0
 11
1627.784032783684
 21
1191.243235781852
 31
0.0
  0
ELLIPSE
  5
DF5
330
1F
100
AcDbEntity
  8
1
  6
Continuous
 48
25.4
100
AcDbEllipse
 10
1517.784032783684
 20
1191.156080039106
 30
0.0
 11
-1.000000000000001
 21
-0.000000000000111
 31
0.0
210
0.0
220
0.0
230
1.0
 40
0.0871557427475355
 41
4.712388980384679
 42
6.283185307179585
  0
LINE
  5
DF6
330
1F
100
AcDbEntity
  8
1
  6
Continuous
 48
25.4
100
AcDbLine
 10
1500.484032783684
 20
1185.02737076964
 30
0.0
 11
1500.484032783684
 21
1192.79460800276
 31
0.0
  0
LINE
  5
DF7
330
1F
100
AcDbEntity
  8
1
  6
Continuous
 48
25.4
100
AcDbLine
 10
1516.784032783684
 20
1188.192784785685
 30
0.0
 11
1516.784032783684
 21
1191.156080039105
 31
0.0
  0
ELLIPSE
  5
DF8
330
1F
100
AcDbEntity
  8
1
  6
Continuous
 48
25.4
100
AcDbEllipse
 10
1517.784032783684
 20
1188.192784785685
 30
0.0
 11
0.9999999999999589
 21
-0.000000000000111
 31
0.0
210
0.0
220
0.0
230
1.0
 40
0.0871557427475391
 41
3.141592653589792
 42
4.712388980384699
  0
LINE
  5
DF9
330
1F
100
AcDbEntity
  8
1
  6
Continuous
 48
25.4
100
AcDbLine
 10
1503.984032783684
 20
1193.099653102378
 30
0.0
 11
1707.584032783684
 21
1193.099653102378
 31
0.0
  0
ELLIPSE
  5
DFA
330
1F
100
AcDbEntity
  8
1
  6
Continuous
 48
25.4
100
AcDbEllipse
 10
1707.584032783684
 20
1192.794608002761
 30
0.0
 11
-3.499999999999989
 21
0.0
 31
0.0
210
0.0
220
0.0
230
1.0
 40
0.0871557427476628
 41
3.141592653589792
 42
4.712388980384688
  0
LINE
  5
DFB
330
1F
100
AcDbEntity
  8
1
  6
Continuous
 48
25.4
100
AcDbLine
 10
1711.084032783684
 20
1192.79460800276
 30
0.0
 11
1711.084032783684
 21
1185.027370769639
 31
0.0
  0
ELLIPSE
  5
DFC
330
1F
100
AcDbEntity
  8
1
  6
Continuous
 48
25.4
100
AcDbEllipse
 10
1517.784032783684
 20
1191.031555701844
 30
0.0
 11
-1.000000000000001
 21
0.0
 31
0.0
210
0.0
220
0.0
230
1.0
 40
0.0871557427476465
 41
4.712388980384688
 42
6.283185307179585
  0
ELLIPSE
  5
DFD
330
1F
100
AcDbEntity
  8
1
  6
Continuous
 48
25.4
100
AcDbEllipse
 10
1627.784032783684
 20
1191.031555701844
 30
0.0
 11
-0.9999999999999664
 21
0.000000000000111
 31
0.0
210
0.0
220
0.0
230
1.0
 40
0.087155742747645
 41
3.141592653589792
 42
4.712388980384699
  0
LINE
  5
DFE
330
1F
100
AcDbEntity
  8
1
  6
Continuous
 48
25.4
100
AcDbLine
 10
1517.784032783684
 20
1191.118711444591
 30
0.0
 11
1627.784032783684
 21
1191.118711444591
 31
0.0
  0
ELLIPSE
  5
DFF
330
1F
100
AcDbEntity
  8
1
  6
Continuous
 48
25.4
100
AcDbEllipse
 10
1503.984032783684
 20
1192.794608002761
 30
0.0
 11
-3.499999999999989
 21
0.0
 31
0.0
210
0.0
220
0.0
230
1.0
 40
0.0871557427476631
 41
4.712388980384688
 42
6.283185307179585
  0
LINE
  5
E00
330
1F
100
AcDbEntity
  8
1
  6
Continuous
 48
25.4
100
AcDbLine
 10
1627.784032783684
 20
1191.243235781852
 30
0.0
 11
1627.784032783684
 21
1191.118711444591
 31
0.0
  0
LINE
  5
E01
330
1F
100
AcDbEntity
  8
1
  6
Continuous
 48
25.4
100
AcDbLine
 10
1517.784032783684
 20
1191.243235781852
 30
0.0
 11
1517.784032783684
 21
1191.118711444591
 31
0.0
  0
ELLIPSE
  5
E02
330
1F
100
AcDbEntity
  8
1
  6
Continuous
 48
25.4
100
AcDbEllipse
 10
1517.784032783684
 20
1190.832316762226
 30
0.0
 11
-1.000000000000001
 21
0.0
 31
0.0
210
0.0
220
0.0
230
1.0
 40
0.0871557427476465
 41
4.712388980384688
 42
6.283185307179585
  0
ELLIPSE
  5
E03
330
1F
100
AcDbEntity
  8
1
  6
Continuous
 48
25.4
100
AcDbEllipse
 10
1627.784032783684
 20
1190.832316762226
 30
0.0
 11
-1.000000000000011
 21
0.000000000000111
 31
0.0
210
0.0
220
0.0
230
1.0
 40
0.0871557427475297
 41
3.141592653589792
 42
4.712388980384699
  0
LINE
  5
E04
330
1F
100
AcDbEntity
  8
1
  6
Continuous
 48
25.4
100
AcDbLine
 10
1517.784032783684
 20
1190.919472504973
 30
0.0
 11
1627.784032783684
 21
1190.919472504973
 31
0.0
  0
LINE
  5
E05
330
1F
100
AcDbEntity
  8
1
  6
Continuous
 48
25.4
100
AcDbLine
 10
1517.784032783684
 20
1191.118711444591
 30
0.0
 11
1627.784032783684
 21
1191.118711444591
 31
0.0
  0
ELLIPSE
  5
E06
330
1F
100
AcDbEntity
  8
1
  6
Continuous
 48
25.4
100
AcDbEllipse
 10
1517.784032783684
 20
1191.031555701844
 30
0.0
 11
-1.000000000000001
 21
0.000000000000111
 31
0.0
210
0.0
220
0.0
230
1.0
 40
0.0871557427477576
 41
4.712388980384699
 42
6.283185307179585
  0
ELLIPSE
  5
E07
330
1F
100
AcDbEntity
  8
1
  6
Continuous
 48
25.4
100
AcDbEllipse
 10
1627.784032783684
 20
1191.031555701844
 30
0.0
 11
-1.000000000000011
 21
0.0
 31
0.0
210
0.0
220
0.0
230
1.0
 40
0.0871557427476408
 41
3.141592653589792
 42
4.712388980384688
  0
LINE
  5
E08
330
1F
100
AcDbEntity
  8
1
  6
Continuous
 48
25.4
100
AcDbLine
 10
1627.784032783684
 20
1190.919472504973
 30
0.0
 11
1627.784032783684
 21
1191.118711444591
 31
0.0
  0
LINE
  5
E09
330
1F
100
AcDbEntity
  8
1
  6
Continuous
 48
25.4
100
AcDbLine
 10
1517.784032783684
 20
1190.919472504973
 30
0.0
 11
1517.784032783684
 21
1191.118711444591
 31
0.0
  0
LINE
  5
E0A
330
1F
100
AcDbEntity
  8
1
  6
Continuous
 48
25.4
100
AcDbLine
 10
1500.484121022114
 20
1183.994432899735
 30
0.0
 11
1500.484121022114
 21
1184.166189307504
 31
0.0
  0
LINE
  5
E0B
330
1F
100
AcDbEntity
  8
1
  6
Continuous
 48
25.4
100
AcDbLine
 10
1501.984121022113
 20
1184.296922921626
 30
0.0
 11
1709.584121022113
 21
1184.296922921626
 31
0.0
  0
ELLIPSE
  5
E0C
330
1F
100
AcDbEntity
  8
1
  6
Continuous
 48
25.4
100
AcDbEllipse
 10
1709.584121022113
 20
1184.166189307504
 30
0.0
 11
-1.500000000000014
 21
0.0
 31
0.0
210
0.0
220
0.0
230
1.0
 40
0.0871557427476827
 41
3.141592653589792
 42
4.712388980384688
  0
LINE
  5
E0D
330
1F
100
AcDbEntity
  8
1
  6
Continuous
 48
25.4
100
AcDbLine
 10
1711.084121022113
 20
1184.166189307504
 30
0.0
 11
1711.084121022113
 21
1184.005741360176
 31
0.0
  0
ELLIPSE
  5
E0E
330
1F
100
AcDbEntity
  8
1
  6
Continuous
 48
25.4
100
AcDbEllipse
 10
1501.984121022113
 20
1184.166189307504
 30
0.0
 11
-1.500000000000014
 21
0.0
 31
0.0
210
0.0
220
0.0
230
1.0
 40
0.0871557427476827
 41
4.712388980384688
 42
6.283185307179585
  0
DIMENSION
  5
E0F
330
1F
100
AcDbEntity
  8
MEASURE
 48
25.4
100
AcDbDimension
  2
*D42
 10
1755.784032783684
 20
626.6589248489972
 30
0.0
 11
1605.784032783684
 21
637.9089248489972
 31
0.0
 70
    32
 71
     5
 42
299.9999999999995
  3
AD-STANDARD
100
AcDbAlignedDimension
 13
1455.784032783684
 23
518.8358625039134
 33
0.0
 14
1755.784032783684
 24
518.8358625039134
 34
0.0
100
AcDbRotatedDimension
1001
ACAD
1000
DSTYLE
1002
{
1070
    40
1040
5.0
1002
}
  0
DIMENSION
  5
E1C
330
1F
100
AcDbEntity
  8
MEASURE
 48
25.4
100
AcDbDimension
  2
*D43
 10
1625.784032783683
 20
848.1236390777931
 30
0.0
 11
1605.784032783683
 21
859.373639077793
 31
0.0
 70
    32
 71
     5
 42
40.0
  3
AD-STANDARD
100
AcDbAlignedDimension
 13
1585.784032783683
 23
808.8358625039097
 33
0.0
 14
1625.784032783683
 24
808.8358625039097
 34
0.0
100
AcDbRotatedDimension
1001
ACAD
1000
DSTYLE
1002
{
1070
    76
1070
     1
1070
    75
1070
     1
1070
    40
1040
5.0
1002
}
  0
DIMENSION
  5
E38
330
1F
100
AcDbEntity
  8
MEASURE
 48
25.4
100
AcDbDimension
  2
*D44
 10
1715.784032783684
 20
326.133444167609
 30
0.0
 11
1605.784032783684
 21
337.383444167609
 31
0.0
 70
    32
 71
     5
 42
220.0
  3
AD-STANDARD
100
AcDbAlignedDimension
 13
1495.784032783684
 23
417.8358625039165
 33
0.0
 14
1715.784032783684
 24
417.8358625039165
 34
0.0
100
AcDbRotatedDimension
1001
ACAD
1000
DSTYLE
1002
{
1070
    40
1040
5.0
1002
}
  0
LINE
  5
E48
330
1F
100
AcDbEntity
  8
1
  6
HIDDEN
 62
     8
100
AcDbLine
 10
475.2394898228232
 20
1035.335862503913
 30
0.0
 11
472.3641519825135
 21
1035.335862503913
 31
0.0
  0
LINE
  5
E49
330
1F
100
AcDbEntity
  8
1
  6
HIDDEN
 62
     8
100
AcDbLine
 10
475.2394898228231
 20
1054.335862503913
 30
0.0
 11
472.3641519825106
 21
1054.335862503913
 31
0.0
  0
LINE
  5
E4F
330
1F
100
AcDbEntity
  8
1
  6
HIDDEN
 62
     8
100
AcDbLine
 10
475.2394898228231
 20
1055.016035023953
 30
0.0
 11
475.2394898228231
 21
1056.014664558707
 31
0.0
  0
ARC
  5
E50
330
1F
100
AcDbEntity
  8
1
  6
HIDDEN
 62
     8
100
AcDbCircle
 10
507.2394898228234
 20
1010.705461650891
 30
0.0
 40
2.000000000000002
100
AcDbArc
 50
180.0
 51
267.0000000000005
  0
ARC
  5
E51
330
1F
100
AcDbEntity
  8
1
  6
HIDDEN
 62
     8
100
AcDbCircle
 10
507.2394898228224
 20
1101.966263356936
 30
0.0
 40
2.0
100
AcDbArc
 50
92.99999999999744
 51
180.0
  0
LINE
  5
E52
330
1F
100
AcDbEntity
  8
1
  6
HIDDEN
 62
     8
100
AcDbLine
 10
507.1348179103365
 20
1103.963522426446
 30
0.0
 11
514.2394898228224
 21
1104.335862503913
 31
0.0
  0
LINE
  5
E53
330
1F
100
AcDbEntity
  8
1
  6
HIDDEN
 62
     8
100
AcDbLine
 10
505.2394898228236
 20
1010.705461650891
 30
0.0
 11
505.2394898228223
 21
1101.966263356936
 31
0.0
  0
LINE
  5
E54
330
1F
100
AcDbEntity
  8
1
  6
HIDDEN
 62
     8
100
AcDbLine
 10
514.2394898228235
 20
1008.335862503914
 30
0.0
 11
507.1348179103376
 21
1008.708202581382
 31
0.0
  0
LINE
  5
E55
330
1F
100
AcDbEntity
  8
1
  6
HIDDEN
 62
     8
100
AcDbLine
 10
505.2394898228234
 20
1031.135862503914
 30
0.0
 11
476.1871538665801
 21
1032.658430914364
 31
0.0
  0
LINE
  5
E56
330
1F
100
AcDbEntity
  8
1
  6
HIDDEN
 62
     8
100
AcDbLine
 10
476.1871538665801
 20
1057.013294093462
 30
0.0
 11
505.239489822823
 21
1058.535862503914
 31
0.0
  0
LINE
  5
E57
330
1F
100
AcDbEntity
  8
1
  6
HIDDEN
 62
     8
100
AcDbLine
 10
462.2394898228227
 20
1076.460607188911
 30
0.0
 11
505.2394898228228
 21
1076.835862503914
 31
0.0
  0
LINE
  5
E58
330
1F
100
AcDbEntity
  8
1
  6
HIDDEN
 62
     8
100
AcDbLine
 10
462.2394898228228
 20
1066.190019007976
 30
0.0
 11
462.2394898228227
 21
1076.460607188911
 31
0.0
  0
LINE
  5
E59
330
1F
100
AcDbEntity
  8
1
  6
HIDDEN
 62
     8
100
AcDbLine
 10
462.2394898228234
 20
1023.48170599985
 30
0.0
 11
462.2394898228232
 21
1022.589397013083
 31
0.0
  0
ARC
  5
E5A
330
1F
100
AcDbEntity
  8
1
  6
HIDDEN
 62
     8
100
AcDbCircle
 10
476.2394898228234
 20
1033.657060449119
 30
0.0
 40
1.000000000000001
100
AcDbArc
 50
180.0000000000081
 51
266.9999999999942
  0
ARC
  5
E5B
330
1F
100
AcDbEntity
  8
1
  6
HIDDEN
 62
     8
100
AcDbCircle
 10
476.239489822823
 20
1056.014664558707
 30
0.0
 40
1.000000000000001
100
AcDbArc
 50
92.99999999999718
 51
180.0
  0
LINE
  5
E5C
330
1F
100
AcDbEntity
  8
1
  6
HIDDEN
 62
     8
100
AcDbLine
 10
462.2394898228235
 20
1022.589397013084
 30
0.0
 11
505.2394898228235
 21
1020.335862503914
 31
0.0
  0
LINE
  5
E5D
330
1F
100
AcDbEntity
  8
1
  6
HIDDEN
 62
     8
100
AcDbLine
 10
475.2394898228232
 20
1034.655689983874
 30
0.0
 11
475.2394898228231
 21
1055.016035023953
 31
0.0
  0
LINE
  5
E5E
330
1F
100
AcDbEntity
  8
1
  6
HIDDEN
 62
     8
100
AcDbLine
 10
475.2394898228232
 20
1033.657060449119
 30
0.0
 11
475.2394898228232
 21
1034.655689983874
 31
0.0
  0
LINE
  5
E5F
330
1F
100
AcDbEntity
  8
1
  6
HIDDEN
 62
     8
100
AcDbLine
 10
493.7394898228226
 20
1091.733173042159
 30
0.0
 11
491.7394898228226
 21
1091.628357483592
 31
0.0
  0
ARC
  5
E60
330
1F
100
AcDbEntity
  8
1
  6
HIDDEN
 62
     8
100
AcDbCircle
 10
421.2394898228227
 20
1083.928119660146
 30
0.0
 40
4.000000000000008
100
AcDbArc
 50
93.00000000000149
 51
180.0
  0
LINE
  5
E61
330
1F
100
AcDbEntity
  8
1
  6
HIDDEN
 62
     8
100
AcDbLine
 10
494.7394898228226
 20
1092.286266994441
 30
0.0
 11
493.7394898228226
 21
1092.233859215157
 31
0.0
  0
LINE
  5
E62
330
1F
100
AcDbEntity
  8
1
  6
HIDDEN
 62
     8
100
AcDbLine
 10
491.7394898228226
 20
1092.129043656591
 30
0.0
 11
490.7394898228225
 21
1092.076635877309
 31
0.0
  0
LINE
  5
E63
330
1F
100
AcDbEntity
  8
1
  6
HIDDEN
 62
     8
100
AcDbLine
 10
497.7394898228226
 20
1092.44349033229
 30
0.0
 11
496.7394898228227
 21
1092.391082553006
 31
0.0
  0
LINE
  5
E64
330
1F
100
AcDbEntity
  8
1
  6
HIDDEN
 62
     8
100
AcDbLine
 10
499.2394898228226
 20
1092.021415828215
 30
0.0
 11
497.7394898228226
 21
1091.942804159291
 31
0.0
  0
LINE
  5
E65
330
1F
100
AcDbEntity
  8
1
  6
HIDDEN
 62
     8
100
AcDbLine
 10
490.7394898228225
 20
1091.575949704309
 30
0.0
 11
421.0301459978508
 21
1087.922637799164
 31
0.0
  0
ARC
  5
E68
330
1F
100
AcDbEntity
  8
1
  6
HIDDEN
 62
     8
100
AcDbCircle
 10
505.0631097356284
 20
1088.572742498018
 30
0.0
 40
3.706050797407767
100
AcDbArc
 50
87.27212225166969
 51
95.00956454734819
  0
LINE
  5
E6A
330
1F
100
AcDbEntity
  8
1
  6
HIDDEN
 62
     8
100
AcDbLine
 10
494.7394898228226
 20
1091.6333774448
 30
0.0
 11
494.7394898228226
 21
1092.134827217081
 31
0.0
  0
LINE
  5
E6B
330
1F
100
AcDbEntity
  8
1
  6
HIDDEN
 62
     8
100
AcDbLine
 10
493.7394898228226
 20
1092.233859215157
 30
0.0
 11
493.7394898228226
 21
1092.082339869882
 31
0.0
  0
LINE
  5
E6C
330
1F
100
AcDbEntity
  8
1
  6
HIDDEN
 62
     8
100
AcDbLine
 10
494.7394898228226
 20
1092.286266994441
 30
0.0
 11
494.7394898228226
 21
1092.134827217081
 31
0.0
  0
ARC
  5
E6D
330
1F
100
AcDbEntity
  8
1
  6
HIDDEN
 62
     8
100
AcDbCircle
 10
494.0165892150922
 20
1095.853817568703
 30
0.0
 40
4.281903797156157
100
AcDbArc
 50
266.2895644045218
 51
279.7196204171958
  0
LINE
  5
E6E
330
1F
100
AcDbEntity
  8
1
  6
HIDDEN
 62
     8
100
AcDbLine
 10
490.7394898228225
 20
1092.076635877309
 30
0.0
 11
490.7394898228225
 21
1091.924877325443
 31
0.0
  0
LINE
  5
E6F
330
1F
100
AcDbEntity
  8
1
  6
HIDDEN
 62
     8
100
AcDbLine
 10
491.7394898228226
 20
1091.977364924196
 30
0.0
 11
491.7394898228228
 21
1092.129043656591
 31
0.0
  0
LINE
  5
E71
330
1F
100
AcDbEntity
  8
1
  6
HIDDEN
 62
     8
100
AcDbLine
 10
493.7394898228226
 20
1091.580889292344
 30
0.0
 11
493.7394898228226
 21
1092.082339869882
 31
0.0
  0
LINE
  5
E72
330
1F
100
AcDbEntity
  8
1
  6
HIDDEN
 62
     8
100
AcDbLine
 10
491.7394898228226
 20
1091.475912732313
 30
0.0
 11
491.7394898228226
 21
1091.977364924196
 31
0.0
  0
ARC
  5
E73
330
1F
100
AcDbEntity
  8
1
  6
HIDDEN
 62
     8
100
AcDbCircle
 10
491.0169439787329
 20
1095.689573170697
 30
0.0
 40
4.275161609438823
100
AcDbArc
 50
266.2789400312646
 51
279.730273975446
  0
LINE
  5
E75
330
1F
100
AcDbEntity
  8
1
  6
HIDDEN
 62
     8
100
AcDbLine
 10
497.7394898228226
 20
1091.790841393548
 30
0.0
 11
497.7394898228226
 21
1092.29228875768
 31
0.0
  0
LINE
  5
E76
330
1F
100
AcDbEntity
  8
1
  6
HIDDEN
 62
     8
100
AcDbLine
 10
496.7394898228227
 20
1091.738353495268
 30
0.0
 11
496.7394898228227
 21
1092.239801660848
 31
0.0
  0
LINE
  5
E77
330
1F
100
AcDbEntity
  8
1
  6
HIDDEN
 62
     8
100
AcDbLine
 10
496.7394898228227
 20
1092.239801660848
 30
0.0
 11
496.7394898228227
 21
1092.391082553006
 31
0.0
  0
ARC
  5
E79
330
1F
100
AcDbEntity
  8
1
  6
HIDDEN
 62
     8
100
AcDbCircle
 10
497.0162344552925
 20
1096.018061096905
 30
0.0
 40
4.288646027256135
100
AcDbArc
 50
266.3001552306257
 51
279.7090005446599
  0
LINE
  5
E7A
330
1F
100
AcDbEntity
  8
1
  6
HIDDEN
 62
     8
100
AcDbLine
 10
497.7394898228226
 20
1092.29228875768
 30
0.0
 11
497.7394898228226
 21
1092.44349033229
 31
0.0
  0
LINE
  5
E7B
330
1F
100
AcDbEntity
  8
1
  6
HIDDEN
 62
     8
100
AcDbLine
 10
490.7394898228225
 20
1091.423424324468
 30
0.0
 11
490.7394898228225
 21
1091.924877325443
 31
0.0
  0
LINE
  5
E7C
330
1F
100
AcDbEntity
  8
1
  6
HIDDEN
 62
     8
100
AcDbLine
 10
462.2394898228227
 20
1076.460607188911
 30
0.0
 11
462.2394898228229
 21
1074.335862503913
 31
0.0
  0
LINE
  5
E7D
330
1F
100
AcDbEntity
  8
1
  6
HIDDEN
 62
     8
100
AcDbLine
 10
462.2394898228227
 20
1076.460607188911
 30
0.0
 11
505.2394898228228
 21
1076.835862503914
 31
0.0
  0
LINE
  5
E7E
330
1F
100
AcDbEntity
  8
1
  6
HIDDEN
 62
     8
100
AcDbLine
 10
417.2394898228227
 20
1082.138628722607
 30
0.0
 11
417.2394898228225
 21
1083.928119660146
 31
0.0
  0
LINE
  5
E7F
330
1F
100
AcDbEntity
  8
1
  6
HIDDEN
 62
     8
100
AcDbLine
 10
417.2394898228228
 20
1074.335862503913
 30
0.0
 11
417.2394898228227
 21
1082.138628722607
 31
0.0
  0
LINE
  5
E80
330
1F
100
AcDbEntity
  8
1
  6
HIDDEN
 62
     8
100
AcDbLine
 10
462.2394898228228
 20
1074.335862503913
 30
0.0
 11
421.2045836808292
 21
1074.335862503913
 31
0.0
  0
LINE
  5
E81
330
1F
100
AcDbEntity
  8
1
  6
HIDDEN
 62
     8
100
AcDbLine
 10
417.2394898228228
 20
1074.335862503912
 30
0.0
 11
421.2045836808293
 21
1074.335862503912
 31
0.0
  0
LINE
  5
E82
330
1F
100
AcDbEntity
  8
1
  6
HIDDEN
 62
     8
100
AcDbLine
 10
499.2394898228226
 20
1092.016399930094
 30
0.0
 11
499.2394898228226
 21
1092.021415828215
 31
0.0
  0
LINE
  5
E83
330
1F
100
AcDbEntity
  8
1
  6
HIDDEN
 62
     8
100
AcDbLine
 10
504.7394898228226
 20
1092.264636681903
 30
0.0
 11
501.2394898228226
 21
1092.081126661059
 31
0.0
  0
ARC
  5
E84
330
1F
100
AcDbEntity
  8
1
  6
HIDDEN
 62
     8
100
AcDbCircle
 10
499.0323260602294
 20
1129.349079396478
 30
0.0
 40
37.33325425092643
100
AcDbArc
 50
270.3179382675898
 51
273.3893362821315
  0
LINE
  5
E85
330
1F
100
AcDbEntity
  8
1
  6
HIDDEN
 62
     8
100
AcDbLine
 10
496.7394898228227
 20
1091.890396380007
 30
0.0
 11
494.7394898228226
 21
1091.785580821442
 31
0.0
  0
ARC
  5
E86
330
1F
100
AcDbEntity
  8
1
  6
HIDDEN
 62
     8
100
AcDbCircle
 10
581.2590195731296
 20
982.0406513638399
 30
0.0
 40
3.500000000000015
100
AcDbArc
 50
275.1728258285441
 51
341.6823773998808
  0
ARC
  5
E87
330
1F
100
AcDbEntity
  8
1
  6
HIDDEN
 62
     8
100
AcDbCircle
 10
581.259019573133
 20
982.0406513638387
 30
0.0
 40
3.499999999996469
100
AcDbArc
 50
341.6823773998833
 51
346.4413708473167
  0
LINE
  5
E88
330
1F
100
AcDbEntity
  8
1
  6
HIDDEN
 62
     8
100
AcDbLine
 10
586.2588122314481
 20
990.533830643071
 30
0.0
 11
587.2550069295396
 21
990.4466749003233
 31
0.0
  0
ARC
  5
E89
330
1F
100
AcDbEntity
  8
1
  6
HIDDEN
 62
     8
100
AcDbCircle
 10
587.2985848009135
 20
990.9447722493693
 30
0.0
 40
0.499999999999955
100
AcDbArc
 50
264.999999999995
 51
354.9999999999862
  0
ARC
  5
E8A
330
1F
100
AcDbEntity
  8
1
  6
HIDDEN
 62
     8
100
AcDbCircle
 10
577.4069127789811
 20
1028.380820474936
 30
0.0
 40
50.00000000000004
100
AcDbArc
 50
268.0000000000006
 51
274.7734199703979
  0
LINE
  5
E8B
330
1F
100
AcDbEntity
  8
1
  6
HIDDEN
 62
     8
100
AcDbLine
 10
596.5431898756706
 20
1108.084805017897
 30
0.0
 11
586.5306819475311
 21
993.6413157174373
 31
0.0
  0
ARC
  5
E8C
330
1F
100
AcDbEntity
  8
1
  6
HIDDEN
 62
     8
100
AcDbCircle
 10
581.340865594263
 20
1073.346106910202
 30
0.0
 40
50.00000000000264
100
AcDbArc
 50
75.24811428737092
 51
82.00000000000107
  0
LINE
  5
E8D
330
1F
100
AcDbEntity
  8
1
  6
HIDDEN
 62
     8
100
AcDbLine
 10
587.2550850562905
 20
1110.921556972719
 30
0.0
 11
588.2995206422662
 21
1122.859510347283
 31
0.0
  0
LINE
  5
E8E
330
1F
100
AcDbEntity
  8
1
  6
HIDDEN
 62
     8
100
AcDbLine
 10
575.9756103037922
 20
981.9965706039704
 30
0.0
 11
577.0175399499041
 21
993.9058809548335
 31
0.0
  0
LINE
  5
E8F
330
1F
100
AcDbEntity
  8
1
  6
HIDDEN
 62
     8
100
AcDbLine
 10
575.6619379438566
 20
978.4112791239811
 30
0.0
 11
575.9756103037922
 21
981.9965706039713
 31
0.0
  0
LINE
  5
E90
330
1F
100
AcDbEntity
  8
1
  6
HIDDEN
 62
     8
100
AcDbLine
 10
587.2550850562905
 20
1110.921556972719
 30
0.0
 11
577.0175399499041
 21
993.9058809548335
 31
0.0
  0
ARC
  5
E91
330
1F
100
AcDbEntity
  8
1
  6
HIDDEN
 62
     8
100
AcDbCircle
 10
526.8095610092491
 20
1114.185707010234
 30
0.0
 40
69.99999999999895
100
AcDbArc
 50
356.2172573875987
 51
3.55862915325896
  0
ARC
  5
E92
330
1F
100
AcDbEntity
  8
1
  6
HIDDEN
 62
     8
100
AcDbCircle
 10
516.6123391077888
 20
997.6309273334955
 30
0.0
 40
69.99999999998445
100
AcDbArc
 50
349.5937929795442
 51
355.0000000000013
  0
LINE
  5
E93
330
1F
100
AcDbEntity
  8
1
  6
HIDDEN
 62
     8
100
AcDbLine
 10
586.5306819475311
 20
993.6413157174373
 30
0.0
 11
586.3459679741955
 21
991.5300253411627
 31
0.0
  0
LINE
  5
E94
330
1F
100
AcDbEntity
  8
1
  6
HIDDEN
 62
     8
100
AcDbLine
 10
596.6570579321611
 20
1109.567571715151
 30
0.0
 11
596.5431898756706
 21
1108.084805017897
 31
0.0
  0
ARC
  5
E95
330
1F
100
AcDbEntity
  8
1
  6
HIDDEN
 62
     8
100
AcDbCircle
 10
516.6123391076609
 20
997.6309273335205
 30
0.0
 40
70.00000000011481
100
AcDbArc
 50
346.4413708900463
 51
349.5937929795455
  0
LINE
  5
E96
330
1F
100
AcDbEntity
  8
1
  6
HIDDEN
 62
     8
100
AcDbLine
 10
597.6265403165095
 20
1108.99384397324
 30
0.0
 11
596.6303456184181
 21
1109.080999715988
 31
0.0
  0
ARC
  5
E97
330
1F
100
AcDbEntity
  8
1
  6
HIDDEN
 62
     8
100
AcDbCircle
 10
597.5829624451362
 20
1108.495746624194
 30
0.0
 40
0.49999999999995
100
AcDbArc
 50
354.9999999999862
 51
85.00000000001133
  0
LINE
  5
E98
330
1F
100
AcDbEntity
  8
1
  6
HIDDEN
 62
     8
100
AcDbLine
 10
597.6888589518175
 20
1103.969292611408
 30
0.0
 11
588.495173390528
 21
998.884985790721
 31
0.0
  0
LINE
  5
E99
330
1F
100
AcDbEntity
  8
1
  6
HIDDEN
 62
     8
100
AcDbLine
 10
598.0810597941822
 20
1108.452168752821
 30
0.0
 11
597.6888589518175
 21
1103.969292611408
 31
0.0
  0
LINE
  5
E9A
330
1F
100
AcDbEntity
  8
1
  6
HIDDEN
 62
     8
100
AcDbLine
 10
588.495173390528
 20
998.884985790721
 30
0.0
 11
588.1039025797377
 21
994.4127399588355
 31
0.0
  0
LINE
  5
E9B
330
1F
100
AcDbEntity
  8
1
  6
HIDDEN
 62
     8
100
AcDbLine
 10
587.7966821499597
 20
990.9011943779953
 30
0.0
 11
588.1039025797377
 21
994.4127399588358
 31
0.0
  0
ARC
  5
E9C
330
1F
100
AcDbEntity
  8
1
  6
HIDDEN
 62
     8
100
AcDbCircle
 10
593.1813361494886
 20
1118.313353401744
 30
0.0
 40
3.499999999999972
100
AcDbArc
 50
3.55862915326157
 51
75.24811428736878
  0
ARC
  5
E9D
330
1F
100
AcDbEntity
  8
1
  6
HIDDEN
 62
     8
100
AcDbCircle
 10
517.7394898228231
 20
1005.31234294599
 30
0.0
 40
3.499999999999948
100
AcDbArc
 50
180.0
 51
260.0621890536555
  0
LINE
  5
E9E
330
1F
100
AcDbEntity
  8
1
  6
HIDDEN
 62
     8
100
AcDbLine
 10
517.7394898228222
 20
1109.871497744223
 30
0.0
 11
575.2238933716901
 21
1109.871497744223
 31
0.0
  0
ARC
  5
E9F
330
1F
100
AcDbEntity
  8
1
  6
HIDDEN
 62
     8
100
AcDbCircle
 10
575.2629795667056
 20
1110.83638578504
 30
0.0
 40
0.9656793784439853
100
AcDbArc
 50
267.6803005391381
 51
352.9874185517983
  0
LINE
  5
EA0
330
1F
100
AcDbEntity
  8
1
  6
HIDDEN
 62
     8
100
AcDbLine
 10
565.0391346045416
 20
993.4717495140004
 30
0.0
 11
517.1354627573419
 21
1001.864858166594
 31
0.0
  0
LINE
  5
EA1
330
1F
100
AcDbEntity
  8
1
  6
HIDDEN
 62
     8
100
AcDbLine
 10
576.0213452518126
 20
993.9930366975813
 30
0.0
 11
574.9794156057
 21
982.0837263467149
 31
0.0
  0
ARC
  5
EA2
330
1F
100
AcDbEntity
  8
1
  6
HIDDEN
 62
     8
100
AcDbCircle
 10
581.3450789402671
 20
1119.285853264398
 30
0.0
 40
3.49999999999992
100
AcDbArc
 50
95.19858604869652
 51
165.6111438364443
  0
ARC
  5
EA4
330
1F
100
AcDbEntity
  8
1
  6
HIDDEN
 62
     8
100
AcDbCircle
 10
585.5583511090497
 20
1072.977124739076
 30
0.0
 40
50.00000000000199
100
AcDbArc
 50
88.00000000000066
 51
95.19858604869652
  0
LINE
  5
EA5
330
1F
100
AcDbEntity
  8
1
  6
HIDDEN
 62
     8
100
AcDbLine
 10
587.3033259441741
 20
1122.946666090032
 30
0.0
 11
586.2588903581991
 21
1111.008712715469
 31
0.0
  0
ARC
  5
EA8
330
1F
100
AcDbEntity
  8
1
  6
HIDDEN
 62
     8
100
AcDbCircle
 10
635.7384713976191
 20
988.2239462294574
 30
0.0
 40
70.00000000000325
100
AcDbArc
 50
175.8291680417468
 51
181.2192346905944
  0
ARC
  5
EA9
330
1F
100
AcDbEntity
  8
1
  6
HIDDEN
 62
     8
100
AcDbCircle
 10
635.7384713975191
 20
988.223946229454
 30
0.0
 40
69.99999999990325
100
AcDbArc
 50
181.2192346905931
 51
184.3859368809894
  0
LINE
  5
EAA
330
1F
100
AcDbEntity
  8
1
  6
HIDDEN
 62
     8
100
AcDbLine
 10
565.9239766633146
 20
993.3167180674892
 30
0.0
 11
566.1151474997105
 21
995.501810726259
 31
0.0
  0
LINE
  5
EAB
330
1F
100
AcDbEntity
  8
1
  6
HIDDEN
 62
     8
100
AcDbLine
 10
566.1151474997105
 20
995.501810726259
 30
0.0
 11
576.1211985647896
 21
1109.871497744225
 31
0.0
  0
LINE
  5
EAD
330
1F
100
AcDbEntity
  8
1
  6
HIDDEN
 62
     8
100
AcDbLine
 10
565.9239766633146
 20
993.3167180674892
 30
0.0
 11
566.2725996343051
 21
997.3014968598564
 31
0.0
  0
ARC
  5
EAF
330
1F
100
AcDbEntity
  8
1
  6
HIDDEN
 62
     8
100
AcDbCircle
 10
517.7394898228222
 20
1106.371497744223
 30
0.0
 40
3.499999999999948
100
AcDbArc
 50
90.0
 51
180.0
  0
LINE
  5
EB0
330
1F
100
AcDbEntity
  8
1
  6
HIDDEN
 62
     8
100
AcDbLine
 10
514.2394898228233
 20
1005.31234294599
 30
0.0
 11
514.2394898228233
 21
1014.180402811473
 31
0.0
  0
LINE
  5
EB1
330
1F
100
AcDbEntity
  8
1
  6
HIDDEN
 62
     8
100
AcDbLine
 10
514.2394898228233
 20
1014.180402811473
 30
0.0
 11
514.2394898228224
 21
1097.627534017046
 31
0.0
  0
LINE
  5
EB2
330
1F
100
AcDbEntity
  8
1
  6
HIDDEN
 62
     8
100
AcDbLine
 10
514.2394898228224
 20
1097.627534017046
 30
0.0
 11
514.2394898228224
 21
1106.371497744222
 31
0.0
  0
ARC
  5
EB4
330
1F
100
AcDbEntity
  8
1
  6
HIDDEN
 62
     8
100
AcDbCircle
 10
564.9094729320411
 20
992.5105950940846
 30
0.0
 40
0.9698607983825489
100
AcDbArc
 50
357.2385098814427
 51
82.31706567748638
  0
LINE
  5
EB5
330
1F
100
AcDbEntity
  8
1
  6
HIDDEN
 62
     8
100
AcDbLine
 10
576.0213452518126
 20
993.9930366975813
 30
0.0
 11
586.2588903581991
 21
1111.008712715469
 31
0.0
  0
LINE
  5
EB6
330
1F
100
AcDbEntity
  8
1
  6
HIDDEN
 62
     8
100
AcDbLine
 10
574.9794156056996
 20
982.0837263467149
 30
0.0
 11
574.6657432457645
 21
978.498434866724
 31
0.0
  0
LINE
  5
EB7
330
1F
100
AcDbEntity
  8
1
  6
HIDDEN
 62
     8
100
AcDbLine
 10
573.9643422492791
 20
1110.949956839951
 30
0.0
 11
574.2871060079091
 21
1115.051059238524
 31
0.0
  0
LINE
  5
EB8
330
1F
100
AcDbEntity
  8
1
  6
HIDDEN
 62
     8
100
AcDbLine
 10
567.8900834051296
 20
1115.610726196587
 30
0.0
 11
574.2871060079091
 21
1115.051059238524
 31
0.0
  0
LINE
  5
EB9
330
1F
100
AcDbEntity
  8
1
  6
HIDDEN
 62
     8
100
AcDbLine
 10
535.4141362473386
 20
1118.45200341016
 30
0.0
 11
567.8900834051296
 21
1115.610726196587
 31
0.0
  0
LINE
  5
EBA
330
1F
100
AcDbEntity
  8
1
  6
HIDDEN
 62
     8
100
AcDbLine
 10
529.0171136445589
 20
1119.011670368222
 30
0.0
 11
535.4141362473386
 21
1118.45200341016
 31
0.0
  0
LINE
  5
EBB
330
1F
100
AcDbEntity
  8
1
  6
HIDDEN
 62
     8
100
AcDbLine
 10
528.2240752741465
 20
1110.775651991703
 30
0.0
 11
529.0171136445589
 21
1119.011670368222
 31
0.0
  0
LINE
  5
EBC
330
1F
100
AcDbEntity
  8
1
  6
HIDDEN
 62
     8
100
AcDbLine
 10
562.6207512207481
 20
1012.929244719495
 30
0.0
 11
569.4624770264385
 21
1091.130528519697
 31
0.0
  0
LINE
  5
EBD
330
1F
100
AcDbEntity
  8
1
  6
HIDDEN
 62
     8
100
AcDbLine
 10
525.1318129613555
 20
1095.008959071968
 30
0.0
 11
521.4276938945809
 21
1052.670684403069
 31
0.0
  0
LINE
  5
EBE
330
1F
100
AcDbEntity
  8
1
  6
HIDDEN
 62
     8
100
AcDbLine
 10
521.4276938945809
 20
1052.670684403068
 30
0.0
 11
532.38583557359
 21
1051.711971232844
 31
0.0
  0
LINE
  5
EBF
330
1F
100
AcDbEntity
  8
1
  6
HIDDEN
 62
     8
100
AcDbLine
 10
532.38583557359
 20
1051.711971232844
 30
0.0
 11
536.0899546403651
 21
1094.050245901744
 31
0.0
  0
LINE
  5
EC0
330
1F
100
AcDbEntity
  8
1
  6
HIDDEN
 62
     8
100
AcDbLine
 10
536.0899546403651
 20
1094.050245901744
 30
0.0
 11
525.1318129613555
 21
1095.008959071968
 31
0.0
  0
LINE
  5
EC1
330
1F
100
AcDbEntity
  8
1
  6
HIDDEN
 62
     8
100
AcDbLine
 10
569.4624770264385
 20
1091.130528519697
 30
0.0
 11
538.0823440365485
 21
1093.875934416248
 31
0.0
  0
LINE
  5
EC2
330
1F
100
AcDbEntity
  8
1
  6
HIDDEN
 62
     8
100
AcDbLine
 10
538.0823440365485
 20
1093.875934416248
 30
0.0
 11
531.240618230858
 21
1015.674650616046
 31
0.0
  0
LINE
  5
EC3
330
1F
100
AcDbEntity
  8
1
  6
HIDDEN
 62
     8
100
AcDbLine
 10
531.240618230858
 20
1015.674650616046
 30
0.0
 11
562.6207512207481
 21
1012.929244719495
 31
0.0
  0
ARC
  5
EC4
330
1F
100
AcDbEntity
  8
1
  6
HIDDEN
 62
     8
100
AcDbCircle
 10
645.7590744985371
 20
1102.760503760823
 30
0.0
 40
69.9999999999714
100
AcDbArc
 50
165.6111438364433
 51
169.2488241096983
  0
ARC
  5
EC5
330
1F
100
AcDbEntity
  8
1
  6
HIDDEN
 62
     8
100
AcDbCircle
 10
645.7590744985637
 20
1102.760503760816
 30
0.0
 40
69.99999999999815
100
AcDbArc
 50
165.6111438364439
 51
172.9738151940699
  0
ARC
  5
EC8
330
1F
100
AcDbEntity
  8
1
  6
HIDDEN
 62
     8
100
AcDbCircle
 10
527.2286790757796
 20
1110.871497744223
 30
0.0
 40
0.9999999999999008
100
AcDbArc
 50
270.0
 51
354.5000000000003
  0
LINE
  5
EC9
330
1F
100
AcDbEntity
  8
1
  6
HIDDEN
 62
     8
100
AcDbLine
 10
574.7354678399626
 20
979.2953906251984
 30
0.0
 11
575.7316625380546
 21
979.2082348824511
 31
0.0
  0
ARC
  5
ECA
330
1F
100
AcDbEntity
  8
1
  6
HIDDEN
 62
     8
100
AcDbCircle
 10
581.6243982937691
 20
1028.011838303806
 30
0.0
 40
49.99999999999997
100
AcDbArc
 50
254.7763597464498
 51
261.9999999999992
  0
ARC
  5
ECB
330
1F
100
AcDbEntity
  8
1
  6
HIDDEN
 62
     8
100
AcDbCircle
 10
569.4332131465771
 20
983.1384051311014
 30
0.0
 40
3.499999999999718
100
AcDbArc
 50
189.0892199057529
 51
254.6519265928556
  0
ARC
  5
ECC
330
1F
100
AcDbEntity
  8
1
  6
HIDDEN
 62
     8
100
AcDbCircle
 10
574.9612595830122
 20
1110.871497744223
 30
0.0
 40
0.9999999999999552
100
AcDbArc
 50
175.5000000000025
 51
270.0
  0
LINE
  5
ECE
330
1F
100
AcDbEntity
  8
1
  6
HIDDEN
 62
     8
100
AcDbLine
 10
577.0175399499041
 20
993.9058809548335
 30
0.0
 11
576.0451676060641
 21
982.7916142069822
 31
0.0
  0
LINE
  5
ECF
330
1F
100
AcDbEntity
  8
1
  6
HIDDEN
 62
     8
100
AcDbLine
 10
587.2336013499761
 20
1122.14971033156
 30
0.0
 11
588.2297960480676
 21
1122.062554588812
 31
0.0
  0
LINE
  5
ED0
330
1F
100
AcDbEntity
  8
1
  6
HIDDEN
 62
     8
100
AcDbLine
 10
588.2297960480676
 20
1122.062554588812
 30
0.0
 11
587.2550850562905
 21
1110.921556972721
 31
0.0
  0
LINE
  5
ED1
330
1F
100
AcDbEntity
  8
1
  6
HIDDEN
 62
     8
100
AcDbLine
 10
514.2394898228226
 20
1098.220508500522
 30
0.0
 11
514.2394898228226
 21
1097.627534017046
 31
0.0
  0
LINE
  5
ED2
330
1F
100
AcDbEntity
  8
1
  6
HIDDEN
 62
     8
100
AcDbLine
 10
514.2394898228226
 20
1100.228148175608
 30
0.0
 11
511.7394898228226
 21
1100.446869834423
 31
0.0
  0
LINE
  5
ED3
330
1F
100
AcDbEntity
  8
1
  6
HIDDEN
 62
     8
100
AcDbLine
 10
514.2394898228233
 20
1028.95693971003
 30
0.0
 11
511.7394898228231
 21
1029.175661368845
 31
0.0
  0
LINE
  5
ED4
330
1F
100
AcDbEntity
  8
1
  6
HIDDEN
 62
     8
100
AcDbLine
 10
511.7394898228226
 20
1084.385752433729
 30
0.0
 11
514.2394898228226
 21
1084.167030774914
 31
0.0
  0
LINE
  5
ED5
330
1F
100
AcDbEntity
  8
1
  6
HIDDEN
 62
     8
100
AcDbLine
 10
511.7394898228233
 20
1013.114543968151
 30
0.0
 11
514.2394898228233
 21
1012.895822309337
 31
0.0
  0
LINE
  5
ED6
330
1F
100
AcDbEntity
  8
1
  6
HIDDEN
 62
     8
100
AcDbLine
 10
511.7394898228228
 20
1084.385752433729
 30
0.0
 11
511.7394898228226
 21
1100.446869834423
 31
0.0
  0
LINE
  5
ED7
330
1F
100
AcDbEntity
  8
1
  6
HIDDEN
 62
     8
100
AcDbLine
 10
511.7394898228233
 20
1013.114543968151
 30
0.0
 11
511.739489822823
 21
1029.175661368845
 31
0.0
  0
ARC
  5
ED8
330
1F
100
AcDbEntity
  8
1
  6
HIDDEN
 62
     8
100
AcDbCircle
 10
543.0349805143992
 20
1121.800545280469
 30
0.0
 40
2.499999999999976
100
AcDbArc
 50
355.0000000000001
 51
175.0
  0
LINE
  5
ED9
330
1F
100
AcDbEntity
  8
1
  6
HIDDEN
 62
     8
100
AcDbLine
 10
542.2878344908301
 20
1121.86591208753
 30
0.0
 11
542.1135230053351
 21
1119.873522691346
 31
0.0
  0
ARC
  5
EDA
330
1F
100
AcDbEntity
  8
1
  6
HIDDEN
 62
     8
100
AcDbCircle
 10
543.0349805143992
 20
1121.800545280469
 30
0.0
 40
0.750000000000033
100
AcDbArc
 50
354.9999999999978
 51
174.9999999999981
  0
LINE
  5
EDB
330
1F
100
AcDbEntity
  8
1
  6
HIDDEN
 62
     8
100
AcDbLine
 10
567.7655364811975
 20
1117.629262315594
 30
0.0
 11
571.7415836806541
 21
1117.281403259998
 31
0.0
  0
LINE
  5
EDC
330
1F
100
AcDbEntity
  8
1
  6
HIDDEN
 62
     8
100
AcDbLine
 10
535.8873061422615
 20
1120.418246083519
 30
0.0
 11
567.7655364811971
 21
1117.629262315594
 31
0.0
  0
LINE
  5
EDD
330
1F
100
AcDbEntity
  8
1
  6
HIDDEN
 62
     8
100
AcDbLine
 10
531.9112589428045
 20
1120.766105139116
 30
0.0
 11
535.8873061422615
 21
1120.418246083519
 31
0.0
  0
LINE
  5
EDE
330
1F
100
AcDbEntity
  8
1
  6
HIDDEN
 62
     8
100
AcDbLine
 10
572.6513452716396
 20
1116.206749466178
 30
0.0
 11
572.5721984861605
 21
1115.201094205673
 31
0.0
  0
LINE
  5
EDF
330
1F
100
AcDbEntity
  8
1
  6
HIDDEN
 62
     8
100
AcDbLine
 10
530.7320211663076
 20
1118.861635401074
 30
0.0
 11
530.8287070016896
 21
1119.865756193544
 31
0.0
  0
ARC
  5
EE0
330
1F
100
AcDbEntity
  8
1
  6
HIDDEN
 62
     8
100
AcDbCircle
 10
571.6544279379065
 20
1116.285208561907
 30
0.0
 40
0.9999999999999552
100
AcDbArc
 50
355.4999999999943
 51
84.99999999999511
  0
ARC
  5
EE1
330
1F
100
AcDbEntity
  8
1
  6
HIDDEN
 62
     8
100
AcDbCircle
 10
531.8241032000571
 20
1119.769910441024
 30
0.0
 40
1.000000000000009
100
AcDbArc
 50
85.00000000000325
 51
174.500000000001
  0
LINE
  5
EE2
330
1F
100
AcDbEntity
  8
1
  6
HIDDEN
 62
     8
100
AcDbLine
 10
545.5254672596287
 20
1121.5826559236
 30
0.0
 11
545.3511557741331
 21
1119.590266527417
 31
0.0
  0
LINE
  5
EE3
330
1F
100
AcDbEntity
  8
1
  6
HIDDEN
 62
     8
100
AcDbLine
 10
540.5444937691696
 20
1122.018434637338
 30
0.0
 11
540.3701822836746
 21
1120.026045241155
 31
0.0
  0
LINE
  5
EE4
330
1F
100
AcDbEntity
  8
1
  6
HIDDEN
 62
     8
100
AcDbLine
 10
543.7821265379681
 20
1121.735178473409
 30
0.0
 11
543.6078150524726
 21
1119.742789077225
 31
0.0
  0
LINE
  5
EE5
330
1F
100
AcDbEntity
  8
1
  6
HIDDEN
 62
     8
100
AcDbLine
 10
545.6195778737911
 20
1128.395201788562
 30
0.0
 11
545.6908090127247
 21
1129.209377432154
 31
0.0
  0
LINE
  5
EE6
330
1F
100
AcDbEntity
  8
1
  6
HIDDEN
 62
     8
100
AcDbLine
 10
545.6908090127247
 20
1129.209377432154
 30
0.0
 11
545.9425052094326
 21
1132.086278124938
 31
0.0
  0
LINE
  5
EE7
330
1F
100
AcDbEntity
  8
1
  6
HIDDEN
 62
     8
100
AcDbLine
 10
545.6195778737911
 20
1128.395201788562
 30
0.0
 11
545.158103524704
 21
1123.120525842111
 31
0.0
  0
LINE
  5
EE8
330
1F
100
AcDbEntity
  8
1
  6
HIDDEN
 62
     8
100
AcDbLine
 10
561.5144147506716
 20
1118.176164601336
 30
0.0
 11
561.8630377216626
 21
1122.160943393703
 31
0.0
  0
LINE
  5
EE9
330
1F
100
AcDbEntity
  8
1
  6
HIDDEN
 62
     8
100
AcDbLine
 10
554.1362066012375
 20
1131.369422140838
 30
0.0
 11
545.9425052094326
 21
1132.086278124937
 31
0.0
  0
ARC
  5
EEA
330
1F
100
AcDbEntity
  8
1
  6
HIDDEN
 62
     8
100
AcDbCircle
 10
553.3953827878825
 20
1122.901767207058
 30
0.0
 40
8.499999999999921
100
AcDbArc
 50
355.0000000000005
 51
85.00000000000206
  0
LINE
  5
EEB
330
1F
100
AcDbEntity
  8
1
  6
HIDDEN
 62
     8
100
AcDbLine
 10
554.3169080569591
 20
1118.805864842688
 30
0.0
 11
554.534797413828
 21
1121.296351587917
 31
0.0
  0
LINE
  5
EEC
330
1F
100
AcDbEntity
  8
1
  6
HIDDEN
 62
     8
100
AcDbLine
 10
549.5538239233696
 20
1121.732130301656
 30
0.0
 11
549.3359345665001
 21
1119.241643556426
 31
0.0
  0
LINE
  5
EED
330
1F
100
AcDbEntity
  8
1
  6
HIDDEN
 62
     8
100
AcDbLine
 10
556.0290894609656
 20
1121.165617973796
 30
0.0
 11
556.1162452037136
 21
1122.161812671887
 31
0.0
  0
LINE
  5
EEE
330
1F
100
AcDbEntity
  8
1
  6
HIDDEN
 62
     8
100
AcDbLine
 10
556.3341345605826
 20
1124.652299417116
 30
0.0
 11
556.5956017888252
 21
1127.640883511392
 31
0.0
  0
LINE
  5
EEF
330
1F
100
AcDbEntity
  8
1
  6
HIDDEN
 62
     8
100
AcDbLine
 10
548.1466876189796
 20
1122.859058613869
 30
0.0
 11
548.0595318762315
 21
1121.862863915777
 31
0.0
  0
LINE
  5
EF0
330
1F
100
AcDbEntity
  8
1
  6
HIDDEN
 62
     8
100
AcDbLine
 10
556.5956017888255
 20
1127.640883511392
 30
0.0
 11
556.1410823111535
 21
1128.182558731811
 31
0.0
  0
LINE
  5
EF1
330
1F
100
AcDbEntity
  8
1
  6
HIDDEN
 62
     8
100
AcDbLine
 10
548.6260442040916
 20
1128.338129453373
 30
0.0
 11
548.3645769758486
 21
1125.349545359098
 31
0.0
  0
ARC
  5
EF2
330
1F
100
AcDbEntity
  8
1
  6
HIDDEN
 62
     8
100
AcDbCircle
 10
545.3462340760636
 20
1124.358812561444
 30
0.0
 40
3.501774664427397
100
AcDbArc
 50
342.634397827804
 51
7.367735389586713
  0
ARC
  5
EF3
330
1F
100
AcDbEntity
  8
1
  6
HIDDEN
 62
     8
100
AcDbCircle
 10
559.1303898023761
 20
1123.152862108224
 30
0.0
 40
3.497662059157087
100
AcDbArc
 50
162.617705068156
 51
187.3806675151791
  0
LINE
  5
EF4
330
1F
100
AcDbEntity
  8
1
  6
HIDDEN
 62
     8
100
AcDbLine
 10
549.1677194245111
 20
1128.792648931046
 30
0.0
 11
548.6260442040916
 21
1128.338129453373
 31
0.0
  0
LINE
  5
EF5
330
1F
100
AcDbEntity
  8
1
  6
HIDDEN
 62
     8
100
AcDbLine
 10
556.1162452037136
 20
1122.161812671887
 30
0.0
 11
548.1466876189796
 21
1122.859058613869
 31
0.0
  0
LINE
  5
EF6
330
1F
100
AcDbEntity
  8
1
  6
HIDDEN
 62
     8
100
AcDbLine
 10
556.0290894609661
 20
1121.165617973796
 30
0.0
 11
548.0595318762315
 21
1121.862863915777
 31
0.0
  0
LINE
  5
EF7
330
1F
100
AcDbEntity
  8
1
  6
HIDDEN
 62
     8
100
AcDbLine
 10
556.5956017888255
 20
1127.640883511392
 30
0.0
 11
548.6260442040916
 21
1128.338129453373
 31
0.0
  0
LINE
  5
EF8
330
1F
100
AcDbEntity
  8
1
  6
HIDDEN
 62
     8
100
AcDbLine
 10
556.3341345605826
 20
1124.652299417117
 30
0.0
 11
548.3645769758486
 21
1125.349545359098
 31
0.0
  0
LINE
  5
EF9
330
1F
100
AcDbEntity
  8
1
  6
HIDDEN
 62
     8
100
AcDbLine
 10
549.1677194245111
 20
1128.792648931046
 30
0.0
 11
556.1410823111535
 21
1128.182558731811
 31
0.0
  0
LINE
  5
EFA
330
1F
100
AcDbEntity
  8
1
  6
HIDDEN
 62
     8
100
AcDbLine
 10
555.7922064542951
 20
1124.194889440749
 30
0.0
 11
555.8360372115365
 21
1124.69587728849
 31
0.0
  0
LINE
  5
EFB
330
1F
100
AcDbEntity
  8
1
  6
HIDDEN
 62
     8
100
AcDbLine
 10
555.6181478546676
 20
1122.205390543261
 30
0.0
 11
555.6625173093356
 21
1122.712535730764
 31
0.0
  0
LINE
  5
EFC
330
1F
100
AcDbEntity
  8
1
  6
HIDDEN
 62
     8
100
AcDbLine
 10
548.6892205503255
 20
1123.323381772294
 30
0.0
 11
548.644784968025
 21
1122.815480742494
 31
0.0
  0
LINE
  5
EFD
330
1F
100
AcDbEntity
  8
1
  6
HIDDEN
 62
     8
100
AcDbLine
 10
548.8626743248946
 20
1125.305967487724
 30
0.0
 11
548.8190964535205
 21
1124.807870138678
 31
0.0
  0
ARC
  5
EFE
330
1F
100
AcDbEntity
  8
1
  6
Continuous
 48
25.4
100
AcDbCircle
 10
1712.138597676915
 20
1199.401259611002
 30
0.0
 40
28.86998510899183
100
AcDbArc
 50
277.4514431082491
 51
285.7684629621767
  0
VIEWPORT
  5
796
330
78E
100
AcDbEntity
 67
     1
  8
0
 48
25.4
100
AcDbViewport
 10
289.1363523549644
 20
200.3891617620291
 30
0.0
 40
452.5538614367584
 41
371.374096601711
 68
     1
 69
     1
 12
289.1363523549644
 22
200.3891617620291
 13
0.0
 23
0.0
 14
10.0
 24
10.0
 15
10.0
 25
10.0
 16
0.0
 26
0.0
 36
1.0
 17
0.0
 27
0.0
 37
0.0
 42
50.0
 43
0.0
 44
0.0
 45
371.374096601711
 50
0.0
 51
0.0
 72
   100
 90
    32800
  1

281
     0
 71
     1
 74
     0
110
0.0
120
0.0
130
0.0
111
1.0
121
0.0
131
0.0
112
0.0
122
1.0
132
0.0
 79
     0
146
0.0
  0
VIEWPORT
  5
798
330
78E
100
AcDbEntity
 67
     1
  8
DEFPOINTS
 48
25.4
100
AcDbViewport
 10
283.8882233002934
 20
199.8087827783136
 30
0.0
 40
408.1181015611596
 41
285.9397643053896
 68
     2
 69
     2
 12
1030.416342705283
 22
728.5384561547309
 13
0.0
 23
0.0
 14
0.5
 24
0.5
 15
0.5
 25
0.5
 16
0.0
 26
0.0
 36
1.0
 17
0.0
 27
0.0
 37
0.0
 42
50.0
 43
0.0
 44
0.0
 45
1429.698823078703
 50
0.0
 51
0.0
 72
   100
 90
    32864
  1

281
     0
 71
     1
 74
     0
110
0.0
120
0.0
130
0.0
111
1.0
121
0.0
131
0.0
112
0.0
122
1.0
132
0.0
 79
     0
146
0.0
  0
ENDSEC
  0
SECTION
  2
OBJECTS
  0
DICTIONARY
  5
C
330
0
100
AcDbDictionary
281
     1
  3
ACAD_COLOR
350
64A
  3
ACAD_GROUP
350
D
  3
ACAD_LAYOUT
350
1A
  3
ACAD_MATERIAL
350
649
  3
ACAD_MLINESTYLE
350
17
  3
ACAD_PLOTSETTINGS
350
19
  3
ACAD_PLOTSTYLENAME
350
E
  3
ACAD_TABLESTYLE
350
2A
  3
ACDBVARIABLEDICTIONARY
350
2C
  0
DICTIONARY
  5
8B6
330
2
100
AcDbDictionary
280
     1
281
     1
  3
ACAD_LAYERFILTERS
360
E45
  3
ACAD_LAYERSTATES
360
8B7
  0
DICTIONARY
  5
7B9
330
1F
100
AcDbDictionary
280
     1
281
     1
  3
ACAD_LAYOUTSELFREF
360
7BA
  0
DICTIONARY
  5
7BB
330
78E
100
AcDbDictionary
280
     1
281
     1
  3
ACAD_LAYOUTSELFREF
360
7BC
  0
DICTIONARY
  5
64A
102
{ACAD_REACTORS
330
C
102
}
330
C
100
AcDbDictionary
281
     1
  0
DICTIONARY
  5
D
102
{ACAD_REACTORS
330
C
102
}
330
C
100
AcDbDictionary
281
     1
  0
DICTIONARY
  5
1A
102
{ACAD_REACTORS
330
C
102
}
330
C
100
AcDbDictionary
281
     1
  3
Model
350
7C3
  3
ﾚｲｱｳﾄ1
350
7C4
  0
DICTIONARY
  5
649
102
{ACAD_REACTORS
330
C
102
}
330
C
100
AcDbDictionary
281
     1
  0
DICTIONARY
  5
17
102
{ACAD_REACTORS
330
C
102
}
330
C
100
AcDbDictionary
281
     1
  3
STANDARD
350
18
  0
DICTIONARY
  5
19
102
{ACAD_REACTORS
330
C
102
}
330
C
100
AcDbDictionary
281
     1
  0
ACDBDICTIONARYWDFLT
  5
E
102
{ACAD_REACTORS
330
C
102
}
330
C
100
AcDbDictionary
281
     1
  3
Normal
350
F
100
AcDbDictionaryWithDefault
340
F
  0
DICTIONARY
  5
2A
102
{ACAD_REACTORS
330
C
102
}
330
C
100
AcDbDictionary
281
     1
  3
STANDARD
350
2B
  0
DICTIONARY
  5
2C
102
{ACAD_REACTORS
330
C
102
}
330
C
100
AcDbDictionary
281
     1
  3
CTABLESTYLE
350
2D
  3
DIMASSOC
350
654
  3
PROJECTNAME
350
655
  0
DICTIONARY
  5
E45
102
{ACAD_REACTORS
330
8B6
102
}
330
8B6
100
AcDbDictionary
280
     1
281
     1
  0
DICTIONARY
  5
8B7
102
{ACAD_REACTORS
330
8B6
102
}
330
8B6
100
AcDbDictionary
281
     1
  0
XRECORD
  5
7BA
102
{ACAD_REACTORS
330
7B9
102
}
330
7B9
100
AcDbXrecord
280
     1
340
1F
  0
XRECORD
  5
7BC
102
{ACAD_REACTORS
330
7BB
102
}
330
7BB
100
AcDbXrecord
280
     1
340
78E
  0
LAYOUT
  5
7C3
102
{ACAD_REACTORS
330
1A
102
}
330
1A
100
AcDbPlotSettings
  1

  2
RICOH IPSiO NX710
  4

  6

 40
0.0
 41
0.0
 42
0.0
 43
0.0
 44
0.0
 45
0.0
 46
0.0
 47
0.0
 48
0.0
 49
0.0
140
0.0
141
0.0
142
1.0
143
1.0
 70
  1712
 72
     0
 73
     0
 74
     0
  7
monochrome.ctb
 75
     0
147
1.0
148
0.0
149
0.0
100
AcDbLayout
  1
Model
 70
     1
 71
     0
 10
0.0
 20
0.0
 11
12.0
 21
9.0
 12
0.0
 22
0.0
 32
0.0
 14
0.0
 24
0.0
 34
0.0
 15
0.0
 25
0.0
 35
0.0
146
0.0
 13
0.0
 23
0.0
 33
0.0
 16
1.0
 26
0.0
 36
0.0
 17
0.0
 27
1.0
 37
0.0
 76
     0
330
1F
  0
LAYOUT
  5
7C4
102
{ACAD_REACTORS
330
1A
102
}
330
1A
100
AcDbPlotSettings
  1

  2
Acrobat Distiller
  4
A3
  6

 40
3.174999952316284
 41
3.174999952316284
 42
3.17498779296875
 43
3.17498779296875
 44
297.0318298339843
 45
420.1583251953125
 46
0.0
 47
0.0
 48
0.0
 49
0.0
140
0.0
141
0.0
142
1.0
143
1.0
 70
   688
 72
     1
 73
     1
 74
     5
  7
monochrome.ctb
 75
     0
147
1.0
148
-77.80072206194347
149
-54.39264320881802
100
AcDbLayout
  1
ﾚｲｱｳﾄ1
 70
     1
 71
     1
 10
74.62573426897472
 20
51.21764325650174
 11
494.7840594642872
 21
348.2494730904861
 12
0.0
 22
0.0
 32
0.0
 14
79.82917251971364
 24
56.83890062561878
 34
0.0
 15
487.9472740808733
 25
342.7786649310084
 35
0.0
146
0.0
 13
0.0
 23
0.0
 33
0.0
 16
1.0
 26
0.0
 36
0.0
 17
0.0
 27
1.0
 37
0.0
 76
     0
330
78E
331
796
  0
MLINESTYLE
  5
18
102
{ACAD_REACTORS
330
17
102
}
330
17
100
AcDbMlineStyle
  2
STANDARD
 70
     0
  3

 62
   256
 51
90.0
 52
90.0
 71
     2
 49
0.5
 62
   256
  6
BYLAYER
 49
-0.5
 62
   256
  6
BYLAYER
  0
ACDBPLACEHOLDER
  5
F
102
{ACAD_REACTORS
330
E
102
}
330
E
  0
ACAD_PROXY_OBJECT
  5
2B
102
{ACAD_REACTORS
330
2A
102
}
330
2A
100
AcDbProxyObject
 90
      499
 91
      501
 95
   851991
 70
     0
 93
     1841
310
4214DD185B99185C9928B81E85EB51B8AE3F2E07A17AD46E2B8FC02B5E8DC0F42B1CFD028000000C1008070000C3001FDFF8000000C1003FBFF000000182007F7FE00000030400FEFFC00000060801FDFF8000000C1003FBFF00000018200000000000000681FA0B0000001820100E000186003FBFF000000182007F7FE000
310
00030400FEFFC00000060801FDFF8000000C1003FBFF000000182007F7FE000000304000AD7A3703D0AC73F4160000003040201C00030C007F7FE00000030400FEFFC00000060801FDFF8000000C1003FBFF000000182007F7FE00000030400FEFFC000000608000
340
11
340
11
340
11
 94
        0
  0
DICTIONARYVAR
  5
2D
102
{ACAD_REACTORS
330
2C
102
}
330
2C
100
DictionaryVariables
280
     0
  1
STANDARD
  0
DICTIONARYVAR
  5
654
102
{ACAD_REACTORS
330
2C
102
}
330
2C
100
DictionaryVariables
280
     0
  1
1
  0
DICTIONARYVAR
  5
655
102
{ACAD_REACTORS
330
2C
102
}
330
2C
100
DictionaryVariables
280
     0
  1

  0
ENDSEC
  0
EOF
