  0
SECTION
  2
HEADER
  9
$ACADVER
  1
AC1012
  9
$DWGCODEPAGE
  3
dos932
  9
$INSBASE
 10
0.0
 20
0.0
 30
0.0
  9
$EXTMIN
 10
0.0
 20
0.0
 30
0.0
  9
$EXTMAX
 10
630.0
 20
445.5
 30
0.0
  9
$LIMMIN
 10
0.0
 20
0.0
  9
$LIMMAX
 10
10000.0
 20
10000.0
  9
$ORTHOMODE
 70
     1
  9
$REGENMODE
 70
     1
  9
$FILLMODE
 70
     1
  9
$QTEXTMODE
 70
     0
  9
$MIRRTEXT
 70
     1
  9
$DRAGMODE
 70
     2
  9
$LTSCALE
 40
30.0
  9
$OSMODE
 70
   311
  9
$ATTMODE
 70
     1
  9
$TEXTSIZE
 40
3.5
  9
$TRACEWID
 40
1.0
  9
$TEXTSTYLE
  7
AD-STANDARD
  9
$CLAYER
  8
1
  9
$CELTYPE
  6
BYLAYER
  9
$CECOLOR
 62
   256
  9
$CELTSCALE
 40
1.0
  9
$DELOBJ
 70
     1
  9
$DISPSILH
 70
     0
  9
$DIMSCALE
 40
2.0
  9
$DIMASZ
 40
2.5
  9
$DIMEXO
 40
1.0
  9
$DIMDLI
 40
0.38
  9
$DIMRND
 40
0.0
  9
$DIMDLE
 40
0.0
  9
$DIMEXE
 40
2.0
  9
$DIMTP
 40
0.0
  9
$DIMTM
 40
0.0
  9
$DIMTXT
 40
3.5
  9
$DIMCEN
 40
-2.0
  9
$DIMTSZ
 40
0.0
  9
$DIMTOL
 70
     0
  9
$DIMLIM
 70
     0
  9
$DIMTIH
 70
     0
  9
$DIMTOH
 70
     0
  9
$DIMSE1
 70
     0
  9
$DIMSE2
 70
     0
  9
$DIMTAD
 70
     1
  9
$DIMZIN
 70
     8
  9
$DIMBLK
  1

  9
$DIMASO
 70
     1
  9
$DIMSHO
 70
     1
  9
$DIMPOST
  1

  9
$DIMAPOST
  1

  9
$DIMALT
 70
     0
  9
$DIMALTD
 70
     2
  9
$DIMALTF
 40
25.4
  9
$DIMLFAC
 40
1.0
  9
$DIMTOFL
 70
     1
  9
$DIMTVP
 40
0.0
  9
$DIMTIX
 70
     0
  9
$DIMSOXD
 70
     0
  9
$DIMSAH
 70
     0
  9
$DIMBLK1
  1

  9
$DIMBLK2
  1

  9
$DIMSTYLE
  2
AD-STANDARD
  9
$DIMCLRD
 70
     9
  9
$DIMCLRE
 70
     9
  9
$DIMCLRT
 70
     2
  9
$DIMTFAC
 40
1.0
  9
$DIMGAP
 40
0.5
  9
$DIMJUST
 70
     0
  9
$DIMSD1
 70
     0
  9
$DIMSD2
 70
     0
  9
$DIMTOLJ
 70
     1
  9
$DIMTZIN
 70
     8
  9
$DIMALTZ
 70
     0
  9
$DIMALTTZ
 70
     0
  9
$DIMFIT
 70
     3
  9
$DIMUPT
 70
     0
  9
$DIMUNIT
 70
     2
  9
$DIMDEC
 70
     4
  9
$DIMTDEC
 70
     4
  9
$DIMALTU
 70
     2
  9
$DIMALTTD
 70
     2
  9
$DIMTXSTY
  7
AD-STANDARD
  9
$DIMAUNIT
 70
     0
  9
$LUNITS
 70
     2
  9
$LUPREC
 70
     4
  9
$SKETCHINC
 40
1.0
  9
$FILLETRAD
 40
0.0
  9
$AUNITS
 70
     0
  9
$AUPREC
 70
     0
  9
$MENU
  1
.
  9
$ELEVATION
 40
0.0
  9
$PELEVATION
 40
0.0
  9
$THICKNESS
 40
0.0
  9
$LIMCHECK
 70
     0
  9
$BLIPMODE
 70
     0
  9
$CHAMFERA
 40
0.0
  9
$CHAMFERB
 40
0.0
  9
$CHAMFERC
 40
673.4006734006732
  9
$CHAMFERD
 40
0.0
  9
$SKPOLY
 70
     0
  9
$TDCREATE
 40
2451687.667247453
  9
$TDUPDATE
 40
2454335.459533136
  9
$TDINDWG
 40
0.1828962731
  9
$TDUSRTIMER
 40
0.1828962731
  9
$USRTIMER
 70
     1
  9
$ANGBASE
 50
0.0
  9
$ANGDIR
 70
     0
  9
$PDMODE
 70
     0
  9
$PDSIZE
 40
0.0
  9
$PLINEWID
 40
0.0
  9
$COORDS
 70
     1
  9
$SPLFRAME
 70
     0
  9
$SPLINETYPE
 70
     6
  9
$SPLINESEGS
 70
     8
  9
$ATTDIA
 70
     0
  9
$ATTREQ
 70
     1
  9
$HANDLING
 70
 22529
  9
$HANDSEED
  5
197B
  9
$SURFTAB1
 70
     6
  9
$SURFTAB2
 70
     6
  9
$SURFTYPE
 70
     6
  9
$SURFU
 70
     6
  9
$SURFV
 70
     6
  9
$UCSNAME
  2

  9
$UCSORG
 10
0.0
 20
0.0
 30
0.0
  9
$UCSXDIR
 10
1.0
 20
0.0
 30
0.0
  9
$UCSYDIR
 10
0.0
 20
1.0
 30
0.0
  9
$PUCSNAME
  2

  9
$PUCSORG
 10
0.0
 20
0.0
 30
0.0
  9
$PUCSXDIR
 10
1.0
 20
0.0
 30
0.0
  9
$PUCSYDIR
 10
0.0
 20
1.0
 30
0.0
  9
$USERI1
 70
     0
  9
$USERI2
 70
     0
  9
$USERI3
 70
     0
  9
$USERI4
 70
     0
  9
$USERI5
 70
     0
  9
$USERR1
 40
0.0
  9
$USERR2
 40
0.0
  9
$USERR3
 40
0.0
  9
$USERR4
 40
0.0
  9
$USERR5
 40
0.0
  9
$WORLDVIEW
 70
     1
  9
$SHADEDGE
 70
     3
  9
$SHADEDIF
 70
    70
  9
$TILEMODE
 70
     0
  9
$MAXACTVP
 70
    16
  9
$PINSBASE
 10
0.0
 20
0.0
 30
0.0
  9
$PLIMCHECK
 70
     0
  9
$PEXTMIN
 10
57.2791760181509
 20
30.15996920238285
 30
0.0
  9
$PEXTMAX
 10
465.8542960606673
 20
353.4420819319948
 30
0.0
  9
$PLIMMIN
 10
51.01362621392472
 20
62.72980220206761
  9
$PLIMMAX
 10
471.1719514092372
 20
359.7616320360519
  9
$UNITMODE
 70
     0
  9
$VISRETAIN
 70
     0
  9
$PLINEGEN
 70
     0
  9
$PSLTSCALE
 70
     1
  9
$TREEDEPTH
 70
  3020
  9
$PICKSTYLE
 70
     1
  9
$CMLSTYLE
  2
STANDARD
  9
$CMLJUST
 70
     0
  9
$CMLSCALE
 40
1.0
  9
$SAVEIMAGES
 70
     1
  0
ENDSEC
  0
SECTION
  2
CLASSES
  0
CLASS
  1
LWPOLYLINE
  2
AcDbPolyline
  3
AutoCAD 2000
 90
    32768
280
     0
281
     1
  0
CLASS
  1
HATCH
  2
AcDbHatch
  3
AutoCAD 2000
 90
    32768
280
     0
281
     1
  0
CLASS
  1
ACDBDICTIONARYWDFLT
  2
AcDbDictionaryWithDefault
  3
AutoCAD 2000
 90
    32768
280
     0
281
     0
  0
CLASS
  1
ACDBPLACEHOLDER
  2
AcDbPlaceHolder
  3
AutoCAD 2000
 90
    32768
280
     0
281
     0
  0
CLASS
  1
LAYOUT
  2
AcDbLayout
  3
AutoCAD 2000
 90
    32768
280
     0
281
     0
  0
CLASS
  1
PLOTSETTINGS
  2
AcDbPlotSettings
  3
AutoCAD 2000
 90
    32768
280
     0
281
     0
  0
CLASS
  1
LONG_TRANSACTION
  2
AcDbLongTransaction
  3
AutoCAD 2000
 90
    32768
280
     0
281
     0
  0
CLASS
  1
LWPOLYLINE
  2
AcDbPolyline
  3
AutoCAD 2000
 90
    32768
280
     0
281
     1
  0
CLASS
  1
HATCH
  2
AcDbHatch
  3
AutoCAD 2000
 90
    32768
280
     0
281
     1
  0
CLASS
  1
XRECORD
  2
AcDbXrecord
  3
AutoCAD 2000
 90
    32768
280
     0
281
     0
  0
CLASS
  1
DICTIONARYVAR
  2
AcDbDictionaryVar
  3
AutoCAD 2000
 90
    32768
280
     0
281
     0
  0
CLASS
  1
LONG_TRANSACTION
  2
AcDbLongTransaction
  3
AutoCAD 2000
 90
    32768
280
     0
281
     0
  0
CLASS
  1
LWPOLYLINE
  2
AcDbPolyline
  3
AutoCAD 2000
 90
    32768
280
     0
281
     1
  0
CLASS
  1
HATCH
  2
AcDbHatch
  3
AutoCAD 2000
 90
    32768
280
     0
281
     1
  0
CLASS
  1
XRECORD
  2
AcDbXrecord
  3
AutoCAD 2000
 90
    32768
280
     0
281
     0
  0
ENDSEC
  0
SECTION
  2
TABLES
  0
TABLE
  2
VPORT
  5
8
330
0
100
AcDbSymbolTable
 70
     6
  0
VPORT
  5
194E
330
8
100
AcDbSymbolTableRecord
100
AcDbViewportTableRecord
  2
*ACTIVE
 70
     0
 10
0.0
 20
0.0
 11
1.0
 21
1.0
 12
364.1629935123832
 22
220.465060159653
 13
0.0
 23
0.0
 14
168.0
 24
168.0
 15
0.0
 25
0.0
 16
0.0
 26
0.0
 36
1.0
 17
0.0
 27
0.0
 37
0.0
 40
646.0833963417369
 41
1.21859296482412
 42
50.0
 43
0.0
 44
0.0
 50
0.0
 51
0.0
 71
     0
 72
   100
 73
     1
 74
     0
 75
     0
 76
     0
 77
     0
 78
     1
  0
ENDTAB
  0
TABLE
  2
LTYPE
  5
5
330
0
100
AcDbSymbolTable
 70
     2
  0
LTYPE
  5
14
330
5
100
AcDbSymbolTableRecord
100
AcDbLinetypeTableRecord
  2
BYBLOCK
 70
     0
  3

 72
    65
 73
     0
 40
0.0
  0
LTYPE
  5
15
330
5
100
AcDbSymbolTableRecord
100
AcDbLinetypeTableRecord
  2
BYLAYER
 70
     0
  3

 72
    65
 73
     0
 40
0.0
  0
LTYPE
  5
16
330
5
100
AcDbSymbolTableRecord
100
AcDbLinetypeTableRecord
  2
CONTINUOUS
 70
     0
  3
Solid line
 72
    65
 73
     0
 40
0.0
  0
LTYPE
  5
6E
330
5
100
AcDbSymbolTableRecord
100
AcDbLinetypeTableRecord
  2
CENTER
 70
     0
  3
____ _ ____ _ ____ _ ____ _ ____ _ ____ _ ____ 
 72
    65
 73
     4
 40
2.0
 49
1.25
 74
     0
 49
-0.25
 74
     0
 49
0.25
 74
     0
 49
-0.25
 74
     0
  0
ENDTAB
  0
TABLE
  2
LAYER
  5
2
330
0
100
AcDbSymbolTable
 70
    15
  0
LAYER
  5
F
330
2
100
AcDbSymbolTableRecord
100
AcDbLayerTableRecord
  2
0
 70
     0
 62
     7
  6
CONTINUOUS
  0
LAYER
  5
71
330
2
100
AcDbSymbolTableRecord
100
AcDbLayerTableRecord
  2
MEASURE
 70
     0
 62
     9
  6
CONTINUOUS
  0
LAYER
  5
72
330
2
100
AcDbSymbolTableRecord
100
AcDbLayerTableRecord
  2
DEFPOINTS
 70
     0
 62
     7
  6
CONTINUOUS
  0
LAYER
  5
74
330
2
100
AcDbSymbolTableRecord
100
AcDbLayerTableRecord
  2
CENTER
 70
     0
 62
     9
  6
CENTER
  0
LAYER
  5
191F
330
2
100
AcDbSymbolTableRecord
100
AcDbLayerTableRecord
  2
1
 70
     0
 62
     7
  6
CONTINUOUS
  0
ENDTAB
  0
TABLE
  2
STYLE
  5
3
330
0
100
AcDbSymbolTable
 70
     4
  0
STYLE
  5
10
330
3
100
AcDbSymbolTableRecord
100
AcDbTextStyleTableRecord
  2
STANDARD
 70
     0
 40
0.0
 41
0.8
 50
0.0
 71
     0
 42
84.17508417508415
  3
TXT
  4
bigfont.shx
  0
STYLE
  5
63
330
3
100
AcDbSymbolTableRecord
100
AcDbTextStyleTableRecord
  2
AD-STANDARD
 70
     0
 40
0.0
 41
0.8
 50
0.0
 71
     0
 42
3.5
  3
C:\Program Files\AutoCAD LT\romans.shx
  4
bigfont.shx
  0
STYLE
  5
257
330
3
100
AcDbSymbolTableRecord
100
AcDbTextStyleTableRecord
  2
ROMAND
 70
     0
 40
5.0
 41
1.0
 50
0.0
 71
     0
 42
4.5
  3
romand
  4

  0
STYLE
  5
258
330
3
100
AcDbSymbolTableRecord
100
AcDbTextStyleTableRecord
  2
FORM
 70
     0
 40
3.5
 41
0.8
 50
0.0
 71
     0
 42
3.5
  3
ROMANS.SHX
  4
BIGFONT.SHX
  0
ENDTAB
  0
TABLE
  2
VIEW
  5
6
330
0
100
AcDbSymbolTable
 70
     0
  0
ENDTAB
  0
TABLE
  2
UCS
  5
7
330
0
100
AcDbSymbolTable
 70
     0
  0
ENDTAB
  0
TABLE
  2
APPID
  5
9
330
0
100
AcDbSymbolTable
 70
     5
  0
APPID
  5
11
330
9
100
AcDbSymbolTableRecord
100
AcDbRegAppTableRecord
  2
ACAD
 70
     0
  0
APPID
  5
22A
330
9
100
AcDbSymbolTableRecord
100
AcDbRegAppTableRecord
  2
CONTENTTABDATA
 70
     0
  0
APPID
  5
22B
330
9
100
AcDbSymbolTableRecord
100
AcDbRegAppTableRecord
  2
CONTENTCURRENTTAB
 70
     0
  0
APPID
  5
232
330
9
100
AcDbSymbolTableRecord
100
AcDbRegAppTableRecord
  2
CONTENTBLOCKDESCRIPTION
 70
     0
  0
APPID
  5
233
330
9
100
AcDbSymbolTableRecord
100
AcDbRegAppTableRecord
  2
CONTENTBLOCKICON
 70
     0
  0
ENDTAB
  0
TABLE
  2
DIMSTYLE
  5
A
330
0
100
AcDbSymbolTable
 70
     2
  0
DIMSTYLE
105
1D
330
A
100
AcDbSymbolTableRecord
100
AcDbDimStyleTableRecord
  2
STANDARD
 70
     0
  3

  4

  5

  6

  7

 40
1.0
 41
0.18
 42
0.0625
 43
0.38
 44
0.18
 45
0.0
 46
0.0
 47
0.0
 48
0.0
140
0.18
141
0.09
142
0.0
143
25.4
144
1.0
145
0.0
146
1.0
147
0.09
 71
     0
 72
     0
 73
     1
 74
     1
 75
     0
 76
     0
 77
     0
 78
     0
170
     0
171
     2
172
     0
173
     0
174
     0
175
     0
176
     0
177
     0
178
     0
270
     2
271
     4
272
     4
273
     2
274
     2
340
10
275
     0
280
     0
281
     0
282
     0
283
     1
284
     0
285
     0
286
     0
287
     3
288
     0
  0
DIMSTYLE
105
68
102
{ACAD_REACTORS
330
1278
330
1285
330
1292
330
129F
330
12AC
330
12B9
330
12C6
330
1320
102
}
330
A
100
AcDbSymbolTableRecord
100
AcDbDimStyleTableRecord
  2
AD-STANDARD
 70
     0
  3

  4

  5

  6

  7

 40
2.0
 41
2.5
 42
1.0
 43
0.38
 44
2.0
 45
0.0
 46
0.0
 47
0.0
 48
0.0
140
3.5
141
-2.0
142
0.0
143
25.4
144
1.0
145
0.0
146
1.0
147
0.5
 71
     0
 72
     0
 73
     0
 74
     0
 75
     0
 76
     0
 77
     1
 78
     8
170
     0
171
     2
172
     1
173
     0
174
     0
175
     0
176
     9
177
     9
178
     2
270
     2
271
     4
272
     4
273
     2
274
     2
340
63
275
     0
280
     0
281
     0
282
     0
283
     1
284
     8
285
     0
286
     0
287
     3
288
     0
  0
ENDTAB
  0
TABLE
  2
BLOCK_RECORD
  5
1
330
0
100
AcDbSymbolTable
 70
    10
  0
BLOCK_RECORD
  5
1A
102
{ACAD_XDICTIONARY
360
16A7
102
}
330
1
100
AcDbSymbolTableRecord
100
AcDbBlockTableRecord
  2
*MODEL_SPACE
  0
BLOCK_RECORD
  5
1652
102
{ACAD_XDICTIONARY
360
16AA
102
}
330
1
100
AcDbSymbolTableRecord
100
AcDbBlockTableRecord
  2
*PAPER_SPACE
  0
BLOCK_RECORD
  5
126C
330
1
100
AcDbSymbolTableRecord
100
AcDbBlockTableRecord
  2
*D1
  0
BLOCK_RECORD
  5
1279
330
1
100
AcDbSymbolTableRecord
100
AcDbBlockTableRecord
  2
*D2
  0
BLOCK_RECORD
  5
1286
330
1
100
AcDbSymbolTableRecord
100
AcDbBlockTableRecord
  2
*D3
  0
BLOCK_RECORD
  5
1293
330
1
100
AcDbSymbolTableRecord
100
AcDbBlockTableRecord
  2
*D4
  0
BLOCK_RECORD
  5
12A0
330
1
100
AcDbSymbolTableRecord
100
AcDbBlockTableRecord
  2
*D5
  0
BLOCK_RECORD
  5
12AD
330
1
100
AcDbSymbolTableRecord
100
AcDbBlockTableRecord
  2
*D6
  0
BLOCK_RECORD
  5
12BA
330
1
100
AcDbSymbolTableRecord
100
AcDbBlockTableRecord
  2
*D7
  0
BLOCK_RECORD
  5
1314
330
1
100
AcDbSymbolTableRecord
100
AcDbBlockTableRecord
  2
*D8
  0
BLOCK_RECORD
  5
196C
330
1
100
AcDbSymbolTableRecord
100
AcDbBlockTableRecord
  2
*U9
  0
ENDTAB
  0
ENDSEC
  0
SECTION
  2
BLOCKS
  0
BLOCK
  5
1B
330
1A
100
AcDbEntity
  8
0
100
AcDbBlockBegin
  2
*MODEL_SPACE
 70
     0
 10
0.0
 20
0.0
 30
0.0
  3
*MODEL_SPACE
  1

  0
ENDBLK
  5
1C
330
1A
100
AcDbEntity
  8
0
100
AcDbBlockEnd
  0
BLOCK
  5
1654
330
1652
100
AcDbEntity
 67
     1
  8
0
100
AcDbBlockBegin
  2
*PAPER_SPACE
 70
     0
 10
0.0
 20
0.0
 30
0.0
  3
*PAPER_SPACE
  1

  0
ENDBLK
  5
1655
330
1652
100
AcDbEntity
 67
     1
  8
0
100
AcDbBlockEnd
  0
BLOCK
  5
13BB
330
126C
100
AcDbEntity
  8
0
100
AcDbBlockBegin
  2
*D1
 70
     1
 10
0.0
 20
0.0
 30
0.0
  3
*D1
  1

  0
LINE
  5
1903
330
126C
100
AcDbEntity
  8
MEASURE
 62
     9
100
AcDbLine
 10
390.8292409864807
 20
335.8413328476942
 30
0.0
 11
438.8292409864799
 21
335.8413328476942
 31
0.0
  0
LINE
  5
1904
330
126C
100
AcDbEntity
  8
MEASURE
 62
     9
100
AcDbLine
 10
390.8292409864807
 20
195.8413328476945
 30
0.0
 11
438.8292409864799
 21
195.8413328476945
 31
0.0
  0
LINE
  5
1905
330
126C
100
AcDbEntity
  8
MEASURE
 62
     9
100
AcDbLine
 10
434.8292409864799
 20
330.8413328476942
 30
0.0
 11
434.8292409864799
 21
200.8413328476945
 31
0.0
  0
SOLID
  5
1906
330
126C
100
AcDbEntity
  8
MEASURE
 62
     9
100
AcDbTrace
 10
433.9959076531465
 20
330.8413328476942
 30
0.0
 11
435.6625743198132
 21
330.8413328476942
 31
0.0
 12
434.8292409864799
 22
335.8413328476942
 32
0.0
 13
434.8292409864799
 23
335.8413328476942
 33
0.0
  0
SOLID
  5
1907
330
126C
100
AcDbEntity
  8
MEASURE
 62
     9
100
AcDbTrace
 10
433.9959076531465
 20
200.8413328476945
 30
0.0
 11
435.6625743198132
 21
200.8413328476945
 31
0.0
 12
434.8292409864799
 22
195.8413328476945
 32
0.0
 13
434.8292409864799
 23
195.8413328476945
 33
0.0
  0
MTEXT
  5
1908
330
126C
100
AcDbEntity
  8
MEASURE
 62
     2
100
AcDbMText
 10
430.3292409864798
 20
265.8413328476945
 30
0.0
 40
7.0
 41
0.0
 71
     5
 72
     1
  1
\A1;140
  7
AD-STANDARD
 11
0.0000000000000001
 21
1.0
 31
0.0
1001
ACAD
1000
MTEXTBEGIN
1070
    73
1070
     1
1070
    44
1040
1.0
1070
    74
1070
     0
1000
MTEXTEND
  0
POINT
  5
1909
330
126C
100
AcDbEntity
  8
DEFPOINTS
 62
     0
100
AcDbPoint
 10
388.8292409864807
 20
335.8413328476942
 30
0.0
  0
POINT
  5
190A
330
126C
100
AcDbEntity
  8
DEFPOINTS
 62
     0
100
AcDbPoint
 10
388.8292409864807
 20
195.8413328476945
 30
0.0
  0
POINT
  5
190B
330
126C
100
AcDbEntity
  8
DEFPOINTS
 62
     0
100
AcDbPoint
 10
434.8292409864799
 20
195.8413328476945
 30
0.0
  0
ENDBLK
  5
13C5
330
126C
100
AcDbEntity
  8
0
100
AcDbBlockEnd
  0
BLOCK
  5
139A
330
1279
100
AcDbEntity
  8
0
100
AcDbBlockBegin
  2
*D2
 70
     1
 10
0.0
 20
0.0
 30
0.0
  3
*D2
  1

  0
LINE
  5
1915
330
1279
100
AcDbEntity
  8
MEASURE
 62
     9
100
AcDbLine
 10
394.3195313243254
 20
265.8413328476946
 30
0.0
 11
426.8292409864799
 21
265.8413328476946
 31
0.0
  0
LINE
  5
1916
330
1279
100
AcDbEntity
  8
MEASURE
 62
     9
100
AcDbLine
 10
390.8292409864807
 20
195.8413328476945
 30
0.0
 11
426.8292409864799
 21
195.8413328476945
 31
0.0
  0
LINE
  5
1917
330
1279
100
AcDbEntity
  8
MEASURE
 62
     9
100
AcDbLine
 10
422.8292409864799
 20
260.8413328476946
 30
0.0
 11
422.8292409864799
 21
200.8413328476945
 31
0.0
  0
SOLID
  5
1918
330
1279
100
AcDbEntity
  8
MEASURE
 62
     9
100
AcDbTrace
 10
421.9959076531465
 20
260.8413328476946
 30
0.0
 11
423.6625743198132
 21
260.8413328476946
 31
0.0
 12
422.8292409864799
 22
265.8413328476946
 32
0.0
 13
422.8292409864799
 23
265.8413328476946
 33
0.0
  0
SOLID
  5
1919
330
1279
100
AcDbEntity
  8
MEASURE
 62
     9
100
AcDbTrace
 10
421.9959076531465
 20
200.8413328476945
 30
0.0
 11
423.6625743198132
 21
200.8413328476945
 31
0.0
 12
422.8292409864799
 22
195.8413328476945
 32
0.0
 13
422.8292409864799
 23
195.8413328476945
 33
0.0
  0
MTEXT
  5
191A
330
1279
100
AcDbEntity
  8
MEASURE
 62
     2
100
AcDbMText
 10
418.3292409864798
 20
230.8413328476946
 30
0.0
 40
7.0
 41
0.0
 71
     5
 72
     1
  1
\A1;70
  7
AD-STANDARD
 11
0.0000000000000001
 21
1.0
 31
0.0
1001
ACAD
1000
MTEXTBEGIN
1070
    73
1070
     1
1070
    44
1040
1.0
1070
    74
1070
     0
1000
MTEXTEND
  0
POINT
  5
191B
330
1279
100
AcDbEntity
  8
DEFPOINTS
 62
     0
100
AcDbPoint
 10
392.3195313243254
 20
265.8413328476946
 30
0.0
  0
POINT
  5
191C
330
1279
100
AcDbEntity
  8
DEFPOINTS
 62
     0
100
AcDbPoint
 10
388.8292409864807
 20
195.8413328476945
 30
0.0
  0
POINT
  5
191D
330
1279
100
AcDbEntity
  8
DEFPOINTS
 62
     0
100
AcDbPoint
 10
422.8292409864799
 20
195.8413328476945
 30
0.0
  0
ENDBLK
  5
13A4
330
1279
100
AcDbEntity
  8
0
100
AcDbBlockEnd
  0
BLOCK
  5
13A5
330
1286
100
AcDbEntity
  8
0
100
AcDbBlockBegin
  2
*D3
 70
     1
 10
0.0
 20
0.0
 30
0.0
  3
*D3
  1

  0
LINE
  5
190C
330
1286
100
AcDbEntity
  8
MEASURE
 62
     9
100
AcDbLine
 10
400.82924098648
 20
265.8413328476946
 30
0.0
 11
426.8292409864799
 21
265.8413328476946
 31
0.0
  0
LINE
  5
190D
330
1286
100
AcDbEntity
  8
MEASURE
 62
     9
100
AcDbLine
 10
390.8292409864807
 20
335.8413328476942
 30
0.0
 11
426.8292409864799
 21
335.8413328476942
 31
0.0
  0
LINE
  5
190E
330
1286
100
AcDbEntity
  8
MEASURE
 62
     9
100
AcDbLine
 10
422.8292409864799
 20
270.8413328476946
 30
0.0
 11
422.8292409864799
 21
330.8413328476942
 31
0.0
  0
SOLID
  5
190F
330
1286
100
AcDbEntity
  8
MEASURE
 62
     9
100
AcDbTrace
 10
421.9959076531465
 20
270.8413328476946
 30
0.0
 11
423.6625743198132
 21
270.8413328476946
 31
0.0
 12
422.8292409864799
 22
265.8413328476946
 32
0.0
 13
422.8292409864799
 23
265.8413328476946
 33
0.0
  0
SOLID
  5
1910
330
1286
100
AcDbEntity
  8
MEASURE
 62
     9
100
AcDbTrace
 10
421.9959076531465
 20
330.8413328476942
 30
0.0
 11
423.6625743198132
 21
330.8413328476942
 31
0.0
 12
422.8292409864799
 22
335.8413328476942
 32
0.0
 13
422.8292409864799
 23
335.8413328476942
 33
0.0
  0
MTEXT
  5
1911
330
1286
100
AcDbEntity
  8
MEASURE
 62
     2
100
AcDbMText
 10
418.3292409864798
 20
300.8413328476945
 30
0.0
 40
7.0
 41
0.0
 71
     5
 72
     1
  1
\A1;70
  7
AD-STANDARD
 11
0.0000000000000001
 21
1.0
 31
0.0
1001
ACAD
1000
MTEXTBEGIN
1070
    73
1070
     1
1070
    44
1040
1.0
1070
    74
1070
     0
1000
MTEXTEND
  0
POINT
  5
1912
330
1286
100
AcDbEntity
  8
DEFPOINTS
 62
     0
100
AcDbPoint
 10
398.82924098648
 20
265.8413328476946
 30
0.0
  0
POINT
  5
1913
330
1286
100
AcDbEntity
  8
DEFPOINTS
 62
     0
100
AcDbPoint
 10
388.8292409864807
 20
335.8413328476942
 30
0.0
  0
POINT
  5
1914
330
1286
100
AcDbEntity
  8
DEFPOINTS
 62
     0
100
AcDbPoint
 10
422.8292409864799
 20
335.8413328476942
 30
0.0
  0
ENDBLK
  5
13AF
330
1286
100
AcDbEntity
  8
0
100
AcDbBlockEnd
  0
BLOCK
  5
13E7
330
1293
100
AcDbEntity
  8
0
100
AcDbBlockBegin
  2
*D4
 70
     1
 10
0.0
 20
0.0
 30
0.0
  3
*D4
  1

  0
LINE
  5
18FA
330
1293
100
AcDbEntity
  8
MEASURE
 62
     9
100
AcDbLine
 10
355.8292409864802
 20
304.3316231855397
 30
0.0
 11
355.8292409864802
 21
363.8413328476945
 31
0.0
  0
LINE
  5
18FB
330
1293
100
AcDbEntity
  8
MEASURE
 62
     9
100
AcDbLine
 10
398.82924098648
 20
327.8413328476943
 30
0.0
 11
398.82924098648
 21
363.8413328476945
 31
0.0
  0
LINE
  5
18FC
330
1293
100
AcDbEntity
  8
MEASURE
 62
     9
100
AcDbLine
 10
360.8292409864802
 20
359.8413328476945
 30
0.0
 11
393.82924098648
 21
359.8413328476945
 31
0.0
  0
SOLID
  5
18FD
330
1293
100
AcDbEntity
  8
MEASURE
 62
     9
100
AcDbTrace
 10
360.8292409864802
 20
360.6746661810278
 30
0.0
 11
360.8292409864802
 21
359.0079995143611
 31
0.0
 12
355.8292409864802
 22
359.8413328476945
 32
0.0
 13
355.8292409864802
 23
359.8413328476945
 33
0.0
  0
SOLID
  5
18FE
330
1293
100
AcDbEntity
  8
MEASURE
 62
     9
100
AcDbTrace
 10
393.82924098648
 20
360.6746661810278
 30
0.0
 11
393.82924098648
 21
359.0079995143611
 31
0.0
 12
398.82924098648
 22
359.8413328476945
 32
0.0
 13
398.82924098648
 23
359.8413328476945
 33
0.0
  0
MTEXT
  5
18FF
330
1293
100
AcDbEntity
  8
MEASURE
 62
     2
100
AcDbMText
 10
377.3292409864801
 20
364.3413328476944
 30
0.0
 40
7.0
 41
0.0
 71
     5
 72
     1
  1
\A1;43
  7
AD-STANDARD
1001
ACAD
1000
MTEXTBEGIN
1070
    73
1070
     1
1070
    44
1040
1.0
1070
    74
1070
     0
1000
MTEXTEND
  0
POINT
  5
1900
330
1293
100
AcDbEntity
  8
DEFPOINTS
 62
     0
100
AcDbPoint
 10
355.8292409864802
 20
302.3316231855397
 30
0.0
  0
POINT
  5
1901
330
1293
100
AcDbEntity
  8
DEFPOINTS
 62
     0
100
AcDbPoint
 10
398.82924098648
 20
325.8413328476943
 30
0.0
  0
POINT
  5
1902
330
1293
100
AcDbEntity
  8
DEFPOINTS
 62
     0
100
AcDbPoint
 10
398.82924098648
 20
359.8413328476945
 30
0.0
  0
ENDBLK
  5
13F1
330
1293
100
AcDbEntity
  8
0
100
AcDbBlockEnd
  0
BLOCK
  5
13DC
330
12A0
100
AcDbEntity
  8
0
100
AcDbBlockBegin
  2
*D5
 70
     1
 10
0.0
 20
0.0
 30
0.0
  3
*D5
  1

  0
LINE
  5
18DF
330
12A0
100
AcDbEntity
  8
MEASURE
 62
     9
100
AcDbLine
 10
355.8292409864802
 20
304.3316231855397
 30
0.0
 11
355.8292409864802
 21
363.8413328476945
 31
0.0
  0
LINE
  5
18E0
330
12A0
100
AcDbEntity
  8
MEASURE
 62
     9
100
AcDbLine
 10
248.82924098648
 20
267.8413328476945
 30
0.0
 11
248.82924098648
 21
363.8413328476945
 31
0.0
  0
LINE
  5
18E1
330
12A0
100
AcDbEntity
  8
MEASURE
 62
     9
100
AcDbLine
 10
350.8292409864802
 20
359.8413328476945
 30
0.0
 11
253.82924098648
 21
359.8413328476945
 31
0.0
  0
SOLID
  5
18E2
330
12A0
100
AcDbEntity
  8
MEASURE
 62
     9
100
AcDbTrace
 10
350.8292409864802
 20
360.6746661810278
 30
0.0
 11
350.8292409864802
 21
359.0079995143611
 31
0.0
 12
355.8292409864802
 22
359.8413328476945
 32
0.0
 13
355.8292409864802
 23
359.8413328476945
 33
0.0
  0
SOLID
  5
18E3
330
12A0
100
AcDbEntity
  8
MEASURE
 62
     9
100
AcDbTrace
 10
253.82924098648
 20
360.6746661810278
 30
0.0
 11
253.82924098648
 21
359.0079995143611
 31
0.0
 12
248.82924098648
 22
359.8413328476945
 32
0.0
 13
248.82924098648
 23
359.8413328476945
 33
0.0
  0
MTEXT
  5
18E4
330
12A0
100
AcDbEntity
  8
MEASURE
 62
     2
100
AcDbMText
 10
302.3292409864801
 20
364.3413328476944
 30
0.0
 40
7.0
 41
0.0
 71
     5
 72
     1
  1
\A1;107
  7
AD-STANDARD
1001
ACAD
1000
MTEXTBEGIN
1070
    73
1070
     1
1070
    44
1040
1.0
1070
    74
1070
     0
1000
MTEXTEND
  0
POINT
  5
18E5
330
12A0
100
AcDbEntity
  8
DEFPOINTS
 62
     0
100
AcDbPoint
 10
355.8292409864802
 20
302.3316231855397
 30
0.0
  0
POINT
  5
18E6
330
12A0
100
AcDbEntity
  8
DEFPOINTS
 62
     0
100
AcDbPoint
 10
248.82924098648
 20
265.8413328476945
 30
0.0
  0
POINT
  5
18E7
330
12A0
100
AcDbEntity
  8
DEFPOINTS
 62
     0
100
AcDbPoint
 10
248.82924098648
 20
359.8413328476945
 30
0.0
  0
ENDBLK
  5
13E6
330
12A0
100
AcDbEntity
  8
0
100
AcDbBlockEnd
  0
BLOCK
  5
13FE
330
12AD
100
AcDbEntity
  8
0
100
AcDbBlockBegin
  2
*D6
 70
     1
 10
0.0
 20
0.0
 30
0.0
  3
*D6
  1

  0
LINE
  5
18D6
330
12AD
100
AcDbEntity
  8
MEASURE
 62
     9
100
AcDbLine
 10
398.82924098648
 20
327.8413328476943
 30
0.0
 11
398.82924098648
 21
375.8413328476945
 31
0.0
  0
LINE
  5
18D7
330
12AD
100
AcDbEntity
  8
MEASURE
 62
     9
100
AcDbLine
 10
248.82924098648
 20
267.8413328476945
 30
0.0
 11
248.82924098648
 21
375.8413328476945
 31
0.0
  0
LINE
  5
18D8
330
12AD
100
AcDbEntity
  8
MEASURE
 62
     9
100
AcDbLine
 10
393.82924098648
 20
371.8413328476945
 30
0.0
 11
253.82924098648
 21
371.8413328476945
 31
0.0
  0
SOLID
  5
18D9
330
12AD
100
AcDbEntity
  8
MEASURE
 62
     9
100
AcDbTrace
 10
393.82924098648
 20
372.6746661810278
 30
0.0
 11
393.82924098648
 21
371.0079995143611
 31
0.0
 12
398.82924098648
 22
371.8413328476945
 32
0.0
 13
398.82924098648
 23
371.8413328476945
 33
0.0
  0
SOLID
  5
18DA
330
12AD
100
AcDbEntity
  8
MEASURE
 62
     9
100
AcDbTrace
 10
253.82924098648
 20
372.6746661810278
 30
0.0
 11
253.82924098648
 21
371.0079995143611
 31
0.0
 12
248.82924098648
 22
371.8413328476945
 32
0.0
 13
248.82924098648
 23
371.8413328476945
 33
0.0
  0
MTEXT
  5
18DB
330
12AD
100
AcDbEntity
  8
MEASURE
 62
     2
100
AcDbMText
 10
323.82924098648
 20
376.3413328476945
 30
0.0
 40
7.0
 41
0.0
 71
     5
 72
     1
  1
\A1;150
  7
AD-STANDARD
1001
ACAD
1000
MTEXTBEGIN
1070
    73
1070
     1
1070
    44
1040
1.0
1070
    74
1070
     0
1000
MTEXTEND
  0
POINT
  5
18DC
330
12AD
100
AcDbEntity
  8
DEFPOINTS
 62
     0
100
AcDbPoint
 10
398.82924098648
 20
325.8413328476943
 30
0.0
  0
POINT
  5
18DD
330
12AD
100
AcDbEntity
  8
DEFPOINTS
 62
     0
100
AcDbPoint
 10
248.82924098648
 20
265.8413328476945
 30
0.0
  0
POINT
  5
18DE
330
12AD
100
AcDbEntity
  8
DEFPOINTS
 62
     0
100
AcDbPoint
 10
248.82924098648
 20
371.8413328476945
 30
0.0
  0
ENDBLK
  5
1408
330
12AD
100
AcDbEntity
  8
0
100
AcDbBlockEnd
  0
BLOCK
  5
1415
330
12BA
100
AcDbEntity
  8
0
100
AcDbBlockBegin
  2
*D7
 70
     1
 10
0.0
 20
0.0
 30
0.0
  3
*D7
  1

  0
LINE
  5
18E8
330
12BA
100
AcDbEntity
  8
MEASURE
 62
     9
100
AcDbLine
 10
93.82924098648032
 20
128.3919232347451
 30
0.0
 11
93.82924098648032
 21
154.3919232347451
 31
0.0
  0
LINE
  5
18E9
330
12BA
100
AcDbEntity
  8
MEASURE
 62
     9
100
AcDbLine
 10
163.8292409864801
 20
128.3919232347451
 30
0.0
 11
163.8292409864801
 21
154.3919232347451
 31
0.0
  0
LINE
  5
18EA
330
12BA
100
AcDbEntity
  8
MEASURE
 62
     9
100
AcDbLine
 10
98.82924098648032
 20
150.3919232347451
 30
0.0
 11
158.8292409864801
 21
150.3919232347451
 31
0.0
  0
SOLID
  5
18EB
330
12BA
100
AcDbEntity
  8
MEASURE
 62
     9
100
AcDbTrace
 10
98.82924098648032
 20
151.2252565680785
 30
0.0
 11
98.82924098648032
 21
149.5585899014118
 31
0.0
 12
93.82924098648032
 22
150.3919232347451
 32
0.0
 13
93.82924098648032
 23
150.3919232347451
 33
0.0
  0
SOLID
  5
18EC
330
12BA
100
AcDbEntity
  8
MEASURE
 62
     9
100
AcDbTrace
 10
158.8292409864801
 20
151.2252565680785
 30
0.0
 11
158.8292409864801
 21
149.5585899014118
 31
0.0
 12
163.8292409864801
 22
150.3919232347451
 32
0.0
 13
163.8292409864801
 23
150.3919232347451
 33
0.0
  0
MTEXT
  5
18ED
330
12BA
100
AcDbEntity
  8
MEASURE
 62
     2
100
AcDbMText
 10
128.8292409864802
 20
154.8919232347451
 30
0.0
 40
7.0
 41
0.0
 71
     5
 72
     1
  1
\A1;%%C70
  7
AD-STANDARD
1001
ACAD
1000
MTEXTBEGIN
1070
    73
1070
     1
1070
    44
1040
1.0
1070
    74
1070
     0
1000
MTEXTEND
  0
POINT
  5
18EE
330
12BA
100
AcDbEntity
  8
DEFPOINTS
 62
     0
100
AcDbPoint
 10
93.82924098648032
 20
126.3919232347451
 30
0.0
  0
POINT
  5
18EF
330
12BA
100
AcDbEntity
  8
DEFPOINTS
 62
     0
100
AcDbPoint
 10
163.8292409864801
 20
126.3919232347451
 30
0.0
  0
POINT
  5
18F0
330
12BA
100
AcDbEntity
  8
DEFPOINTS
 62
     0
100
AcDbPoint
 10
163.8292409864801
 20
150.3919232347451
 30
0.0
  0
ENDBLK
  5
141F
330
12BA
100
AcDbEntity
  8
0
100
AcDbBlockEnd
  0
BLOCK
  5
142B
330
1314
100
AcDbEntity
  8
0
100
AcDbBlockBegin
  2
*D8
 70
     1
 10
0.0
 20
0.0
 30
0.0
  3
*D8
  1

  0
LINE
  5
18F1
330
1314
100
AcDbEntity
  8
MEASURE
 62
     9
100
AcDbLine
 10
91.8292409864801
 20
126.3919232347451
 30
0.0
 11
30.82924098648017
 21
126.3919232347451
 31
0.0
  0
LINE
  5
18F2
330
1314
100
AcDbEntity
  8
MEASURE
 62
     9
100
AcDbLine
 10
74.82924098648118
 20
71.59537437559933
 30
0.0
 11
30.82924098648016
 21
71.59537437559935
 31
0.0
  0
LINE
  5
18F3
330
1314
100
AcDbEntity
  8
MEASURE
 62
     9
100
AcDbLine
 10
34.82924098648017
 20
121.3919232347451
 30
0.0
 11
34.82924098648016
 21
76.59537437559933
 31
0.0
  0
SOLID
  5
18F4
330
1314
100
AcDbEntity
  8
MEASURE
 62
     9
100
AcDbTrace
 10
33.99590765314683
 20
121.3919232347451
 30
0.0
 11
35.6625743198135
 21
121.3919232347451
 31
0.0
 12
34.82924098648017
 22
126.3919232347451
 32
0.0
 13
34.82924098648017
 23
126.3919232347451
 33
0.0
  0
SOLID
  5
18F5
330
1314
100
AcDbEntity
  8
MEASURE
 62
     9
100
AcDbTrace
 10
33.99590765314682
 20
76.59537437559933
 30
0.0
 11
35.66257431981349
 21
76.59537437559933
 31
0.0
 12
34.82924098648016
 22
71.59537437559933
 32
0.0
 13
34.82924098648016
 23
71.59537437559933
 33
0.0
  0
MTEXT
  5
18F6
330
1314
100
AcDbEntity
  8
MEASURE
 62
     2
100
AcDbMText
 10
30.32924098648015
 20
98.99364880517225
 30
0.0
 40
7.0
 41
0.0
 71
     5
 72
     1
  1
\A1;55
  7
AD-STANDARD
 11
0.0000000000000001
 21
1.0
 31
0.0
1001
ACAD
1000
MTEXTBEGIN
1070
    73
1070
     1
1070
    44
1040
1.0
1070
    74
1070
     0
1000
MTEXTEND
  0
POINT
  5
18F7
330
1314
100
AcDbEntity
  8
DEFPOINTS
 62
     0
100
AcDbPoint
 10
93.82924098648009
 20
126.3919232347451
 30
0.0
  0
POINT
  5
18F8
330
1314
100
AcDbEntity
  8
DEFPOINTS
 62
     0
100
AcDbPoint
 10
76.82924098648118
 20
71.59537437559933
 30
0.0
  0
POINT
  5
18F9
330
1314
100
AcDbEntity
  8
DEFPOINTS
 62
     0
100
AcDbPoint
 10
34.82924098648016
 20
71.59537437559933
 30
0.0
  0
ENDBLK
  5
1435
330
1314
100
AcDbEntity
  8
0
100
AcDbBlockEnd
  0
BLOCK
  5
1973
330
196C
100
AcDbEntity
  8
0
100
AcDbBlockBegin
  2
*U9
 70
     1
 10
0.0
 20
0.0
 30
0.0
  3
*U9
  1

  0
SOLID
  5
196D
330
196C
100
AcDbEntity
  8
1
  6
CONTINUOUS
 62
     8
100
AcDbTrace
 10
546.8292409864802
 20
104.195356075599
 30
0.0
 11
546.8292409864802
 21
105.195356075599
 31
0.0
 12
546.475687595887
 22
104.3418026850057
 32
0.0
 13
546.475687595887
 23
104.3418026850057
 33
0.0
210
0.0
220
0.0
230
1.0
  0
SOLID
  5
196E
330
196C
100
AcDbEntity
  8
1
  6
CONTINUOUS
 62
     8
100
AcDbTrace
 10
546.475687595887
 20
105.0489094661922
 30
0.0
 11
546.475687595887
 21
104.3418026850057
 31
0.0
 12
546.8292409864802
 22
105.195356075599
 32
0.0
 13
546.8292409864802
 23
105.195356075599
 33
0.0
210
0.0
220
0.0
230
1.0
  0
SOLID
  5
196F
330
196C
100
AcDbEntity
  8
1
  6
CONTINUOUS
 62
     8
100
AcDbTrace
 10
546.475687595887
 20
104.3418026850057
 30
0.0
 11
546.475687595887
 21
105.0489094661922
 31
0.0
 12
546.3292409864802
 22
104.695356075599
 32
0.0
 13
546.3292409864802
 23
104.695356075599
 33
0.0
210
0.0
220
0.0
230
1.0
  0
SOLID
  5
1970
330
196C
100
AcDbEntity
  8
1
  6
CONTINUOUS
 62
     8
100
AcDbTrace
 10
546.8292409864802
 20
105.195356075599
 30
0.0
 11
546.8292409864802
 21
104.195356075599
 31
0.0
 12
547.1827943770734
 22
105.0489094661922
 32
0.0
 13
547.1827943770734
 23
105.0489094661922
 33
0.0
210
0.0
220
0.0
230
1.0
  0
SOLID
  5
1971
330
196C
100
AcDbEntity
  8
1
  6
CONTINUOUS
 62
     8
100
AcDbTrace
 10
547.1827943770734
 20
104.3418026850057
 30
0.0
 11
547.1827943770734
 21
105.0489094661922
 31
0.0
 12
546.8292409864802
 22
104.195356075599
 32
0.0
 13
546.8292409864802
 23
104.195356075599
 33
0.0
210
0.0
220
0.0
230
1.0
  0
SOLID
  5
1972
330
196C
100
AcDbEntity
  8
1
  6
CONTINUOUS
 62
     8
100
AcDbTrace
 10
547.1827943770734
 20
105.0489094661922
 30
0.0
 11
547.1827943770734
 21
104.3418026850057
 31
0.0
 12
547.3292409864803
 22
104.695356075599
 32
0.0
 13
547.3292409864803
 23
104.695356075599
 33
0.0
210
0.0
220
0.0
230
1.0
  0
ENDBLK
  5
1974
330
196C
100
AcDbEntity
  8
0
100
AcDbBlockEnd
  0
ENDSEC
  0
SECTION
  2
ENTITIES
  0
LINE
  5
E60
330
1A
100
AcDbEntity
  8
1
 62
     8
100
AcDbLine
 10
188.82924098648
 20
116.9969882899919
 30
0.0
 11
68.82924098647913
 21
116.9969882899919
 31
0.0
  0
LINE
  5
E61
330
1A
100
AcDbEntity
  8
1
 62
     8
100
AcDbLine
 10
188.82924098648
 20
116.9534104186181
 30
0.0
 11
68.82924098647936
 21
116.9534104186181
 31
0.0
  0
LINE
  5
E62
330
1A
100
AcDbEntity
  8
1
 62
     8
100
AcDbLine
 10
188.8292409864804
 20
114.905250464048
 30
0.0
 11
68.82924098647936
 21
114.905250464048
 31
0.0
  0
LINE
  5
E63
330
1A
100
AcDbEntity
  8
1
 62
     8
100
AcDbLine
 10
188.82924098648
 20
114.9488283354219
 30
0.0
 11
68.82924098647936
 21
114.9488283354219
 31
0.0
  0
LINE
  5
E64
330
1A
100
AcDbEntity
  8
1
 62
     8
100
AcDbLine
 10
126.8292409864801
 20
115.3584603263359
 30
0.0
 11
86.82924098648072
 21
115.3584603263359
 31
0.0
  0
LINE
  5
E65
330
1A
100
AcDbEntity
  8
1
 62
     8
100
AcDbLine
 10
126.82924098648
 20
116.543778427704
 30
0.0
 11
86.82924098648085
 21
116.543778427704
 31
0.0
  0
LINE
  5
E66
330
1A
100
AcDbEntity
  8
1
 62
     8
100
AcDbLine
 10
188.629240986479
 20
117.6768030834236
 30
0.0
 11
69.02924098648146
 21
117.6768030834236
 31
0.0
  0
LINE
  5
E67
330
1A
100
AcDbEntity
  8
1
 62
     8
100
AcDbLine
 10
68.82924098647936
 20
116.9969882899919
 30
0.0
 11
68.82924098647936
 21
116.9534104186181
 31
0.0
  0
LINE
  5
E68
330
1A
100
AcDbEntity
  8
1
 62
     8
100
AcDbLine
 10
68.82924098647936
 20
114.9488283354219
 30
0.0
 11
68.82924098647936
 21
114.905250464048
 31
0.0
  0
LINE
  5
E69
330
1A
100
AcDbEntity
  8
1
 62
     8
100
AcDbLine
 10
85.82924098648049
 20
116.4566226849565
 30
0.0
 11
85.82924098648049
 21
115.4456160690835
 31
0.0
  0
ELLIPSE
  5
E6A
330
1A
100
AcDbEntity
  8
1
 62
     8
100
AcDbEllipse
 10
86.82924098648067
 20
116.4566226849564
 30
0.0
 11
1.000000000000113
 21
0.0
 31
0.0
210
0.0
220
0.0
230
-1.0
 40
0.0871557427476163
 41
3.141592653589792
 42
4.712388980384688
  0
ELLIPSE
  5
E6B
330
1A
100
AcDbEntity
  8
1
 62
     8
100
AcDbEllipse
 10
86.82924098648067
 20
115.4456160690835
 30
0.0
 11
1.000000000000113
 21
0.0
 31
0.0
210
0.0
220
0.0
230
-1.0
 40
0.0871557427476163
 41
1.570796326794896
 42
3.141592653589792
  0
LINE
  5
E6C
330
1A
100
AcDbEntity
  8
1
 62
     8
100
AcDbLine
 10
67.02924098648009
 20
117.5024915979284
 30
0.0
 11
67.02924098648009
 21
114.8508699222235
 31
0.0
  0
ELLIPSE
  5
E6D
330
1A
100
AcDbEntity
  8
1
 62
     8
100
AcDbEllipse
 10
69.02924098648089
 20
117.5024915979283
 30
0.0
 11
1.999999999999999
 21
0.0
 31
0.0
210
0.0
220
0.0
230
-1.0
 40
0.0871557427476546
 41
3.141592653589792
 42
4.712388980384688
  0
LINE
  5
E6E
330
1A
100
AcDbEntity
  8
1
 62
     8
100
AcDbLine
 10
136.8292409864811
 20
116.3433202193845
 30
0.0
 11
136.8292409864809
 21
115.5589185346555
 31
0.0
  0
LINE
  5
E6F
330
1A
100
AcDbEntity
  8
1
 62
     8
100
AcDbLine
 10
149.3292409864805
 20
115.4281849205339
 30
0.0
 11
138.3292409864808
 21
115.428184920534
 31
0.0
  0
LINE
  5
E70
330
1A
100
AcDbEntity
  8
1
 62
     8
100
AcDbLine
 10
149.3292409864805
 20
115.4717627919079
 30
0.0
 11
138.3292409864808
 21
115.4717627919078
 31
0.0
  0
LINE
  5
E71
330
1A
100
AcDbEntity
  8
1
 62
     8
100
AcDbLine
 10
137.3292409864811
 20
116.3433202193844
 30
0.0
 11
137.3292409864811
 21
115.5589185346555
 31
0.0
  0
LINE
  5
E72
330
1A
100
AcDbEntity
  8
1
 62
     8
100
AcDbLine
 10
149.32924098648
 20
116.474053833506
 30
0.0
 11
138.3292409864812
 21
116.4740538335059
 31
0.0
  0
LINE
  5
E73
330
1A
100
AcDbEntity
  8
1
 62
     8
100
AcDbLine
 10
149.32924098648
 20
116.430475962132
 30
0.0
 11
138.3292409864812
 21
116.430475962132
 31
0.0
  0
LINE
  5
E74
330
1A
100
AcDbEntity
  8
1
 62
     8
100
AcDbLine
 10
150.82924098648
 20
116.3433202193844
 30
0.0
 11
150.82924098648
 21
115.5589185346555
 31
0.0
  0
LINE
  5
E75
330
1A
100
AcDbEntity
  8
1
 62
     8
100
AcDbLine
 10
150.3292409864802
 20
116.3433202193844
 30
0.0
 11
150.3292409864805
 21
115.5589185346555
 31
0.0
  0
ELLIPSE
  5
E76
330
1A
100
AcDbEntity
  8
1
 62
     8
100
AcDbEllipse
 10
149.3292409864804
 20
115.5589185346555
 30
0.0
 11
1.0
 21
0.0
 31
0.0
210
0.0
220
0.0
230
1.0
 40
0.0871557427476262
 41
4.712388980384688
 42
6.283185307179585
  0
ELLIPSE
  5
E77
330
1A
100
AcDbEntity
  8
1
 62
     8
100
AcDbEllipse
 10
149.3292409864803
 20
116.3433202193844
 30
0.0
 11
1.0
 21
0.0
 31
0.0
210
0.0
220
0.0
230
1.0
 40
0.0871557427476262
 41
0.0
 42
1.570796326794896
  0
ELLIPSE
  5
E78
330
1A
100
AcDbEntity
  8
1
 62
     8
100
AcDbEllipse
 10
138.3292409864808
 20
115.5589185346555
 30
0.0
 11
-1.0
 21
0.0
 31
0.0
210
0.0
220
0.0
230
-1.0
 40
0.0871557427476262
 41
4.712388980384688
 42
6.283185307179585
  0
ELLIPSE
  5
E79
330
1A
100
AcDbEntity
  8
1
 62
     8
100
AcDbEllipse
 10
138.329240986481
 20
116.3433202193844
 30
0.0
 11
-1.0
 21
0.0
 31
0.0
210
0.0
220
0.0
230
-1.0
 40
0.0871557427476262
 41
0.0
 42
1.570796326794896
  0
ELLIPSE
  5
E7A
330
1A
100
AcDbEntity
  8
1
 62
     8
100
AcDbEllipse
 10
149.3292409864803
 20
116.3433202193844
 30
0.0
 11
1.499999999999658
 21
0.0
 31
0.0
210
0.0
220
0.0
230
1.0
 40
0.0871557427477123
 41
0.0
 42
1.570796326794896
  0
ELLIPSE
  5
E7B
330
1A
100
AcDbEntity
  8
1
 62
     8
100
AcDbEllipse
 10
149.3292409864804
 20
115.5589185346555
 30
0.0
 11
1.499999999999658
 21
0.0
 31
0.0
210
0.0
220
0.0
230
1.0
 40
0.0871557427477123
 41
4.712388980384688
 42
6.283185307179585
  0
ELLIPSE
  5
E7C
330
1A
100
AcDbEntity
  8
1
 62
     8
100
AcDbEllipse
 10
138.3292409864808
 20
115.5589185346555
 30
0.0
 11
-1.499999999999658
 21
0.0
 31
0.0
210
0.0
220
0.0
230
-1.0
 40
0.0871557427477123
 41
4.712388980384688
 42
6.283185307179585
  0
ELLIPSE
  5
E7D
330
1A
100
AcDbEntity
  8
1
 62
     8
100
AcDbEllipse
 10
138.329240986481
 20
116.3433202193844
 30
0.0
 11
-1.499999999999658
 21
0.0
 31
0.0
210
0.0
220
0.0
230
-1.0
 40
0.0871557427477123
 41
0.0
 42
1.570796326794896
  0
ELLIPSE
  5
E7E
330
1A
100
AcDbEntity
  8
1
 62
     8
100
AcDbEllipse
 10
155.829240986481
 20
116.3433202193844
 30
0.0
 11
-1.499999999999658
 21
0.0
 31
0.0
210
0.0
220
0.0
230
-1.0
 40
0.0871557427477123
 41
0.0
 42
1.570796326794896
  0
ELLIPSE
  5
E7F
330
1A
100
AcDbEntity
  8
1
 62
     8
100
AcDbEllipse
 10
155.8292409864808
 20
115.5589185346555
 30
0.0
 11
-1.499999999999658
 21
0.0
 31
0.0
210
0.0
220
0.0
230
-1.0
 40
0.0871557427477123
 41
4.712388980384688
 42
6.283185307179585
  0
ELLIPSE
  5
E80
330
1A
100
AcDbEntity
  8
1
 62
     8
100
AcDbEllipse
 10
166.8292409864804
 20
115.5589185346555
 30
0.0
 11
1.499999999999658
 21
0.0
 31
0.0
210
0.0
220
0.0
230
1.0
 40
0.0871557427477123
 41
4.712388980384688
 42
6.283185307179585
  0
ELLIPSE
  5
E81
330
1A
100
AcDbEntity
  8
1
 62
     8
100
AcDbEllipse
 10
166.8292409864803
 20
116.3433202193844
 30
0.0
 11
1.499999999999658
 21
0.0
 31
0.0
210
0.0
220
0.0
230
1.0
 40
0.0871557427477123
 41
0.0
 42
1.570796326794896
  0
ELLIPSE
  5
E82
330
1A
100
AcDbEntity
  8
1
 62
     8
100
AcDbEllipse
 10
155.829240986481
 20
116.3433202193844
 30
0.0
 11
-1.0
 21
0.0
 31
0.0
210
0.0
220
0.0
230
-1.0
 40
0.0871557427476262
 41
0.0
 42
1.570796326794896
  0
ELLIPSE
  5
E83
330
1A
100
AcDbEntity
  8
1
 62
     8
100
AcDbEllipse
 10
155.8292409864808
 20
115.5589185346555
 30
0.0
 11
-1.0
 21
0.0
 31
0.0
210
0.0
220
0.0
230
-1.0
 40
0.0871557427476262
 41
4.712388980384688
 42
6.283185307179585
  0
ELLIPSE
  5
E84
330
1A
100
AcDbEntity
  8
1
 62
     8
100
AcDbEllipse
 10
166.8292409864803
 20
116.3433202193844
 30
0.0
 11
1.0
 21
0.0
 31
0.0
210
0.0
220
0.0
230
1.0
 40
0.0871557427476262
 41
0.0
 42
1.570796326794896
  0
ELLIPSE
  5
E85
330
1A
100
AcDbEntity
  8
1
 62
     8
100
AcDbEllipse
 10
166.8292409864804
 20
115.5589185346555
 30
0.0
 11
1.0
 21
0.0
 31
0.0
210
0.0
220
0.0
230
1.0
 40
0.0871557427476262
 41
4.712388980384688
 42
6.283185307179585
  0
LINE
  5
E86
330
1A
100
AcDbEntity
  8
1
 62
     8
100
AcDbLine
 10
167.8292409864804
 20
116.3433202193844
 30
0.0
 11
167.8292409864805
 21
115.5589185346555
 31
0.0
  0
LINE
  5
E87
330
1A
100
AcDbEntity
  8
1
 62
     8
100
AcDbLine
 10
168.32924098648
 20
116.3433202193844
 30
0.0
 11
168.32924098648
 21
115.5589185346555
 31
0.0
  0
LINE
  5
E88
330
1A
100
AcDbEntity
  8
1
 62
     8
100
AcDbLine
 10
166.82924098648
 20
116.430475962132
 30
0.0
 11
155.8292409864811
 21
116.430475962132
 31
0.0
  0
LINE
  5
E89
330
1A
100
AcDbEntity
  8
1
 62
     8
100
AcDbLine
 10
166.82924098648
 20
116.474053833506
 30
0.0
 11
155.8292409864811
 21
116.4740538335059
 31
0.0
  0
LINE
  5
E8A
330
1A
100
AcDbEntity
  8
1
 62
     8
100
AcDbLine
 10
154.829240986481
 20
116.3433202193844
 30
0.0
 11
154.829240986481
 21
115.5589185346555
 31
0.0
  0
LINE
  5
E8B
330
1A
100
AcDbEntity
  8
1
 62
     8
100
AcDbLine
 10
166.8292409864805
 20
115.4717627919079
 30
0.0
 11
155.8292409864808
 21
115.4717627919078
 31
0.0
  0
LINE
  5
E8C
330
1A
100
AcDbEntity
  8
1
 62
     8
100
AcDbLine
 10
166.8292409864805
 20
115.4281849205339
 30
0.0
 11
155.8292409864808
 21
115.428184920534
 31
0.0
  0
LINE
  5
E8D
330
1A
100
AcDbEntity
  8
1
 62
     8
100
AcDbLine
 10
154.329240986481
 20
116.3433202193845
 30
0.0
 11
154.329240986481
 21
115.5589185346555
 31
0.0
  0
LINE
  5
E8E
330
1A
100
AcDbEntity
  8
1
 62
     8
100
AcDbLine
 10
171.8292409864811
 20
116.3433202193845
 30
0.0
 11
171.8292409864809
 21
115.5589185346555
 31
0.0
  0
LINE
  5
E8F
330
1A
100
AcDbEntity
  8
1
 62
     8
100
AcDbLine
 10
184.3292409864805
 20
115.4281849205339
 30
0.0
 11
173.3292409864808
 21
115.428184920534
 31
0.0
  0
LINE
  5
E90
330
1A
100
AcDbEntity
  8
1
 62
     8
100
AcDbLine
 10
184.3292409864805
 20
115.4717627919079
 30
0.0
 11
173.3292409864808
 21
115.4717627919078
 31
0.0
  0
LINE
  5
E91
330
1A
100
AcDbEntity
  8
1
 62
     8
100
AcDbLine
 10
172.3292409864811
 20
116.3433202193844
 30
0.0
 11
172.3292409864811
 21
115.5589185346555
 31
0.0
  0
LINE
  5
E92
330
1A
100
AcDbEntity
  8
1
 62
     8
100
AcDbLine
 10
184.32924098648
 20
116.474053833506
 30
0.0
 11
173.3292409864812
 21
116.4740538335059
 31
0.0
  0
LINE
  5
E93
330
1A
100
AcDbEntity
  8
1
 62
     8
100
AcDbLine
 10
184.32924098648
 20
116.430475962132
 30
0.0
 11
173.3292409864812
 21
116.430475962132
 31
0.0
  0
LINE
  5
E94
330
1A
100
AcDbEntity
  8
1
 62
     8
100
AcDbLine
 10
185.82924098648
 20
116.3433202193844
 30
0.0
 11
185.82924098648
 21
115.5589185346555
 31
0.0
  0
LINE
  5
E95
330
1A
100
AcDbEntity
  8
1
 62
     8
100
AcDbLine
 10
185.3292409864803
 20
116.3433202193844
 30
0.0
 11
185.3292409864804
 21
115.5589185346555
 31
0.0
  0
ELLIPSE
  5
E96
330
1A
100
AcDbEntity
  8
1
 62
     8
100
AcDbEllipse
 10
184.3292409864804
 20
115.5589185346555
 30
0.0
 11
1.0
 21
0.0
 31
0.0
210
0.0
220
0.0
230
1.0
 40
0.0871557427476262
 41
4.712388980384688
 42
6.283185307179585
  0
ELLIPSE
  5
E97
330
1A
100
AcDbEntity
  8
1
 62
     8
100
AcDbEllipse
 10
184.3292409864803
 20
116.3433202193844
 30
0.0
 11
1.0
 21
0.0
 31
0.0
210
0.0
220
0.0
230
1.0
 40
0.0871557427476262
 41
0.0
 42
1.570796326794896
  0
ELLIPSE
  5
E98
330
1A
100
AcDbEntity
  8
1
 62
     8
100
AcDbEllipse
 10
173.3292409864808
 20
115.5589185346555
 30
0.0
 11
-1.0
 21
0.0
 31
0.0
210
0.0
220
0.0
230
-1.0
 40
0.0871557427476262
 41
4.712388980384688
 42
6.283185307179585
  0
ELLIPSE
  5
E99
330
1A
100
AcDbEntity
  8
1
 62
     8
100
AcDbEllipse
 10
173.329240986481
 20
116.3433202193844
 30
0.0
 11
-1.0
 21
0.0
 31
0.0
210
0.0
220
0.0
230
-1.0
 40
0.0871557427476262
 41
0.0
 42
1.570796326794896
  0
ELLIPSE
  5
E9A
330
1A
100
AcDbEntity
  8
1
 62
     8
100
AcDbEllipse
 10
184.3292409864803
 20
116.3433202193844
 30
0.0
 11
1.499999999999658
 21
0.0
 31
0.0
210
0.0
220
0.0
230
1.0
 40
0.0871557427477123
 41
0.0
 42
1.570796326794896
  0
ELLIPSE
  5
E9B
330
1A
100
AcDbEntity
  8
1
 62
     8
100
AcDbEllipse
 10
184.3292409864804
 20
115.5589185346555
 30
0.0
 11
1.499999999999658
 21
0.0
 31
0.0
210
0.0
220
0.0
230
1.0
 40
0.0871557427477123
 41
4.712388980384688
 42
6.283185307179585
  0
ELLIPSE
  5
E9C
330
1A
100
AcDbEntity
  8
1
 62
     8
100
AcDbEllipse
 10
173.3292409864808
 20
115.5589185346555
 30
0.0
 11
-1.499999999999658
 21
0.0
 31
0.0
210
0.0
220
0.0
230
-1.0
 40
0.0871557427477123
 41
4.712388980384688
 42
6.283185307179585
  0
ELLIPSE
  5
E9D
330
1A
100
AcDbEntity
  8
1
 62
     8
100
AcDbEllipse
 10
173.329240986481
 20
116.3433202193844
 30
0.0
 11
-1.499999999999658
 21
0.0
 31
0.0
210
0.0
220
0.0
230
-1.0
 40
0.0871557427477123
 41
0.0
 42
1.570796326794896
  0
LINE
  5
E9E
330
1A
100
AcDbEntity
  8
1
 62
     8
100
AcDbLine
 10
127.8292409864802
 20
116.4566226849565
 30
0.0
 11
127.8292409864801
 21
115.4456160690835
 31
0.0
  0
ELLIPSE
  5
E9F
330
1A
100
AcDbEntity
  8
1
 62
     8
100
AcDbEllipse
 10
126.8292409864801
 20
116.4566226849564
 30
0.0
 11
-1.000000000000113
 21
0.0
 31
0.0
210
0.0
220
0.0
230
1.0
 40
0.0871557427476163
 41
3.141592653589792
 42
4.712388980384688
  0
ELLIPSE
  5
EA0
330
1A
100
AcDbEntity
  8
1
 62
     8
100
AcDbEllipse
 10
126.8292409864801
 20
115.4456160690835
 30
0.0
 11
-1.000000000000113
 21
0.0
 31
0.0
210
0.0
220
0.0
230
1.0
 40
0.0871557427476163
 41
1.570796326794896
 42
3.141592653589792
  0
LINE
  5
EA1
330
1A
100
AcDbEntity
  8
1
 62
     8
100
AcDbLine
 10
188.82924098648
 20
114.9488283354219
 30
0.0
 11
188.8292409864801
 21
114.905250464048
 31
0.0
  0
LINE
  5
EA2
330
1A
100
AcDbEntity
  8
1
 62
     8
100
AcDbLine
 10
188.82924098648
 20
116.9969882899919
 30
0.0
 11
188.82924098648
 21
116.9534104186181
 31
0.0
  0
LINE
  5
EA3
330
1A
100
AcDbEntity
  8
1
 62
     8
100
AcDbLine
 10
190.6292409864795
 20
117.5024915979284
 30
0.0
 11
190.6292409864795
 21
114.8508699222232
 31
0.0
  0
ELLIPSE
  5
EA4
330
1A
100
AcDbEntity
  8
1
 62
     8
100
AcDbEllipse
 10
188.6292409864794
 20
117.5024915979283
 30
0.0
 11
-1.999999999999999
 21
0.0
 31
0.0
210
0.0
220
0.0
230
1.0
 40
0.0871557427476546
 41
3.141592653589792
 42
4.712388980384688
  0
ARC
  5
EA5
330
1A
100
AcDbEntity
  8
1
100
AcDbCircle
 10
163.82924098648
 20
125.8919232347447
 30
0.0
 40
0.5
100
AcDbArc
 50
11.30993247402022
 51
90.0
  0
LINE
  5
EA6
330
1A
100
AcDbEntity
  8
1
100
AcDbLine
 10
164.3195313243254
 20
125.9899813023142
 30
0.0
 11
165.3195313243254
 21
120.9899813023142
 31
0.0
  0
LINE
  5
EA7
330
1A
100
AcDbEntity
  8
1
100
AcDbLine
 10
164.8292409864802
 20
120.8919232347451
 30
0.0
 11
165.3195313243254
 21
120.9899813023142
 31
0.0
  0
LINE
  5
EA8
330
1A
100
AcDbEntity
  8
1
100
AcDbLine
 10
164.8292409864802
 20
120.8919232347451
 30
0.0
 11
92.82924098648015
 21
120.8919232347451
 31
0.0
  0
LINE
  5
EA9
330
1A
100
AcDbEntity
  8
1
100
AcDbLine
 10
163.8292409864801
 20
126.3919232347451
 30
0.0
 11
93.82924098648027
 21
126.3919232347451
 31
0.0
  0
LINE
  5
EAA
330
1A
100
AcDbEntity
  8
1
100
AcDbLine
 10
92.82924098648015
 20
120.8919232347451
 30
0.0
 11
92.33895064863508
 21
120.9899813023142
 31
0.0
  0
LINE
  5
EAB
330
1A
100
AcDbEntity
  8
1
100
AcDbLine
 10
93.3389506486351
 20
125.9899813023142
 30
0.0
 11
92.33895064863508
 21
120.9899813023142
 31
0.0
  0
ARC
  5
EAC
330
1A
100
AcDbEntity
  8
1
100
AcDbCircle
 10
93.82924098648004
 20
125.8919232347447
 30
0.0
 40
0.5
100
AcDbArc
 50
90.0
 51
168.6900675259797
  0
LINE
  5
EAD
330
1A
100
AcDbEntity
  8
1
100
AcDbLine
 10
195.8859685372003
 20
118.695356075599
 30
0.0
 11
61.77251343576097
 21
118.695356075599
 31
0.0
  0
ARC
  5
EAE
330
1A
100
AcDbEntity
  8
1
 62
     8
100
AcDbCircle
 10
128.8292409864823
 20
6534.775341706654
 30
0.0
 40
6421.011504420943
100
AcDbArc
 50
269.399629350344
 51
270.6003706496559
  0
ARC
  5
EAF
330
1A
100
AcDbEntity
  8
1
 62
     8
100
AcDbCircle
 10
128.8292409864823
 20
6534.775341706654
 30
0.0
 40
6420.359938807482
100
AcDbArc
 50
269.4702417858159
 51
270.5297582141839
  0
LINE
  5
EB0
330
1A
100
AcDbEntity
  8
1
 62
     8
100
AcDbLine
 10
188.8292409864801
 20
117.9954467673913
 30
0.0
 11
68.82924098648027
 21
117.9954467673913
 31
0.0
  0
LINE
  5
EB1
330
1A
100
AcDbEntity
  8
1
100
AcDbLine
 10
198.8292409864801
 20
89.69535607559903
 30
0.0
 11
195.824001710116
 21
89.69535607559931
 31
0.0
  0
LINE
  5
EB2
330
1A
100
AcDbEntity
  8
1
100
AcDbLine
 10
59.45813433787725
 20
101.695356075599
 30
0.0
 11
198.2003476350833
 21
101.695356075599
 31
0.0
  0
LINE
  5
EB4
330
1A
100
AcDbEntity
  8
1
 62
     8
100
AcDbLine
 10
96.07924098648073
 20
120.195356075599
 30
0.0
 11
161.5792409864807
 21
120.1953560755988
 31
0.0
  0
ELLIPSE
  5
EB5
330
1A
100
AcDbEntity
  8
1
 62
     8
100
AcDbEllipse
 10
69.4672777962964
 20
114.9503845190109
 30
0.0
 11
-2.638036809815274
 21
0.0000000000000008
 31
0.0
210
0.0
220
0.0
230
-1.0
 40
0.0987660837954133
 41
4.712388980384688
 42
6.283185307179585
  0
ELLIPSE
  5
EB7
330
1A
100
AcDbEntity
  8
1
 62
     8
100
AcDbEllipse
 10
68.82924098648032
 20
117.8204694403401
 30
0.0
 11
-1.99999999999909
 21
0.0000000000000006
 31
0.0
210
0.0
220
0.0
230
1.0
 40
0.0874886635259429
 41
4.712388980384688
 42
6.283185307179585
  0
LINE
  5
EB8
330
1A
100
AcDbEntity
  8
1
 62
     8
100
AcDbLine
 10
66.82924098648107
 20
117.8204694403391
 30
0.0
 11
66.82924098648107
 21
114.9503845190109
 31
0.0
  0
ARC
  5
EB9
330
1A
100
AcDbEntity
  8
1
 62
     8
100
AcDbCircle
 10
61.53254171540607
 20
112.6164228783026
 30
0.0
 40
1.5
100
AcDbArc
 50
89.39962935036355
 51
176.9999999999973
  0
ARC
  5
EBA
330
1A
100
AcDbEntity
  8
1
100
AcDbCircle
 10
61.77251343576131
 20
117.1953560755991
 30
0.0
 40
1.5
100
AcDbArc
 50
90.0
 51
176.9999999999997
  0
LINE
  5
EBC
330
1A
100
AcDbEntity
  8
1
100
AcDbLine
 10
60.27456913363085
 20
117.2738600099636
 30
0.0
 11
58.82924098648027
 21
89.69535607559903
 31
0.0
  0
LINE
  5
EBD
330
1A
100
AcDbEntity
  8
1
 62
     8
100
AcDbLine
 10
95.82924098648073
 20
118.695356075599
 30
0.0
 11
96.07924098648073
 21
120.1953560755991
 31
0.0
  0
ELLIPSE
  5
EBE
330
1A
100
AcDbEntity
  8
1
 62
     8
100
AcDbEllipse
 10
188.191204176664
 20
114.9503845190109
 30
0.0
 11
2.638036809815274
 21
-0.0000000000000008
 31
0.0
210
0.0
220
0.0
230
1.0
 40
0.0987660837954133
 41
4.712388980384688
 42
6.283185307179585
  0
ELLIPSE
  5
EBF
330
1A
100
AcDbEntity
  8
1
 62
     8
100
AcDbEllipse
 10
188.8292409864801
 20
117.8204694403401
 30
0.0
 11
1.99999999999909
 21
-0.0000000000000006
 31
0.0
210
0.0
220
0.0
230
-1.0
 40
0.0874886635259429
 41
4.712388980384688
 42
6.283185307179585
  0
ARC
  5
EC1
330
1A
100
AcDbEntity
  8
1
100
AcDbCircle
 10
195.8859685372005
 20
117.1953560755991
 30
0.0
 40
1.5
100
AcDbArc
 50
3.000000000000149
 51
90.0
  0
ARC
  5
EC2
330
1A
100
AcDbEntity
  8
1
 62
     8
100
AcDbCircle
 10
196.1259402575567
 20
112.6164228783017
 30
0.0
 40
1.5
100
AcDbArc
 50
3.000000000007022
 51
90.60037064963607
  0
LINE
  5
EC3
330
1A
100
AcDbEntity
  8
1
 62
     8
100
AcDbLine
 10
190.8292409864793
 20
117.8204694403391
 30
0.0
 11
190.8292409864793
 21
114.9503845190109
 31
0.0
  0
LINE
  5
EC5
330
1A
100
AcDbEntity
  8
1
100
AcDbLine
 10
197.3839128393315
 20
117.2738600099636
 30
0.0
 11
198.8292409864801
 21
89.69535607559903
 31
0.0
  0
LINE
  5
EC6
330
1A
100
AcDbEntity
  8
1
 62
     8
100
AcDbLine
 10
161.8292409864807
 20
118.6953560756006
 30
0.0
 11
161.5792409864807
 21
120.195356075599
 31
0.0
  0
LINE
  5
EC7
330
1A
100
AcDbEntity
  8
1
100
AcDbLine
 10
89.8292409864813
 20
75.59537437559803
 30
0.0
 11
167.8292409864793
 21
75.59537437559797
 31
0.0
  0
LINE
  5
EC8
330
1A
100
AcDbEntity
  8
1
 62
     8
100
AcDbLine
 10
80.5762397855217
 20
80.09537437559897
 30
0.0
 11
82.6292409864825
 21
80.09537437559897
 31
0.0
  0
LINE
  5
EC9
330
1A
100
AcDbEntity
  8
1
100
AcDbLine
 10
63.73483694533104
 20
80.59537437559885
 30
0.0
 11
193.9236450276303
 21
80.59537437559885
 31
0.0
  0
LINE
  5
ECB
330
1A
100
AcDbEntity
  8
1
 62
     8
100
AcDbLine
 10
62.45297634464714
 20
101.695356075599
 30
0.0
 11
61.82923788648167
 21
89.79538657559794
 31
0.0
  0
LINE
  5
ECE
330
1A
100
AcDbEntity
  8
1
 62
     8
100
AcDbLine
 10
62.46346063777491
 20
101.695356075599
 30
0.0
 11
63.49476636952295
 21
82.01687044123472
 31
0.0
  0
ARC
  5
ECF
330
1A
100
AcDbEntity
  8
1
 62
     8
100
AcDbCircle
 10
64.992710671655
 20
82.09537437559896
 30
0.0
 40
1.5
100
AcDbArc
 50
182.9999999999928
 51
270.0
  0
ARC
  5
ED2
330
1A
100
AcDbEntity
  8
1
100
AcDbCircle
 10
63.73483694533104
 20
82.09537437559896
 30
0.0
 40
1.5
100
AcDbArc
 50
182.999999999999
 51
270.0
  0
LINE
  5
ED3
330
1A
100
AcDbEntity
  8
1
100
AcDbLine
 10
61.82923788648167
 20
89.79538657559794
 30
0.0
 11
62.2368926432
 21
82.01687044123437
 31
0.0
  0
LINE
  5
ED4
330
1A
100
AcDbEntity
  8
1
 62
     8
100
AcDbLine
 10
71.02924098648259
 20
80.09537437559897
 30
0.0
 11
73.0822421874434
 21
80.09537437559897
 31
0.0
  0
LINE
  5
ED5
330
1A
100
AcDbEntity
  8
1
100
AcDbLine
 10
66.82924098648254
 20
80.59537437559802
 30
0.0
 11
67.0126682139728
 21
77.09537437559934
 31
0.0
  0
LINE
  5
ED6
330
1A
100
AcDbEntity
  8
1
 62
     8
100
AcDbLine
 10
71.02924098648259
 20
80.59537437559885
 30
0.0
 11
71.02924098648259
 21
80.09537437559897
 31
0.0
  0
LINE
  5
ED7
330
1A
100
AcDbEntity
  8
1
 62
     8
100
AcDbLine
 10
71.86537152808615
 20
80.59537437559885
 30
0.0
 11
71.86537152808615
 21
80.09537437559897
 31
0.0
  0
LINE
  5
ED8
330
1A
100
AcDbEntity
  8
1
 62
     8
100
AcDbLine
 10
73.0822421874434
 20
80.59537437559885
 30
0.0
 11
73.0822421874434
 21
80.09537437559897
 31
0.0
  0
LINE
  5
ED9
330
1A
100
AcDbEntity
  8
1
 62
     8
100
AcDbLine
 10
80.5762397855217
 20
80.59537437559885
 30
0.0
 11
80.5762397855217
 21
80.09537437559897
 31
0.0
  0
ARC
  5
EDA
330
1A
100
AcDbEntity
  8
1
100
AcDbCircle
 10
128.8292500916975
 20
103.5953743755873
 30
0.0
 40
32.0
100
AcDbArc
 50
259.5810969099748
 51
280.4189030900248
  0
LINE
  5
EDC
330
1A
100
AcDbEntity
  8
1
100
AcDbLine
 10
122.0912889881121
 20
75.59537437559797
 30
0.0
 11
122.2244678266692
 21
73.05417075318056
 31
0.0
  0
LINE
  5
EDD
330
1A
100
AcDbEntity
  8
1
100
AcDbLine
 10
135.5672111952828
 20
75.59537437559797
 30
0.0
 11
135.4340323567255
 21
73.05417075318044
 31
0.0
  0
LINE
  5
EDF
330
1A
100
AcDbEntity
  8
1
 62
     8
100
AcDbLine
 10
81.79311044487873
 20
80.59537437559885
 30
0.0
 11
81.79311044487873
 21
80.09537437559897
 31
0.0
  0
LINE
  5
EE0
330
1A
100
AcDbEntity
  8
1
 62
     8
100
AcDbLine
 10
82.6292409864825
 20
80.59537437559885
 30
0.0
 11
82.6292409864825
 21
80.09537437559897
 31
0.0
  0
LINE
  5
EE1
330
1A
100
AcDbEntity
  8
1
 62
     8
100
AcDbLine
 10
177.0822421874397
 20
80.09537437559897
 30
0.0
 11
175.0292409864788
 21
80.09537437559897
 31
0.0
  0
LINE
  5
EE2
330
1A
100
AcDbEntity
  8
1
 62
     8
100
AcDbLine
 10
177.0822421874397
 20
80.59537437559885
 30
0.0
 11
177.0822421874397
 21
80.09537437559897
 31
0.0
  0
LINE
  5
EE3
330
1A
100
AcDbEntity
  8
1
 62
     8
100
AcDbLine
 10
175.8653715280826
 20
80.59537437559885
 30
0.0
 11
175.8653715280826
 21
80.09537437559897
 31
0.0
  0
LINE
  5
EE4
330
1A
100
AcDbEntity
  8
1
 62
     8
100
AcDbLine
 10
175.0292409864788
 20
80.59537437559885
 30
0.0
 11
175.0292409864788
 21
80.09537437559897
 31
0.0
  0
LINE
  5
EE5
330
1A
100
AcDbEntity
  8
1
 62
     8
100
AcDbLine
 10
195.1950213351901
 20
101.695356075599
 30
0.0
 11
194.1637156034421
 21
82.01687044123472
 31
0.0
  0
LINE
  5
EE8
330
1A
100
AcDbEntity
  8
1
 62
     8
100
AcDbLine
 10
195.2055056283179
 20
101.695356075599
 30
0.0
 11
195.8292440864834
 21
89.79538657559794
 31
0.0
  0
ARC
  5
EE9
330
1A
100
AcDbEntity
  8
1
 62
     8
100
AcDbCircle
 10
192.66577130131
 20
82.09537437559896
 30
0.0
 40
1.5
100
AcDbArc
 50
270.0
 51
357.0000000000071
  0
ARC
  5
EEA
330
1A
100
AcDbEntity
  8
1
100
AcDbCircle
 10
193.9236450276303
 20
82.09537437559896
 30
0.0
 40
1.5
100
AcDbArc
 50
270.0
 51
357.0000000000015
  0
LINE
  5
EED
330
1A
100
AcDbEntity
  8
1
100
AcDbLine
 10
195.8292440864814
 20
89.79538657559794
 30
0.0
 11
195.4215893297614
 21
82.01687044123437
 31
0.0
  0
LINE
  5
EEF
330
1A
100
AcDbEntity
  8
1
 62
     8
100
AcDbLine
 10
186.6292409864788
 20
80.09537437559897
 30
0.0
 11
184.576239785518
 21
80.09537437559897
 31
0.0
  0
LINE
  5
EF0
330
1A
100
AcDbEntity
  8
1
100
AcDbLine
 10
190.8292209864821
 20
80.59537437559802
 30
0.0
 11
190.6457937589914
 21
77.09537437559934
 31
0.0
  0
LINE
  5
EF1
330
1A
100
AcDbEntity
  8
1
 62
     8
100
AcDbLine
 10
184.576239785518
 20
80.59537437559885
 30
0.0
 11
184.576239785518
 21
80.09537437559897
 31
0.0
  0
LINE
  5
EF2
330
1A
100
AcDbEntity
  8
1
 62
     8
100
AcDbLine
 10
186.6292409864788
 20
80.59537437559885
 30
0.0
 11
186.6292409864788
 21
80.09537437559897
 31
0.0
  0
LINE
  5
EF3
330
1A
100
AcDbEntity
  8
1
 62
     8
100
AcDbLine
 10
185.7931104448753
 20
80.59537437559885
 30
0.0
 11
185.7931104448753
 21
80.09537437559897
 31
0.0
  0
LINE
  5
EF4
330
1A
100
AcDbEntity
  8
1
 62
     8
100
AcDbLine
 10
118.8292409864661
 20
120.8919232347451
 30
0.0
 11
118.8292409864657
 21
120.1953560755985
 31
0.0
  0
LINE
  5
EF5
330
1A
100
AcDbEntity
  8
1
 62
     8
100
AcDbLine
 10
138.8292409864698
 20
120.8919232347451
 30
0.0
 11
138.8292409864701
 21
120.1953560755985
 31
0.0
  0
LINE
  5
EF6
330
1A
100
AcDbEntity
  8
1
100
AcDbLine
 10
87.82924098648118
 20
77.09537437559934
 30
0.0
 11
88.32924098648119
 21
76.59537437559933
 31
0.0
  0
LINE
  5
EF7
330
1A
100
AcDbEntity
  8
1
100
AcDbLine
 10
65.82924098648118
 20
77.09537437559934
 30
0.0
 11
65.32924098648106
 21
76.59537437559933
 31
0.0
  0
LINE
  5
EF8
330
1A
100
AcDbEntity
  8
1
100
AcDbLine
 10
89.82924098648117
 20
76.59537437559933
 30
0.0
 11
89.8292409864814
 21
74.63127276046211
 31
0.0
  0
LINE
  5
EF9
330
1A
100
AcDbEntity
  8
1
 62
     8
100
AcDbLine
 10
88.57637702864712
 20
74.63127276046162
 30
0.0
 11
88.57637702864712
 21
76.59537437559933
 31
0.0
  0
LINE
  5
EFA
330
1A
100
AcDbEntity
  8
1
 62
     8
100
AcDbLine
 10
89.60577654306916
 20
74.63127276046126
 30
0.0
 11
89.60577654306893
 21
76.59537437559933
 31
0.0
  0
LINE
  5
EFB
330
1A
100
AcDbEntity
  8
1
 62
     8
100
AcDbLine
 10
89.60577654306916
 20
74.63127276046162
 30
0.0
 11
89.8292409864814
 21
74.63127276046211
 31
0.0
  0
LINE
  5
EFC
330
1A
100
AcDbEntity
  8
1
 62
     8
100
AcDbLine
 10
85.75497373334632
 20
74.63127276046162
 30
0.0
 11
85.75497373334599
 21
76.59537437559933
 31
0.0
  0
LINE
  5
EFD
330
1A
100
AcDbEntity
  8
1
100
AcDbLine
 10
63.82924098648118
 20
76.59537437559933
 30
0.0
 11
63.82924098648095
 21
74.63127276046211
 31
0.0
  0
LINE
  5
EFE
330
1A
100
AcDbEntity
  8
1
 62
     8
100
AcDbLine
 10
75.16363758414354
 20
74.63127276046211
 30
0.0
 11
75.16363758414366
 21
76.59537437559933
 31
0.0
  0
LINE
  5
EFF
330
1A
100
AcDbEntity
  8
1
 62
     8
100
AcDbLine
 10
78.49484438881859
 20
74.63127276046211
 30
0.0
 11
78.49484438881882
 21
76.59537437559933
 31
0.0
  0
LINE
  5
F00
330
1A
100
AcDbEntity
  8
1
 62
     8
100
AcDbLine
 10
83.0599708165862
 20
74.63127276046162
 30
0.0
 11
83.0599708165862
 21
76.59537437559933
 31
0.0
  0
LINE
  5
F01
330
1A
100
AcDbEntity
  8
1
 62
     8
100
AcDbLine
 10
78.49484438881859
 20
74.63127276046162
 30
0.0
 11
83.0599708165862
 21
74.63127276046162
 31
0.0
  0
LINE
  5
F02
330
1A
100
AcDbEntity
  8
1
 62
     8
100
AcDbLine
 10
64.05270542989319
 20
74.63127276046126
 30
0.0
 11
64.05270542989342
 21
76.59537437559933
 31
0.0
  0
LINE
  5
F03
330
1A
100
AcDbEntity
  8
1
 62
     8
100
AcDbLine
 10
65.08210494431523
 20
74.63127276046162
 30
0.0
 11
65.08210494431523
 21
76.59537437559933
 31
0.0
  0
LINE
  5
F04
330
1A
100
AcDbEntity
  8
1
 62
     8
100
AcDbLine
 10
67.90350823961603
 20
74.63127276046162
 30
0.0
 11
67.90350823961626
 21
76.59537437559933
 31
0.0
  0
LINE
  5
F05
330
1A
100
AcDbEntity
  8
1
 62
     8
100
AcDbLine
 10
70.59851115637616
 20
74.63127276046162
 30
0.0
 11
70.59851115637616
 21
76.59537437559933
 31
0.0
  0
LINE
  5
F06
330
1A
100
AcDbEntity
  8
1
 62
     8
100
AcDbLine
 10
70.59851115637616
 20
74.63127276046162
 30
0.0
 11
75.16363758414332
 21
74.63127276046162
 31
0.0
  0
LINE
  5
F07
330
1A
100
AcDbEntity
  8
1
 62
     8
100
AcDbLine
 10
63.82924098648095
 20
74.63127276046211
 30
0.0
 11
64.05270542989137
 21
74.63127276046211
 31
0.0
  0
LINE
  5
F08
330
1A
100
AcDbEntity
  8
1
 62
     8
100
AcDbLine
 10
65.08210494431409
 20
74.63127276046211
 30
0.0
 11
67.9035082396158
 21
74.63127276046211
 31
0.0
  0
LINE
  5
F09
330
1A
100
AcDbEntity
  8
1
 62
     8
100
AcDbLine
 10
85.75497373334632
 20
74.63127276046162
 30
0.0
 11
88.57637702864691
 21
74.63127276046162
 31
0.0
  0
LINE
  5
F0A
330
1A
100
AcDbEntity
  8
1
100
AcDbLine
 10
63.82924098648118
 20
76.59537437559933
 30
0.0
 11
89.8292409864814
 21
76.59537437559933
 31
0.0
  0
SPLINE
  5
F0B
330
1A
100
AcDbEntity
  8
1
 62
     8
100
AcDbSpline
210
0.0
220
0.0
230
1.0
 70
     8
 71
     3
 72
     9
 73
     5
 74
     0
 42
0.0000000001
 43
0.0000000001
 40
0.0
 40
0.0
 40
0.0
 40
0.0
 40
0.0709646172400961
 40
0.1241404801011342
 40
0.1241404801011342
 40
0.1241404801011342
 40
0.1241404801011342
 10
88.24191918202286
 20
74.36332356803124
 30
0.0
 10
88.21263216510368
 20
74.36257417159493
 30
0.0
 10
88.16139952998986
 20
74.36126323049473
 30
0.0
 10
88.16612635785048
 20
74.40960398970204
 30
0.0
 10
88.16815110553864
 20
74.43031086613863
 30
0.0
  0
ARC
  5
F0C
330
1A
100
AcDbEntity
  8
1
100
AcDbCircle
 10
83.06129179405036
 20
72.59537437559933
 30
0.0
 40
1.5
100
AcDbArc
 50
90.0
 51
149.9999999999999
  0
LINE
  5
F0D
330
1A
100
AcDbEntity
  8
1
100
AcDbLine
 10
81.76225368837391
 20
73.34537437559934
 30
0.0
 11
81.32924098648141
 21
72.59537437559933
 31
0.0
  0
LINE
  5
F0E
330
1A
100
AcDbEntity
  8
1
100
AcDbLine
 10
71.89622828458846
 20
73.34537437559934
 30
0.0
 11
72.32924098648095
 21
72.59537437559933
 31
0.0
  0
ARC
  5
F0F
330
1A
100
AcDbEntity
  8
1
100
AcDbCircle
 10
70.59719017891189
 20
72.59537437559933
 30
0.0
 40
1.5
100
AcDbArc
 50
29.99999999999996
 51
90.0
  0
LINE
  5
F10
330
1A
100
AcDbEntity
  8
1
100
AcDbLine
 10
81.32924098648141
 20
72.59537437559933
 30
0.0
 11
72.32924098647868
 21
72.59537437560394
 31
0.0
  0
ARC
  5
F11
330
1A
100
AcDbEntity
  8
1
100
AcDbCircle
 10
76.82924098648118
 20
78.09537437559933
 30
0.0
 40
6.5
100
AcDbArc
 50
237.7957724959655
 51
302.2042275039786
  0
SPLINE
  5
F12
330
1A
100
AcDbEntity
  8
1
 62
     8
100
AcDbSpline
210
0.0
220
0.0
230
1.0
 70
     8
 71
     3
 72
     9
 73
     5
 74
     0
 42
0.0000000001
 43
0.0000000001
 40
0.0
 40
0.0
 40
0.0
 40
0.0
 40
0.0709646172400961
 40
0.1241404801011342
 40
0.1241404801011342
 40
0.1241404801011342
 40
0.1241404801011342
 10
65.41656279093939
 20
74.36332356803124
 30
0.0
 10
65.44584980785856
 20
74.36257417159493
 30
0.0
 10
65.49708244297239
 20
74.36126323049425
 30
0.0
 10
65.49235561511181
 20
74.40960398970204
 30
0.0
 10
65.49033086742355
 20
74.43031086613863
 30
0.0
  0
LINE
  5
F13
330
1A
100
AcDbEntity
  8
1
100
AcDbLine
 10
65.82924098648437
 20
74.09537437559933
 30
0.0
 11
87.82924098648004
 21
74.09537437559933
 31
0.0
  0
LINE
  5
F14
330
1A
100
AcDbEntity
  8
1
100
AcDbLine
 10
89.8292409864814
 20
74.63127276046211
 30
0.0
 11
87.829240986478
 21
74.09537437559933
 31
0.0
  0
SPLINE
  5
F15
330
1A
100
AcDbEntity
  8
1
 62
     8
100
AcDbSpline
210
0.0
220
0.0
230
1.0
 70
     8
 71
     3
 72
    11
 73
     7
 74
     0
 42
0.0000000001
 43
0.0000000001
 40
0.0
 40
0.0
 40
0.0
 40
0.0
 40
0.2818106443530395
 40
0.5777407165587852
 40
0.9010228886137877
 40
1.391230904184199
 40
1.391230904184199
 40
1.391230904184199
 40
1.391230904184199
 10
89.60577654306916
 20
74.63127276046162
 30
0.0
 10
89.51458721641911
 20
74.60869757541596
 30
0.0
 10
89.32763974663032
 20
74.56241613131061
 30
0.0
 10
89.03499955512279
 20
74.49507638269537
 30
0.0
 10
88.67397934387549
 20
74.41355454368696
 30
0.0
 10
88.40437959964829
 20
74.38221108880575
 30
0.0
 10
88.24191918202286
 20
74.36332356803124
 30
0.0
  0
SPLINE
  5
F16
330
1A
100
AcDbEntity
  8
1
 62
     8
100
AcDbSpline
210
0.0
220
0.0
230
1.0
 70
     8
 71
     3
 72
    10
 73
     6
 74
     0
 42
0.0000000001
 43
0.0000000001
 40
0.0
 40
0.0
 40
0.0
 40
0.0
 40
0.1767671893195819
 40
0.3324877103107063
 40
0.4562507110365228
 40
0.4562507110365228
 40
0.4562507110365228
 40
0.4562507110365228
 10
88.57637702864707
 20
74.63127276046162
 30
0.0
 10
88.52175845848718
 20
74.60928337303304
 30
0.0
 10
88.41902444205118
 20
74.56792275002673
 30
0.0
 10
88.2793742137523
 20
74.50621857364501
 30
0.0
 10
88.2022873097128
 20
74.45360819205814
 30
0.0
 10
88.16815110553864
 20
74.43031086613863
 30
0.0
  0
LINE
  5
F17
330
1A
100
AcDbEntity
  8
1
100
AcDbLine
 10
63.82924098648095
 20
74.63127276046211
 30
0.0
 11
65.82924098648437
 21
74.09537437559933
 31
0.0
  0
ELLIPSE
  5
F18
330
1A
100
AcDbEntity
  8
1
 62
     8
100
AcDbEllipse
 10
76.82924098648118
 20
74.63127276046211
 30
0.0
 11
-1.665603402337409
 21
0.0000000000008119
 31
0.0
210
0.0
220
0.0
230
1.0
 40
0.1608721452267142
 41
0.0000000000013329
 42
3.141592653591126
  0
SPLINE
  5
F19
330
1A
100
AcDbEntity
  8
1
 62
     8
100
AcDbSpline
210
0.0
220
0.0
230
1.0
 70
     8
 71
     3
 72
    11
 73
     7
 74
     0
 42
0.0000000001
 43
0.0000000001
 40
0.0
 40
0.0
 40
0.0
 40
0.0
 40
0.6086661730821504
 40
0.7710122529252771
 40
0.8614720754176893
 40
0.9290680403780534
 40
0.9290680403780534
 40
0.9290680403780534
 40
0.9290680403780534
 10
83.88266401417348
 20
74.36332356803124
 30
0.0
 10
83.67649851787769
 20
74.36772747621844
 30
0.0
 10
83.41534366682111
 20
74.37330601388461
 30
0.0
 10
83.14780173107601
 20
74.47595063992086
 30
0.0
 10
83.06162595884433
 20
74.55340974822172
 30
0.0
 10
83.06046662899138
 20
74.60794821105844
 30
0.0
 10
83.05997081658615
 20
74.63127276046162
 30
0.0
  0
SPLINE
  5
F1A
330
1A
100
AcDbEntity
  8
1
 62
     8
100
AcDbSpline
210
0.0
220
0.0
230
1.0
 70
     8
 71
     3
 72
    10
 73
     6
 74
     0
 42
0.0000000001
 43
0.0000000001
 40
0.0
 40
0.0
 40
0.0
 40
0.0
 40
0.1767671893195819
 40
0.3324877103107063
 40
0.4562507110365228
 40
0.4562507110365228
 40
0.4562507110365228
 40
0.4562507110365228
 10
65.08210494431518
 20
74.63127276046162
 30
0.0
 10
65.13672351447502
 20
74.60928337303304
 30
0.0
 10
65.23945753091095
 20
74.56792275002673
 30
0.0
 10
65.37910775921
 20
74.50621857364501
 30
0.0
 10
65.4561946632495
 20
74.45360819205814
 30
0.0
 10
65.49033086742355
 20
74.43031086613863
 30
0.0
  0
SPLINE
  5
F1B
330
1A
100
AcDbEntity
  8
1
 62
     8
100
AcDbSpline
210
0.0
220
0.0
230
1.0
 70
     8
 71
     3
 72
    11
 73
     7
 74
     0
 42
0.0000000001
 43
0.0000000001
 40
0.0
 40
0.0
 40
0.0
 40
0.0
 40
0.2818106443530395
 40
0.5777407165587852
 40
0.9010228886137877
 40
1.391230904184199
 40
1.391230904184199
 40
1.391230904184199
 40
1.391230904184199
 10
64.05270542989319
 20
74.63127276046162
 30
0.0
 10
64.14389475654321
 20
74.60869757541596
 30
0.0
 10
64.33084222633187
 20
74.56241613131061
 30
0.0
 10
64.62348241783951
 20
74.49507638269537
 30
0.0
 10
64.98450262908676
 20
74.41355454368696
 30
0.0
 10
65.25410237331403
 20
74.38221108880575
 30
0.0
 10
65.41656279093939
 20
74.36332356803124
 30
0.0
  0
SPLINE
  5
F1C
330
1A
100
AcDbEntity
  8
1
 62
     8
100
AcDbSpline
210
0.0
220
0.0
230
1.0
 70
     8
 71
     3
 72
    11
 73
     7
 74
     0
 42
0.0000000001
 43
0.0000000001
 40
0.0
 40
0.0
 40
0.0
 40
0.0
 40
0.2872470759112987
 40
0.6198822485823051
 40
1.033010929009501
 40
1.895118162462643
 40
1.895118162462643
 40
1.895118162462643
 40
1.895118162462643
 10
67.90350823961597
 20
74.63127276046162
 30
0.0
 10
67.99648051987628
 20
74.60833179294045
 30
0.0
 10
68.19711569069835
 20
74.55882494074095
 30
0.0
 10
68.5346501090205
 20
74.49056923623436
 30
0.0
 10
69.06334110342408
 20
74.39961422061734
 30
0.0
 10
69.48843712749305
 20
74.37796157042234
 30
0.0
 10
69.77581795897157
 20
74.36332356803124
 30
0.0
  0
SPLINE
  5
F1D
330
1A
100
AcDbEntity
  8
1
 62
     8
100
AcDbSpline
210
0.0
220
0.0
230
1.0
 70
     8
 71
     3
 72
    11
 73
     7
 74
     0
 42
0.0000000001
 43
0.0000000001
 40
0.0
 40
0.0
 40
0.0
 40
0.0
 40
0.6086661730821504
 40
0.7710122529252771
 40
0.8614720754176893
 40
0.9290680403780534
 40
0.9290680403780534
 40
0.9290680403780534
 40
0.9290680403780534
 10
69.77581795878882
 20
74.36332356803124
 30
0.0
 10
69.98198345508462
 20
74.36772747621844
 30
0.0
 10
70.24313830614119
 20
74.37330601388461
 30
0.0
 10
70.51068024188629
 20
74.47595063992086
 30
0.0
 10
70.59685601411797
 20
74.55340974822172
 30
0.0
 10
70.59801534397087
 20
74.60794821105844
 30
0.0
 10
70.5985111563761
 20
74.63127276046162
 30
0.0
  0
SPLINE
  5
F1E
330
1A
100
AcDbEntity
  8
1
 62
     8
100
AcDbSpline
210
0.0
220
0.0
230
1.0
 70
     8
 71
     3
 72
    11
 73
     7
 74
     0
 42
0.0000000001
 43
0.0000000001
 40
0.0
 40
0.0
 40
0.0
 40
0.0
 40
0.2872470759112987
 40
0.6198822485823051
 40
1.033010929009501
 40
1.895118162462643
 40
1.895118162462643
 40
1.895118162462643
 40
1.895118162462643
 10
85.75497373334632
 20
74.63127276046162
 30
0.0
 10
85.66200145308597
 20
74.60833179294045
 30
0.0
 10
85.46136628226383
 20
74.55882494074095
 30
0.0
 10
85.12383186394179
 20
74.49056923623436
 30
0.0
 10
84.59514086953817
 20
74.39961422061734
 30
0.0
 10
84.17004484546913
 20
74.37796157042234
 30
0.0
 10
83.88266401399068
 20
74.36332356803124
 30
0.0
  0
LINE
  5
F1F
330
1A
100
AcDbEntity
  8
1
100
AcDbLine
 10
74.32924098648141
 20
77.34537437559933
 30
0.0
 11
79.32924098648118
 21
77.34537437560487
 31
0.0
  0
LINE
  5
F20
330
1A
100
AcDbEntity
  8
1
100
AcDbLine
 10
74.32924098648084
 20
77.34537437559845
 30
0.0
 11
74.07924098648186
 21
77.09537437559934
 31
0.0
  0
LINE
  5
F21
330
1A
100
AcDbEntity
  8
1
100
AcDbLine
 10
79.32924098648084
 20
77.34537437559933
 30
0.0
 11
79.57924098648163
 21
77.09537437559934
 31
0.0
  0
LINE
  5
F22
330
1A
100
AcDbEntity
  8
1
100
AcDbLine
 10
74.32924098648084
 20
80.59537437559885
 30
0.0
 11
74.32924098648084
 21
77.34537437559845
 31
0.0
  0
LINE
  5
F23
330
1A
100
AcDbEntity
  8
1
 62
     8
100
AcDbLine
 10
74.7622409864806
 20
80.59537437559885
 30
0.0
 11
74.76224098648117
 21
77.34537437559987
 31
0.0
  0
LINE
  5
F24
330
1A
100
AcDbEntity
  8
1
 62
     8
100
AcDbLine
 10
78.89624098648119
 20
80.59537437559885
 30
0.0
 11
78.89624098648119
 21
77.34537437559987
 31
0.0
  0
LINE
  5
F25
330
1A
100
AcDbEntity
  8
1
100
AcDbLine
 10
79.32924098648118
 20
80.59537437559885
 30
0.0
 11
79.32924098648118
 21
77.34537437559933
 31
0.0
  0
LINE
  5
F26
330
1A
100
AcDbEntity
  8
1
100
AcDbLine
 10
87.82924098648118
 20
77.09537437559934
 30
0.0
 11
65.82924098648118
 21
77.09537437559934
 31
0.0
  0
LINE
  5
F28
330
1A
100
AcDbEntity
  8
1
100
AcDbLine
 10
61.83448026284714
 20
89.69535607559903
 30
0.0
 11
58.82924098648027
 21
89.69535607559903
 31
0.0
  0
LINE
  5
F2A
330
1A
100
AcDbEntity
  8
1
100
AcDbLine
 10
169.8292409864793
 20
77.09537437559934
 30
0.0
 11
169.3292409864794
 21
76.59537437559933
 31
0.0
  0
LINE
  5
F2B
330
1A
100
AcDbEntity
  8
1
100
AcDbLine
 10
191.8292409864794
 20
77.09537437559934
 30
0.0
 11
192.3292409864793
 21
76.59537437559933
 31
0.0
  0
LINE
  5
F2C
330
1A
100
AcDbEntity
  8
1
100
AcDbLine
 10
167.8292409864793
 20
76.59537437559933
 30
0.0
 11
167.8292409864791
 21
74.63127276046211
 31
0.0
  0
LINE
  5
F2D
330
1A
100
AcDbEntity
  8
1
 62
     8
100
AcDbLine
 10
169.0821049443134
 20
74.63127276046162
 30
0.0
 11
169.0821049443134
 21
76.59537437559933
 31
0.0
  0
LINE
  5
F2E
330
1A
100
AcDbEntity
  8
1
 62
     8
100
AcDbLine
 10
168.0527054298915
 20
74.63127276046126
 30
0.0
 11
168.0527054298916
 21
76.59537437559933
 31
0.0
  0
LINE
  5
F2F
330
1A
100
AcDbEntity
  8
1
 62
     8
100
AcDbLine
 10
168.0527054298915
 20
74.63127276046162
 30
0.0
 11
167.8292409864791
 21
74.63127276046211
 31
0.0
  0
LINE
  5
F30
330
1A
100
AcDbEntity
  8
1
 62
     8
100
AcDbLine
 10
171.9035082396143
 20
74.63127276046162
 30
0.0
 11
171.9035082396144
 21
76.59537437559933
 31
0.0
  0
LINE
  5
F31
330
1A
100
AcDbEntity
  8
1
100
AcDbLine
 10
193.8292409864794
 20
76.59537437559933
 30
0.0
 11
193.8292409864796
 21
74.63127276046211
 31
0.0
  0
LINE
  5
F32
330
1A
100
AcDbEntity
  8
1
 62
     8
100
AcDbLine
 10
182.4948443888171
 20
74.63127276046211
 30
0.0
 11
182.4948443888167
 21
76.59537437559933
 31
0.0
  0
LINE
  5
F33
330
1A
100
AcDbEntity
  8
1
 62
     8
100
AcDbLine
 10
179.1636375841421
 20
74.63127276046211
 30
0.0
 11
179.1636375841418
 21
76.59537437559933
 31
0.0
  0
LINE
  5
F34
330
1A
100
AcDbEntity
  8
1
 62
     8
100
AcDbLine
 10
174.5985111563743
 20
74.63127276046162
 30
0.0
 11
174.5985111563743
 21
76.59537437559933
 31
0.0
  0
LINE
  5
F35
330
1A
100
AcDbEntity
  8
1
 62
     8
100
AcDbLine
 10
179.1636375841421
 20
74.63127276046162
 30
0.0
 11
174.5985111563743
 21
74.63127276046162
 31
0.0
  0
LINE
  5
F36
330
1A
100
AcDbEntity
  8
1
 62
     8
100
AcDbLine
 10
193.6057765430674
 20
74.63127276046126
 30
0.0
 11
193.6057765430671
 21
76.59537437559933
 31
0.0
  0
LINE
  5
F37
330
1A
100
AcDbEntity
  8
1
 62
     8
100
AcDbLine
 10
192.5763770286453
 20
74.63127276046162
 30
0.0
 11
192.5763770286453
 21
76.59537437559933
 31
0.0
  0
LINE
  5
F38
330
1A
100
AcDbEntity
  8
1
 62
     8
100
AcDbLine
 10
189.7549737333446
 20
74.63127276046162
 30
0.0
 11
189.7549737333442
 21
76.59537437559933
 31
0.0
  0
LINE
  5
F39
330
1A
100
AcDbEntity
  8
1
 62
     8
100
AcDbLine
 10
187.0599708165843
 20
74.63127276046162
 30
0.0
 11
187.0599708165843
 21
76.59537437559933
 31
0.0
  0
LINE
  5
F3A
330
1A
100
AcDbEntity
  8
1
 62
     8
100
AcDbLine
 10
187.0599708165843
 20
74.63127276046162
 30
0.0
 11
182.4948443888172
 21
74.63127276046162
 31
0.0
  0
LINE
  5
F3B
330
1A
100
AcDbEntity
  8
1
 62
     8
100
AcDbLine
 10
193.8292409864796
 20
74.63127276046211
 30
0.0
 11
193.6057765430691
 21
74.63127276046211
 31
0.0
  0
LINE
  5
F3C
330
1A
100
AcDbEntity
  8
1
 62
     8
100
AcDbLine
 10
192.5763770286464
 20
74.63127276046211
 30
0.0
 11
189.7549737333447
 21
74.63127276046211
 31
0.0
  0
LINE
  5
F3D
330
1A
100
AcDbEntity
  8
1
 62
     8
100
AcDbLine
 10
171.9035082396143
 20
74.63127276046162
 30
0.0
 11
169.0821049443136
 21
74.63127276046162
 31
0.0
  0
LINE
  5
F3E
330
1A
100
AcDbEntity
  8
1
100
AcDbLine
 10
193.8292409864794
 20
76.59537437559933
 30
0.0
 11
167.8292409864791
 21
76.59537437559933
 31
0.0
  0
SPLINE
  5
F3F
330
1A
100
AcDbEntity
  8
1
 62
     8
100
AcDbSpline
210
0.0
220
0.0
230
1.0
 70
     8
 71
     3
 72
     9
 73
     5
 74
     0
 42
0.0000000001
 43
0.0000000001
 40
0.0
 40
0.0
 40
0.0
 40
0.0
 40
0.0709646172400961
 40
0.1241404801011342
 40
0.1241404801011342
 40
0.1241404801011342
 40
0.1241404801011342
 10
169.4165627909376
 20
74.36332356803124
 30
0.0
 10
169.4458498078568
 20
74.36257417159493
 30
0.0
 10
169.4970824429706
 20
74.36126323049473
 30
0.0
 10
169.49235561511
 20
74.40960398970204
 30
0.0
 10
169.4903308674218
 20
74.43031086613863
 30
0.0
  0
ARC
  5
F40
330
1A
100
AcDbEntity
  8
1
100
AcDbCircle
 10
174.59719017891
 20
72.59537437559933
 30
0.0
 40
1.5
100
AcDbArc
 50
30.00000000000005
 51
90.0
  0
LINE
  5
F41
330
1A
100
AcDbEntity
  8
1
100
AcDbLine
 10
175.8962282845866
 20
73.34537437559934
 30
0.0
 11
176.3292409864791
 21
72.59537437559933
 31
0.0
  0
LINE
  5
F42
330
1A
100
AcDbEntity
  8
1
100
AcDbLine
 10
185.7622536883722
 20
73.34537437559934
 30
0.0
 11
185.3292409864797
 21
72.59537437559933
 31
0.0
  0
ARC
  5
F43
330
1A
100
AcDbEntity
  8
1
100
AcDbCircle
 10
187.0612917940486
 20
72.59537437559933
 30
0.0
 40
1.5
100
AcDbArc
 50
90.0
 51
150.0
  0
LINE
  5
F44
330
1A
100
AcDbEntity
  8
1
100
AcDbLine
 10
176.3292409864791
 20
72.59537437559933
 30
0.0
 11
185.3292409864819
 21
72.59537437560394
 31
0.0
  0
ARC
  5
F45
330
1A
100
AcDbEntity
  8
1
100
AcDbCircle
 10
180.8292409864793
 20
78.09537437559933
 30
0.0
 40
6.5
100
AcDbArc
 50
237.7957724960212
 51
302.2042275040344
  0
SPLINE
  5
F46
330
1A
100
AcDbEntity
  8
1
 62
     8
100
AcDbSpline
210
0.0
220
0.0
230
1.0
 70
     8
 71
     3
 72
     9
 73
     5
 74
     0
 42
0.0000000001
 43
0.0000000001
 40
0.0
 40
0.0
 40
0.0
 40
0.0
 40
0.0709646172400961
 40
0.1241404801011342
 40
0.1241404801011342
 40
0.1241404801011342
 40
0.1241404801011342
 10
192.2419191820211
 20
74.36332356803124
 30
0.0
 10
192.2126321651019
 20
74.36257417159493
 30
0.0
 10
192.1613995299881
 20
74.36126323049425
 30
0.0
 10
192.1661263578487
 20
74.40960398970204
 30
0.0
 10
192.1681511055369
 20
74.43031086613863
 30
0.0
  0
LINE
  5
F47
330
1A
100
AcDbEntity
  8
1
100
AcDbLine
 10
191.8292409864762
 20
74.09537437559933
 30
0.0
 11
169.8292409864806
 21
74.09537437559933
 31
0.0
  0
LINE
  5
F48
330
1A
100
AcDbEntity
  8
1
100
AcDbLine
 10
167.8292409864791
 20
74.63127276046211
 30
0.0
 11
169.8292409864825
 21
74.09537437559933
 31
0.0
  0
SPLINE
  5
F49
330
1A
100
AcDbEntity
  8
1
 62
     8
100
AcDbSpline
210
0.0
220
0.0
230
1.0
 70
     8
 71
     3
 72
    11
 73
     7
 74
     0
 42
0.0000000001
 43
0.0000000001
 40
0.0
 40
0.0
 40
0.0
 40
0.0
 40
0.2818106443530395
 40
0.5777407165587852
 40
0.9010228886137877
 40
1.391230904184199
 40
1.391230904184199
 40
1.391230904184199
 40
1.391230904184199
 10
168.0527054298915
 20
74.63127276046162
 30
0.0
 10
168.1438947565415
 20
74.60869757541596
 30
0.0
 10
168.3308422263301
 20
74.56241613131061
 30
0.0
 10
168.6234824178377
 20
74.49507638269537
 30
0.0
 10
168.9845026290851
 20
74.41355454368696
 30
0.0
 10
169.2541023733122
 20
74.38221108880575
 30
0.0
 10
169.4165627909376
 20
74.36332356803124
 30
0.0
  0
SPLINE
  5
F4A
330
1A
100
AcDbEntity
  8
1
 62
     8
100
AcDbSpline
210
0.0
220
0.0
230
1.0
 70
     8
 71
     3
 72
    10
 73
     6
 74
     0
 42
0.0000000001
 43
0.0000000001
 40
0.0
 40
0.0
 40
0.0
 40
0.0
 40
0.1767671893195819
 40
0.3324877103107063
 40
0.4562507110365228
 40
0.4562507110365228
 40
0.4562507110365228
 40
0.4562507110365228
 10
169.0821049443134
 20
74.63127276046162
 30
0.0
 10
169.1367235144733
 20
74.60928337303304
 30
0.0
 10
169.2394575309092
 20
74.56792275002673
 30
0.0
 10
169.3791077592083
 20
74.50621857364501
 30
0.0
 10
169.4561946632477
 20
74.45360819205814
 30
0.0
 10
169.4903308674218
 20
74.43031086613863
 30
0.0
  0
LINE
  5
F4B
330
1A
100
AcDbEntity
  8
1
100
AcDbLine
 10
193.8292409864796
 20
74.63127276046211
 30
0.0
 11
191.8292409864762
 21
74.09537437559933
 31
0.0
  0
ELLIPSE
  5
F4C
330
1A
100
AcDbEntity
  8
1
 62
     8
100
AcDbEllipse
 10
180.8292409864794
 20
74.63127276046211
 30
0.0
 11
1.665603402337409
 21
0.0000000000008117
 31
0.0
210
0.0
220
0.0
230
-1.0
 40
0.1608721452267142
 41
0.0000000000013329
 42
3.141592653591126
  0
SPLINE
  5
F4D
330
1A
100
AcDbEntity
  8
1
 62
     8
100
AcDbSpline
210
0.0
220
0.0
230
1.0
 70
     8
 71
     3
 72
    11
 73
     7
 74
     0
 42
0.0000000001
 43
0.0000000001
 40
0.0
 40
0.0
 40
0.0
 40
0.0
 40
0.6086661730821504
 40
0.7710122529252771
 40
0.8614720754176893
 40
0.9290680403780534
 40
0.9290680403780534
 40
0.9290680403780534
 40
0.9290680403780534
 10
173.7758179587871
 20
74.36332356803124
 30
0.0
 10
173.9819834550829
 20
74.36772747621844
 30
0.0
 10
174.2431383061393
 20
74.37330601388461
 30
0.0
 10
174.5106802418845
 20
74.47595063992086
 30
0.0
 10
174.5968560141162
 20
74.55340974822172
 30
0.0
 10
174.5980153439691
 20
74.60794821105844
 30
0.0
 10
174.5985111563743
 20
74.63127276046162
 30
0.0
  0
SPLINE
  5
F4E
330
1A
100
AcDbEntity
  8
1
 62
     8
100
AcDbSpline
210
0.0
220
0.0
230
1.0
 70
     8
 71
     3
 72
    10
 73
     6
 74
     0
 42
0.0000000001
 43
0.0000000001
 40
0.0
 40
0.0
 40
0.0
 40
0.0
 40
0.1767671893195819
 40
0.3324877103107063
 40
0.4562507110365228
 40
0.4562507110365228
 40
0.4562507110365228
 40
0.4562507110365228
 10
192.5763770286453
 20
74.63127276046162
 30
0.0
 10
192.5217584584856
 20
74.60928337303304
 30
0.0
 10
192.4190244420494
 20
74.56792275002673
 30
0.0
 10
192.2793742137506
 20
74.50621857364501
 30
0.0
 10
192.2022873097111
 20
74.45360819205814
 30
0.0
 10
192.1681511055369
 20
74.43031086613863
 30
0.0
  0
SPLINE
  5
F4F
330
1A
100
AcDbEntity
  8
1
 62
     8
100
AcDbSpline
210
0.0
220
0.0
230
1.0
 70
     8
 71
     3
 72
    11
 73
     7
 74
     0
 42
0.0000000001
 43
0.0000000001
 40
0.0
 40
0.0
 40
0.0
 40
0.0
 40
0.2818106443530395
 40
0.5777407165587852
 40
0.9010228886137877
 40
1.391230904184199
 40
1.391230904184199
 40
1.391230904184199
 40
1.391230904184199
 10
193.6057765430674
 20
74.63127276046162
 30
0.0
 10
193.5145872164174
 20
74.60869757541596
 30
0.0
 10
193.3276397466287
 20
74.56241613131061
 30
0.0
 10
193.0349995551209
 20
74.49507638269537
 30
0.0
 10
192.6739793438737
 20
74.41355454368696
 30
0.0
 10
192.4043795996465
 20
74.38221108880575
 30
0.0
 10
192.2419191820211
 20
74.36332356803124
 30
0.0
  0
SPLINE
  5
F50
330
1A
100
AcDbEntity
  8
1
 62
     8
100
AcDbSpline
210
0.0
220
0.0
230
1.0
 70
     8
 71
     3
 72
    11
 73
     7
 74
     0
 42
0.0000000001
 43
0.0000000001
 40
0.0
 40
0.0
 40
0.0
 40
0.0
 40
0.2872470759112987
 40
0.6198822485823051
 40
1.033010929009501
 40
1.895118162462643
 40
1.895118162462643
 40
1.895118162462643
 40
1.895118162462643
 10
189.7549737333446
 20
74.63127276046162
 30
0.0
 10
189.6620014530843
 20
74.60833179294045
 30
0.0
 10
189.4613662822622
 20
74.55882494074095
 30
0.0
 10
189.1238318639402
 20
74.49056923623436
 30
0.0
 10
188.5951408695365
 20
74.39961422061734
 30
0.0
 10
188.1700448454674
 20
74.37796157042234
 30
0.0
 10
187.882664013989
 20
74.36332356803124
 30
0.0
  0
SPLINE
  5
F51
330
1A
100
AcDbEntity
  8
1
 62
     8
100
AcDbSpline
210
0.0
220
0.0
230
1.0
 70
     8
 71
     3
 72
    11
 73
     7
 74
     0
 42
0.0000000001
 43
0.0000000001
 40
0.0
 40
0.0
 40
0.0
 40
0.0
 40
0.6086661730821504
 40
0.7710122529252771
 40
0.8614720754176893
 40
0.9290680403780534
 40
0.9290680403780534
 40
0.9290680403780534
 40
0.9290680403780534
 10
187.8826640141718
 20
74.36332356803124
 30
0.0
 10
187.6764985178758
 20
74.36772747621844
 30
0.0
 10
187.4153436668195
 20
74.37330601388461
 30
0.0
 10
187.1478017310742
 20
74.47595063992086
 30
0.0
 10
187.0616259588426
 20
74.55340974822172
 30
0.0
 10
187.0604666289896
 20
74.60794821105844
 30
0.0
 10
187.0599708165843
 20
74.63127276046162
 30
0.0
  0
SPLINE
  5
F52
330
1A
100
AcDbEntity
  8
1
 62
     8
100
AcDbSpline
210
0.0
220
0.0
230
1.0
 70
     8
 71
     3
 72
    11
 73
     7
 74
     0
 42
0.0000000001
 43
0.0000000001
 40
0.0
 40
0.0
 40
0.0
 40
0.0
 40
0.2872470759112987
 40
0.6198822485823051
 40
1.033010929009501
 40
1.895118162462643
 40
1.895118162462643
 40
1.895118162462643
 40
1.895118162462643
 10
171.9035082396143
 20
74.63127276046162
 30
0.0
 10
171.9964805198744
 20
74.60833179294045
 30
0.0
 10
172.1971156906967
 20
74.55882494074095
 30
0.0
 10
172.5346501090187
 20
74.49056923623436
 30
0.0
 10
173.0633411034223
 20
74.39961422061734
 30
0.0
 10
173.4884371274913
 20
74.37796157042234
 30
0.0
 10
173.7758179589698
 20
74.36332356803124
 30
0.0
  0
LINE
  5
F53
330
1A
100
AcDbEntity
  8
1
100
AcDbLine
 10
183.3292409864791
 20
77.34537437559933
 30
0.0
 11
178.3292409864793
 21
77.34537437560487
 31
0.0
  0
LINE
  5
F54
330
1A
100
AcDbEntity
  8
1
100
AcDbLine
 10
183.3292409864797
 20
77.34537437559845
 30
0.0
 11
183.5792409864786
 21
77.09537437559934
 31
0.0
  0
LINE
  5
F55
330
1A
100
AcDbEntity
  8
1
100
AcDbLine
 10
178.3292409864797
 20
77.34537437559933
 30
0.0
 11
178.079240986479
 21
77.09537437559934
 31
0.0
  0
LINE
  5
F56
330
1A
100
AcDbEntity
  8
1
100
AcDbLine
 10
183.3292409864796
 20
80.59537437559885
 30
0.0
 11
183.3292409864797
 21
77.34537437559845
 31
0.0
  0
LINE
  5
F57
330
1A
100
AcDbEntity
  8
1
 62
     8
100
AcDbLine
 10
182.89624098648
 20
80.59537437559885
 30
0.0
 11
182.8962409864795
 21
77.34537437559987
 31
0.0
  0
LINE
  5
F58
330
1A
100
AcDbEntity
  8
1
 62
     8
100
AcDbLine
 10
178.7622409864793
 20
80.59537437559885
 30
0.0
 11
178.7622409864793
 21
77.34537437559987
 31
0.0
  0
LINE
  5
F59
330
1A
100
AcDbEntity
  8
1
100
AcDbLine
 10
178.3292409864793
 20
80.59537437559885
 30
0.0
 11
178.3292409864793
 21
77.34537437559933
 31
0.0
  0
LINE
  5
F5A
330
1A
100
AcDbEntity
  8
1
100
AcDbLine
 10
169.8292409864793
 20
77.09537437559934
 30
0.0
 11
191.8292409864794
 21
77.09537437559934
 31
0.0
  0
ARC
  5
F5C
330
1A
100
AcDbEntity
  8
1
100
AcDbCircle
 10
553.8292409864798
 20
125.891923234746
 30
0.0
 40
0.5
100
AcDbArc
 50
11.3099324740203
 51
90.0
  0
LINE
  5
F5D
330
1A
100
AcDbEntity
  8
1
100
AcDbLine
 10
554.3195313243256
 20
125.9899813023156
 30
0.0
 11
555.3195313243254
 21
120.9899813023155
 31
0.0
  0
LINE
  5
F5E
330
1A
100
AcDbEntity
  8
1
100
AcDbLine
 10
554.8292409864802
 20
120.8919232347464
 30
0.0
 11
555.3195313243254
 21
120.9899813023155
 31
0.0
  0
LINE
  5
F5F
330
1A
100
AcDbEntity
  8
1
100
AcDbLine
 10
554.8292409864802
 20
120.8919232347464
 30
0.0
 11
482.8292409864802
 21
120.8919232347464
 31
0.0
  0
LINE
  5
F60
330
1A
100
AcDbEntity
  8
1
100
AcDbLine
 10
553.8292409864802
 20
126.3919232347464
 30
0.0
 11
483.8292409864802
 21
126.3919232347464
 31
0.0
  0
LINE
  5
F61
330
1A
100
AcDbEntity
  8
1
100
AcDbLine
 10
482.8292409864802
 20
120.8919232347464
 30
0.0
 11
482.3389506486352
 21
120.9899813023155
 31
0.0
  0
LINE
  5
F62
330
1A
100
AcDbEntity
  8
1
100
AcDbLine
 10
483.3389506486351
 20
125.9899813023156
 30
0.0
 11
482.3389506486352
 21
120.9899813023155
 31
0.0
  0
ARC
  5
F63
330
1A
100
AcDbEntity
  8
1
100
AcDbCircle
 10
483.8292409864798
 20
125.891923234746
 30
0.0
 40
0.5
100
AcDbArc
 50
90.0
 51
168.6900675259796
  0
LINE
  5
F64
330
1A
100
AcDbEntity
  8
1
100
AcDbLine
 10
568.0912911146405
 20
75.59537437559933
 30
0.0
 11
525.5672029848471
 21
75.59537437559933
 31
0.0
  0
LINE
  5
F65
330
1A
100
AcDbEntity
  8
1
100
AcDbLine
 10
583.9236450276299
 20
80.59537437560022
 30
0.0
 11
453.7348369453306
 21
80.59537437560022
 31
0.0
  0
LINE
  5
F66
330
1A
100
AcDbEntity
  8
1
100
AcDbLine
 10
585.8240017101137
 20
89.6953560755997
 30
0.0
 11
585.421589329761
 21
82.01687044123563
 31
0.0
  0
ARC
  5
F67
330
1A
100
AcDbEntity
  8
1
100
AcDbCircle
 10
583.9236450276297
 20
82.09537437560021
 30
0.0
 40
1.5
100
AcDbArc
 50
270.0
 51
357.0000000000009
  0
LINE
  5
F68
330
1A
100
AcDbEntity
  8
1
100
AcDbLine
 10
579.1437552399931
 20
75.59537437559933
 30
0.0
 11
573.5672133218122
 21
75.59537437559922
 31
0.0
  0
LINE
  5
F69
330
1A
100
AcDbEntity
  8
1
100
AcDbLine
 10
580.8292409864803
 20
80.59537437559923
 30
0.0
 11
580.6416995421248
 21
77.01687044123494
 31
0.0
  0
ARC
  5
F6A
330
1A
100
AcDbEntity
  8
1
100
AcDbCircle
 10
579.1437552399927
 20
77.09537437559934
 30
0.0
 40
1.5
100
AcDbArc
 50
270.0
 51
357.0000000000019
  0
ARC
  5
F6C
330
1A
100
AcDbEntity
  8
1
100
AcDbCircle
 10
570.8292522182261
 20
85.09537437558805
 30
0.0
 40
11.8
100
AcDbArc
 50
259.0121075727743
 51
280.9878924272273
  0
LINE
  5
F6D
330
1A
100
AcDbEntity
  8
1
100
AcDbLine
 10
568.1761398613017
 20
73.97636384277351
 30
0.0
 11
567.8292522182261
 21
80.59537437557972
 31
0.0
  0
LINE
  5
F6F
330
1A
100
AcDbEntity
  8
1
100
AcDbLine
 10
573.4823645751506
 20
73.97636384277365
 30
0.0
 11
573.8292522182262
 21
80.59537437557883
 31
0.0
  0
LINE
  5
F70
330
1A
100
AcDbEntity
  8
1
100
AcDbLine
 10
451.834480262845
 20
89.69535607559896
 30
0.0
 11
452.2368926431995
 21
82.01687044123563
 31
0.0
  0
ARC
  5
F71
330
1A
100
AcDbEntity
  8
1
100
AcDbCircle
 10
466.8292315443014
 20
85.09537437558805
 30
0.0
 40
11.8
100
AcDbArc
 50
259.0121075727771
 51
280.9878924272244
  0
LINE
  5
F72
330
1A
100
AcDbEntity
  8
1
100
AcDbLine
 10
511.8292418812618
 20
80.59537437558972
 30
0.0
 11
512.2244596162333
 21
73.05417075318212
 31
0.0
  0
ARC
  5
F73
330
1A
100
AcDbEntity
  8
1
100
AcDbCircle
 10
518.8292418812618
 20
103.5953743755888
 30
0.0
 40
32.0
100
AcDbArc
 50
259.581096909975
 51
280.4189030900256
  0
LINE
  5
F76
330
1A
100
AcDbEntity
  8
1
100
AcDbLine
 10
525.829241881262
 20
80.59537437558933
 30
0.0
 11
525.4340241462903
 21
73.05417075318223
 31
0.0
  0
LINE
  5
F77
330
1A
100
AcDbEntity
  8
1
 62
     8
100
AcDbLine
 10
504.8292563443006
 20
83.09536404799004
 30
0.0
 11
504.829256344301
 21
80.59537437559205
 31
0.0
  0
LINE
  5
F78
330
1A
100
AcDbEntity
  8
1
 62
     8
100
AcDbLine
 10
482.8292563443008
 20
83.09536404799047
 30
0.0
 11
482.8292563443008
 21
80.59537437558834
 31
0.0
  0
LINE
  5
F79
330
1A
100
AcDbEntity
  8
1
100
AcDbLine
 10
469.482343901226
 20
73.97636384277103
 30
0.0
 11
469.8292315443016
 21
80.59537437557972
 31
0.0
  0
LINE
  5
F7B
330
1A
100
AcDbEntity
  8
1
100
AcDbLine
 10
512.0912807776766
 20
75.59537437559933
 30
0.0
 11
469.5671926478873
 21
75.59537437559922
 31
0.0
  0
LINE
  5
F7C
330
1A
100
AcDbEntity
  8
1
 62
     8
100
AcDbLine
 10
504.8292563443006
 20
83.09536404799004
 30
0.0
 11
482.8292563443008
 21
83.09536404799047
 31
0.0
  0
ARC
  5
F7D
330
1A
100
AcDbEntity
  8
1
100
AcDbCircle
 10
453.7348369453304
 20
82.09537437560021
 30
0.0
 40
1.5
100
AcDbArc
 50
182.9999999999983
 51
270.0
  0
LINE
  5
F7E
330
1A
100
AcDbEntity
  8
1
100
AcDbLine
 10
456.8292609864808
 20
80.59537437559923
 30
0.0
 11
457.0168024308363
 21
77.01687044123471
 31
0.0
  0
ARC
  5
F7F
330
1A
100
AcDbEntity
  8
1
100
AcDbCircle
 10
458.5147467329679
 20
77.09537437559934
 30
0.0
 40
1.5
100
AcDbArc
 50
183.000000000003
 51
270.0
  0
LINE
  5
F80
330
1A
100
AcDbEntity
  8
1
100
AcDbLine
 10
464.1761191873772
 20
73.97636384277092
 30
0.0
 11
463.8292315443016
 21
80.59537437557883
 31
0.0
  0
LINE
  5
F82
330
1A
100
AcDbEntity
  8
1
100
AcDbLine
 10
464.0912704407159
 20
75.59537437559933
 30
0.0
 11
458.5147467329682
 21
75.59537437559933
 31
0.0
  0
LINE
  5
F83
330
1A
100
AcDbEntity
  8
1
100
AcDbLine
 10
451.7725134357602
 20
118.695356075599
 30
0.0
 11
585.8859685371995
 21
118.695356075599
 31
0.0
  0
LINE
  5
F84
330
1A
100
AcDbEntity
  8
1
100
AcDbLine
 10
448.8292409864802
 20
89.69535607559896
 30
0.0
 11
588.8292409864802
 21
89.69535607559993
 31
0.0
  0
LINE
  5
F85
330
1A
100
AcDbEntity
  8
1
 62
     8
100
AcDbLine
 10
486.0792409864802
 20
120.1953560755991
 30
0.0
 11
551.5792409864802
 21
120.1953560755991
 31
0.0
  0
INSERT
  5
F86
330
1A
100
AcDbEntity
  8
1
  6
CONTINUOUS
 62
     8
100
AcDbBlockReference
  2
*U9
 10
0.0
 20
0.0
 30
0.0
1001
ACAD
1002
{
1000
R14_HATCH_DATA
1000
F86
1011
1.0
1021
0.0
1031
0.0
1011
0.0
1021
1.0
1031
0.0
1011
0.0
1021
0.0
1031
1.0
1040
0.0
1010
0.0
1020
0.0
1030
1.0
1000
SOLID
1070
     1
1070
     0
1071
        2
1071
        7
1070
     1
1070
     1
1071
        2
1040
546.8292409864802
1040
104.195356075599
1040
0.0
1040
546.8292409864802
1040
105.195356075599
1040
1.0
1071
        0
1071
        7
1070
     1
1070
     1
1071
        2
1040
546.8292409864802
1040
105.195356075599
1040
0.0
1040
546.8292409864802
1040
104.195356075599
1040
1.0
1071
        0
1070
     0
1070
     1
1040
0.015947432594908
1071
        2
1040
546.6085837098012
1040
104.715286328217
1040
0.0
1040
547.0391622015555
1040
104.6674253621784
1040
0.0
1002
}
  0
LINE
  5
F87
330
1A
100
AcDbEntity
  8
1
100
AcDbLine
 10
587.3839128393314
 20
117.2738600099636
 30
0.0
 11
588.8292409864802
 21
89.69535607559993
 31
0.0
  0
LINE
  5
F88
330
1A
100
AcDbEntity
  8
1
 62
     8
100
AcDbLine
 10
538.9864007634842
 20
109.695356075599
 30
0.0
 11
554.6720812094745
 21
109.695356075599
 31
0.0
  0
ARC
  5
F89
330
1A
100
AcDbEntity
  8
1
100
AcDbCircle
 10
585.885968537199
 20
117.195356075599
 30
0.0
 40
1.5
100
AcDbArc
 50
3.000000000000149
 51
90.0
  0
LINE
  5
F8A
330
1A
100
AcDbEntity
  8
1
 62
     8
100
AcDbLine
 10
545.8292409864802
 20
104.695356075599
 30
0.0
 11
541.8292409864802
 21
104.695356075599
 31
0.0
  0
CIRCLE
  5
F8B
330
1A
100
AcDbEntity
  8
1
 62
     8
100
AcDbCircle
 10
546.8292409864798
 20
104.695356075599
 30
0.0
 40
0.5
  0
ARC
  5
F8C
330
1A
100
AcDbEntity
  8
1
 62
     8
100
AcDbCircle
 10
546.8292409864798
 20
104.695356075599
 30
0.0
 40
1.0
100
AcDbArc
 50
44.99999999999079
 51
315.0000000000183
  0
LINE
  5
F8D
330
1A
100
AcDbEntity
  8
1
 62
     8
100
AcDbLine
 10
552.1292409864805
 20
104.695356075599
 30
0.0
 11
553.5292409864801
 21
104.695356075599
 31
0.0
  0
LINE
  5
F8E
330
1A
100
AcDbEntity
  8
1
 62
     8
100
AcDbLine
 10
541.5292409864802
 20
104.695356075599
 30
0.0
 11
540.1292409864804
 21
104.695356075599
 31
0.0
  0
LINE
  5
F8F
330
1A
100
AcDbEntity
  8
1
 62
     8
100
AcDbLine
 10
540.8292409864801
 20
105.3953560755996
 30
0.0
 11
540.8292409864801
 21
103.9953560755991
 31
0.0
  0
LINE
  5
F90
330
1A
100
AcDbEntity
  8
1
 62
     8
100
AcDbLine
 10
551.8292409864803
 20
104.695356075599
 30
0.0
 11
547.3292409864803
 21
104.695356075599
 31
0.0
  0
CIRCLE
  5
F91
330
1A
100
AcDbEntity
  8
1
 62
     8
100
AcDbCircle
 10
540.8292409864798
 20
104.695356075599
 30
0.0
 40
1.0
  0
CIRCLE
  5
F92
330
1A
100
AcDbEntity
  8
1
 62
     8
100
AcDbCircle
 10
552.8292409864798
 20
104.695356075599
 30
0.0
 40
1.0
  0
TEXT
  5
F93
330
1A
100
AcDbEntity
  8
1
 62
     8
100
AcDbText
 10
538.914955272194
 20
106.195356075599
 30
0.0
 40
2.0
  1
DC6V～10V
  7
AD-STANDARD
 72
     1
 11
546.8292409864798
 21
106.195356075599
 31
0.0
100
AcDbText
  0
CIRCLE
  5
F94
330
1A
100
AcDbEntity
  8
1
 62
     8
100
AcDbCircle
 10
546.8292409864798
 20
97.69535607559902
 30
0.0
 40
4.5
  0
LINE
  5
F95
330
1A
100
AcDbEntity
  8
1
 62
     8
100
AcDbLine
 10
536.9864769173557
 20
107.7128091465957
 30
0.0
 11
536.8292409864801
 21
89.69535607559896
 31
0.0
  0
LINE
  5
F96
330
1A
100
AcDbEntity
  8
1
 62
     8
100
AcDbLine
 10
556.6720050556027
 20
107.7128091465957
 30
0.0
 11
556.8292409864795
 21
89.69535607559993
 31
0.0
  0
LINE
  5
F97
330
1A
100
AcDbEntity
  8
1
 62
     8
100
AcDbLine
 10
551.5792409864802
 20
120.1953560755991
 30
0.0
 11
551.8292409864803
 21
118.695356075599
 31
0.0
  0
ARC
  5
F98
330
1A
100
AcDbEntity
  8
1
 62
     8
100
AcDbCircle
 10
538.986400763484
 20
107.695356075599
 30
0.0
 40
2.0
100
AcDbArc
 50
90.0
 51
179.5000000000039
  0
ARC
  5
F99
330
1A
100
AcDbEntity
  8
1
 62
     8
100
AcDbCircle
 10
554.6720812094742
 20
107.695356075599
 30
0.0
 40
2.0
100
AcDbArc
 50
0.4999999999992788
 51
90.0
  0
LINE
  5
F9A
330
1A
100
AcDbEntity
  8
1
100
AcDbLine
 10
450.2745691336282
 20
117.2738600099636
 30
0.0
 11
448.8292409864802
 21
89.69535607559896
 31
0.0
  0
ARC
  5
F9B
330
1A
100
AcDbEntity
  8
1
100
AcDbCircle
 10
451.7725134357597
 20
117.195356075599
 30
0.0
 40
1.5
100
AcDbArc
 50
90.0
 51
176.9999999999997
  0
LINE
  5
F9C
330
1A
100
AcDbEntity
  8
1
 62
     8
100
AcDbLine
 10
486.0792409864802
 20
120.1953560755991
 30
0.0
 11
485.8292409864801
 21
118.695356075599
 31
0.0
  0
LINE
  5
F9E
330
1A
100
AcDbEntity
  8
1
 62
     8
100
AcDbLine
 10
289.3608249923186
 20
205.8413328476946
 30
0.0
 11
289.3608249923186
 21
325.8413328476953
 31
0.0
  0
LINE
  5
F9F
330
1A
100
AcDbEntity
  8
1
 62
     8
100
AcDbLine
 10
289.8589223413644
 20
205.8413328476945
 30
0.0
 11
289.8589223413644
 21
325.8413328476953
 31
0.0
  0
LINE
  5
FA0
330
1A
100
AcDbEntity
  8
1
 62
     8
100
AcDbLine
 10
266.4483469362082
 20
205.8413328476945
 30
0.0
 11
266.4483469362082
 21
325.8413328476953
 31
0.0
  0
LINE
  5
FA1
330
1A
100
AcDbEntity
  8
1
 62
     8
100
AcDbLine
 10
265.9502495871625
 20
205.8413328476945
 30
0.0
 11
265.9502495871625
 21
325.8413328476953
 31
0.0
  0
LINE
  5
FA2
330
1A
100
AcDbEntity
  8
1
 62
     8
100
AcDbLine
 10
284.6787099112873
 20
267.8413328476946
 30
0.0
 11
284.6787099112873
 21
307.8413328476946
 31
0.0
  0
LINE
  5
FA3
330
1A
100
AcDbEntity
  8
1
 62
     8
100
AcDbLine
 10
271.1304620172395
 20
267.8413328476945
 30
0.0
 11
271.1304620172395
 21
307.8413328476945
 31
0.0
  0
LINE
  5
FA7
330
1A
100
AcDbEntity
  8
1
 62
     8
100
AcDbLine
 10
291.7127410550433
 20
318.4599963169043
 30
0.0
 11
291.7127410550433
 21
317.8974441489289
 31
0.0
  0
LINE
  5
FA8
330
1A
100
AcDbEntity
  8
1
 62
     8
100
AcDbLine
 10
291.7127410550433
 20
320.8413328476945
 30
0.0
 11
291.7127410550433
 21
320.3025695865791
 31
0.0
  0
LINE
  5
FA9
330
1A
100
AcDbEntity
  8
1
 62
     8
100
AcDbLine
 10
291.7127410550433
 20
314.5923660959105
 30
0.0
 11
291.7127410550433
 21
314.0415197537412
 31
0.0
  0
LINE
  5
FAA
330
1A
100
AcDbEntity
  8
1
 62
     8
100
AcDbLine
 10
291.7127410550433
 20
316.9221499693409
 30
0.0
 11
291.7127410550433
 21
316.3833867082254
 31
0.0
  0
LINE
  5
FAB
330
1A
100
AcDbEntity
  8
1
 62
     8
100
AcDbLine
 10
292.2434139707167
 20
316.383386708226
 30
0.0
 11
291.7127410550433
 21
316.3833867082256
 31
0.0
  0
LINE
  5
FAC
330
1A
100
AcDbEntity
  8
1
 62
     8
100
AcDbLine
 10
294.2755674888777
 20
316.3833867082256
 30
0.0
 11
293.0918729950816
 21
316.3833867082256
 31
0.0
  0
LINE
  5
FAD
330
1A
100
AcDbEntity
  8
1
 62
     8
100
AcDbLine
 10
292.2434139707167
 20
318.0300021272064
 30
0.0
 11
291.7127410550433
 21
318.4599963169043
 31
0.0
  0
LINE
  5
FAE
330
1A
100
AcDbEntity
  8
1
 62
     8
100
AcDbLine
 10
294.2755674888776
 20
316.3833867082256
 30
0.0
 11
293.0918729950816
 21
317.3425118862343
 31
0.0
  0
LINE
  5
FAF
330
1A
100
AcDbEntity
  8
1
 62
     8
100
AcDbLine
 10
294.4803691652818
 20
318.0600130673019
 30
0.0
 11
291.7127410550433
 21
320.302569586579
 31
0.0
  0
LINE
  5
FB0
330
1A
100
AcDbEntity
  8
1
 62
     8
100
AcDbLine
 10
294.4803691652818
 20
318.5025458942627
 30
0.0
 11
294.4803691652818
 21
318.0600130673022
 31
0.0
  0
LINE
  5
FB1
330
1A
100
AcDbEntity
  8
1
 62
     8
100
AcDbLine
 10
291.7127410550433
 20
311.6430477586051
 30
0.0
 11
294.257952857778
 21
314.5923660959105
 31
0.0
  0
LINE
  5
FB2
330
1A
100
AcDbEntity
  8
1
 62
     8
100
AcDbLine
 10
294.2579528577777
 20
314.5923660959107
 30
0.0
 11
291.7127410550433
 21
314.5923660959105
 31
0.0
  0
LINE
  5
FB3
330
1A
100
AcDbEntity
  8
1
 62
     8
100
AcDbLine
 10
295.3379931808689
 20
312.0910498561451
 30
0.0
 11
295.3379931808689
 21
308.0047769206665
 31
0.0
  0
LINE
  5
FB4
330
1A
100
AcDbEntity
  8
1
 62
     8
100
AcDbLine
 10
295.3379931808689
 20
318.5025458942627
 30
0.0
 11
295.3379931808689
 21
313.6471611573794
 31
0.0
  0
LINE
  5
FB5
330
1A
100
AcDbEntity
  8
1
 62
     8
100
AcDbLine
 10
294.4803691652818
 20
312.0910498561451
 30
0.0
 11
294.4803691652818
 21
311.2813649639444
 31
0.0
  0
LINE
  5
FB6
330
1A
100
AcDbEntity
  8
1
 62
     8
100
AcDbLine
 10
294.4803691652818
 20
309.4903443516294
 30
0.0
 11
294.4803691652818
 21
308.2367258646026
 31
0.0
  0
LINE
  5
FB7
330
1A
100
AcDbEntity
  8
1
 62
     8
100
AcDbLine
 10
291.7127410550433
 20
309.4903443516294
 30
0.0
 11
291.7127410550433
 21
308.2367258646023
 31
0.0
  0
LINE
  5
FB8
330
1A
100
AcDbEntity
  8
1
 62
     8
100
AcDbLine
 10
291.7127410550433
 20
312.0910498561451
 30
0.0
 11
291.7127410550433
 21
311.6430477586053
 31
0.0
  0
LINE
  5
FB9
330
1A
100
AcDbEntity
  8
1
 62
     8
100
AcDbLine
 10
294.4803691652818
 20
309.4903443516294
 30
0.0
 11
291.7127410550433
 21
309.4903443516294
 31
0.0
  0
LINE
  5
FBA
330
1A
100
AcDbEntity
  8
1
 62
     8
100
AcDbLine
 10
294.4803691652818
 20
311.2813649639446
 30
0.0
 11
293.2963511111639
 21
311.2813649639444
 31
0.0
  0
LINE
  5
FBB
330
1A
100
AcDbEntity
  8
1
 62
     8
100
AcDbLine
 10
293.2963511111639
 20
311.2813649639446
 30
0.0
 11
295.3379931808689
 21
313.6471611573796
 31
0.0
  0
LINE
  5
FBC
330
1A
100
AcDbEntity
  8
1
 62
     8
100
AcDbLine
 10
293.916522966162
 20
307.6707258646025
 30
0.0
 11
292.2765872541635
 21
307.6707258646025
 31
0.0
  0
ELLIPSE
  5
FBD
330
1A
100
AcDbEntity
  8
1
 62
     8
100
AcDbEllipse
 10
293.9165229661617
 20
308.2367258646026
 30
0.0
 11
0.0000000000000001
 21
0.5660000000000311
 31
0.0
210
0.0
220
0.0
230
1.0
 40
0.9961946980917559
 41
3.141592653589792
 42
4.712388980384688
  0
ELLIPSE
  5
FBE
330
1A
100
AcDbEntity
  8
1
 62
     8
100
AcDbEllipse
 10
292.2765872541632
 20
308.2367258646026
 30
0.0
 11
0.0000000000000001
 21
0.5660000000000311
 31
0.0
210
0.0
220
0.0
230
1.0
 40
0.9961946980917559
 41
1.570796326794896
 42
3.141592653589792
  0
LINE
  5
FBF
330
1A
100
AcDbEntity
  8
1
 62
     8
100
AcDbLine
 10
293.0918729950816
 20
317.3425118862343
 30
0.0
 11
293.0918729950816
 21
316.3833867082256
 31
0.0
  0
LINE
  5
FC0
330
1A
100
AcDbEntity
  8
1
 62
     8
100
AcDbLine
 10
292.2434139707167
 20
318.0300021272064
 30
0.0
 11
292.2434139707167
 21
316.3833867082256
 31
0.0
  0
LINE
  5
FC1
330
1A
100
AcDbEntity
  8
1
 62
     8
100
AcDbLine
 10
291.7127410550433
 20
320.8413328476945
 30
0.0
 11
290.8551170394561
 21
320.8413328476945
 31
0.0
  0
LINE
  5
FC2
330
1A
100
AcDbEntity
  8
1
 62
     8
100
AcDbLine
 10
295.3379931808689
 20
318.5025458942627
 30
0.0
 11
294.4803691652818
 21
318.5025458942627
 31
0.0
  0
LINE
  5
FC3
330
1A
100
AcDbEntity
  8
1
 62
     8
100
AcDbLine
 10
290.8551170394561
 20
312.0910498561451
 30
0.0
 11
290.8551170394561
 21
308.0047769206661
 31
0.0
  0
LINE
  5
FC4
330
1A
100
AcDbEntity
  8
1
 62
     8
100
AcDbLine
 10
290.8551170394561
 20
316.9221499693411
 30
0.0
 11
290.8551170394561
 21
314.0415197537414
 31
0.0
  0
LINE
  5
FC5
330
1A
100
AcDbEntity
  8
1
 62
     8
100
AcDbLine
 10
290.8551170394561
 20
320.8413328476945
 30
0.0
 11
290.8551170394561
 21
317.8974441489289
 31
0.0
  0
LINE
  5
FC6
330
1A
100
AcDbEntity
  8
1
 62
     8
100
AcDbLine
 10
291.7127410550433
 20
316.9221499693411
 30
0.0
 11
290.8551170394561
 21
316.9221499693411
 31
0.0
  0
LINE
  5
FC7
330
1A
100
AcDbEntity
  8
1
 62
     8
100
AcDbLine
 10
291.7127410550433
 20
317.8974441489289
 30
0.0
 11
290.8551170394561
 21
317.8974441489289
 31
0.0
  0
LINE
  5
FC8
330
1A
100
AcDbEntity
  8
1
 62
     8
100
AcDbLine
 10
291.7127410550433
 20
314.0415197537414
 30
0.0
 11
290.8551170394561
 21
314.0415197537414
 31
0.0
  0
LINE
  5
FC9
330
1A
100
AcDbEntity
  8
1
 62
     8
100
AcDbLine
 10
291.7127410550433
 20
312.0910498561451
 30
0.0
 11
290.8551170394561
 21
312.0910498561451
 31
0.0
  0
LINE
  5
FCA
330
1A
100
AcDbEntity
  8
1
 62
     8
100
AcDbLine
 10
295.3379931808689
 20
312.0910498561451
 30
0.0
 11
294.4803691652818
 21
312.0910498561451
 31
0.0
  0
ELLIPSE
  5
FCB
330
1A
100
AcDbEntity
  8
1
 62
     8
100
AcDbEllipse
 10
293.0965551101625
 20
308.0047769206665
 30
0.0
 11
0.0000000000000004
 21
2.25
 31
0.0
210
0.0
220
0.0
230
1.0
 40
0.9961946980917431
 41
1.570796326794896
 42
4.712388980384688
  0
LINE
  5
FCC
330
1A
100
AcDbEntity
  8
1
 62
     8
100
AcDbLine
 10
289.8589223413644
 20
325.8413328476953
 30
0.0
 11
289.3608249923186
 21
325.8413328476953
 31
0.0
  0
LINE
  5
FCD
330
1A
100
AcDbEntity
  8
1
 62
     8
100
AcDbLine
 10
266.4483469362082
 20
325.8413328476953
 30
0.0
 11
265.9502495871625
 21
325.8413328476953
 31
0.0
  0
ELLIPSE
  5
FCE
330
1A
100
AcDbEntity
  8
1
 62
     8
100
AcDbEllipse
 10
283.6825152131954
 20
307.8413328476945
 30
0.0
 11
0.0000000000000002
 21
1.0
 31
0.0
210
0.0
220
0.0
230
1.0
 40
0.9961946980917415
 41
4.712388980384688
 42
6.283185307179585
  0
ELLIPSE
  5
FCF
330
1A
100
AcDbEntity
  8
1
 62
     8
100
AcDbEllipse
 10
272.1266567153312
 20
307.8413328476945
 30
0.0
 11
0.0000000000000002
 21
1.0
 31
0.0
210
0.0
220
0.0
230
1.0
 40
0.9961946980917415
 41
0.0
 42
1.570796326794896
  0
LINE
  5
FD0
330
1A
100
AcDbEntity
  8
1
 62
     8
100
AcDbLine
 10
283.6825152131951
 20
308.8413328476943
 30
0.0
 11
272.1266567153308
 21
308.8413328476943
 31
0.0
  0
LINE
  5
FD2
330
1A
100
AcDbEntity
  8
1
 62
     8
100
AcDbLine
 10
282.3874621056766
 20
243.8413328476942
 30
0.0
 11
273.4217098228509
 21
243.8413328476941
 31
0.0
  0
LINE
  5
FD3
330
1A
100
AcDbEntity
  8
1
 62
     8
100
AcDbLine
 10
283.8817541528139
 20
245.3413328476946
 30
0.0
 11
283.8817541528139
 21
256.3413328476929
 31
0.0
  0
LINE
  5
FD4
330
1A
100
AcDbEntity
  8
1
 62
     8
100
AcDbLine
 10
283.383656803768
 20
245.3413328476946
 30
0.0
 11
283.383656803768
 21
256.341332847693
 31
0.0
  0
LINE
  5
FD5
330
1A
100
AcDbEntity
  8
1
 62
     8
100
AcDbLine
 10
282.3874621056766
 20
244.3413328476941
 30
0.0
 11
273.4217098228508
 21
244.3413328476941
 31
0.0
  0
LINE
  5
FD6
330
1A
100
AcDbEntity
  8
1
 62
     8
100
AcDbLine
 10
272.4255151247587
 20
245.3413328476942
 30
0.0
 11
272.4255151247589
 21
256.3413328476932
 31
0.0
  0
LINE
  5
FD7
330
1A
100
AcDbEntity
  8
1
 62
     8
100
AcDbLine
 10
271.927417775713
 20
245.3413328476942
 30
0.0
 11
271.927417775713
 21
256.3413328476932
 31
0.0
  0
LINE
  5
FD8
330
1A
100
AcDbEntity
  8
1
 62
     8
100
AcDbLine
 10
282.3874621056766
 20
257.8413328476934
 30
0.0
 11
273.4217098228508
 21
257.8413328476933
 31
0.0
  0
LINE
  5
FD9
330
1A
100
AcDbEntity
  8
1
 62
     8
100
AcDbLine
 10
282.3874621056766
 20
257.3413328476933
 30
0.0
 11
273.4217098228508
 21
257.3413328476933
 31
0.0
  0
ELLIPSE
  5
FDA
330
1A
100
AcDbEntity
  8
1
 62
     8
100
AcDbEllipse
 10
273.4217098228504
 20
256.3413328476932
 30
0.0
 11
-0.0000000000000002
 21
-1.000000000000113
 31
0.0
210
0.0
220
0.0
230
-1.0
 40
0.9961946980916284
 41
1.570796326794896
 42
3.141592653589792
  0
ELLIPSE
  5
FDB
330
1A
100
AcDbEntity
  8
1
 62
     8
100
AcDbEllipse
 10
282.3874621056762
 20
256.3413328476932
 30
0.0
 11
-0.0000000000000002
 21
-1.000000000000113
 31
0.0
210
0.0
220
0.0
230
-1.0
 40
0.9961946980916284
 41
3.141592653589792
 42
4.712388980384688
  0
ELLIPSE
  5
FDC
330
1A
100
AcDbEntity
  8
1
 62
     8
100
AcDbEllipse
 10
282.3874621056762
 20
245.3413328476942
 30
0.0
 11
0.0000000000000002
 21
1.000000000000113
 31
0.0
210
0.0
220
0.0
230
1.0
 40
0.9961946980916284
 41
3.141592653589792
 42
4.712388980384688
  0
ELLIPSE
  5
FDD
330
1A
100
AcDbEntity
  8
1
 62
     8
100
AcDbEllipse
 10
273.4217098228504
 20
245.3413328476942
 30
0.0
 11
0.0000000000000002
 21
1.000000000000113
 31
0.0
210
0.0
220
0.0
230
1.0
 40
0.9961946980916284
 41
1.570796326794896
 42
3.141592653589792
  0
ELLIPSE
  5
FDE
330
1A
100
AcDbEntity
  8
1
 62
     8
100
AcDbEllipse
 10
282.3874621056762
 20
256.3413328476932
 30
0.0
 11
-0.0000000000000003
 21
-1.5
 31
0.0
210
0.0
220
0.0
230
-1.0
 40
0.9961946980917465
 41
3.141592653589792
 42
4.712388980384688
  0
ELLIPSE
  5
FDF
330
1A
100
AcDbEntity
  8
1
 62
     8
100
AcDbEllipse
 10
273.4217098228504
 20
256.3413328476932
 30
0.0
 11
-0.0000000000000003
 21
-1.5
 31
0.0
210
0.0
220
0.0
230
-1.0
 40
0.9961946980917465
 41
1.570796326794896
 42
3.141592653589792
  0
ELLIPSE
  5
FE0
330
1A
100
AcDbEntity
  8
1
 62
     8
100
AcDbEllipse
 10
273.4217098228504
 20
245.3413328476942
 30
0.0
 11
0.0000000000000003
 21
1.5
 31
0.0
210
0.0
220
0.0
230
1.0
 40
0.9961946980917465
 41
1.570796326794896
 42
3.141592653589792
  0
ELLIPSE
  5
FE1
330
1A
100
AcDbEntity
  8
1
 62
     8
100
AcDbEllipse
 10
282.3874621056762
 20
245.3413328476942
 30
0.0
 11
0.0000000000000003
 21
1.5
 31
0.0
210
0.0
220
0.0
230
1.0
 40
0.9961946980917465
 41
3.141592653589792
 42
4.712388980384688
  0
ELLIPSE
  5
FE2
330
1A
100
AcDbEntity
  8
1
 62
     8
100
AcDbEllipse
 10
282.3874621056762
 20
227.8413328476943
 30
0.0
 11
0.0000000000000003
 21
1.5
 31
0.0
210
0.0
220
0.0
230
1.0
 40
0.9961946980917465
 41
3.141592653589792
 42
4.712388980384688
  0
ELLIPSE
  5
FE3
330
1A
100
AcDbEntity
  8
1
 62
     8
100
AcDbEllipse
 10
273.4217098228504
 20
227.8413328476943
 30
0.0
 11
0.0000000000000003
 21
1.5
 31
0.0
210
0.0
220
0.0
230
1.0
 40
0.9961946980917465
 41
1.570796326794896
 42
3.141592653589792
  0
ELLIPSE
  5
FE4
330
1A
100
AcDbEntity
  8
1
 62
     8
100
AcDbEllipse
 10
273.4217098228504
 20
238.8413328476932
 30
0.0
 11
-0.0000000000000003
 21
-1.5
 31
0.0
210
0.0
220
0.0
230
-1.0
 40
0.9961946980917465
 41
1.570796326794896
 42
3.141592653589792
  0
ELLIPSE
  5
FE5
330
1A
100
AcDbEntity
  8
1
 62
     8
100
AcDbEllipse
 10
282.3874621056762
 20
238.8413328476932
 30
0.0
 11
-0.0000000000000003
 21
-1.5
 31
0.0
210
0.0
220
0.0
230
-1.0
 40
0.9961946980917465
 41
3.141592653589792
 42
4.712388980384688
  0
ELLIPSE
  5
FE6
330
1A
100
AcDbEntity
  8
1
 62
     8
100
AcDbEllipse
 10
273.4217098228504
 20
227.8413328476943
 30
0.0
 11
0.0000000000000002
 21
1.000000000000113
 31
0.0
210
0.0
220
0.0
230
1.0
 40
0.9961946980916284
 41
1.570796326794896
 42
3.141592653589792
  0
ELLIPSE
  5
FE7
330
1A
100
AcDbEntity
  8
1
 62
     8
100
AcDbEllipse
 10
282.3874621056762
 20
227.8413328476943
 30
0.0
 11
0.0000000000000002
 21
1.000000000000113
 31
0.0
210
0.0
220
0.0
230
1.0
 40
0.9961946980916284
 41
3.141592653589792
 42
4.712388980384688
  0
ELLIPSE
  5
FE8
330
1A
100
AcDbEntity
  8
1
 62
     8
100
AcDbEllipse
 10
282.3874621056762
 20
238.8413328476932
 30
0.0
 11
-0.0000000000000002
 21
-1.000000000000113
 31
0.0
210
0.0
220
0.0
230
-1.0
 40
0.9961946980916284
 41
3.141592653589792
 42
4.712388980384688
  0
ELLIPSE
  5
FE9
330
1A
100
AcDbEntity
  8
1
 62
     8
100
AcDbEllipse
 10
273.4217098228504
 20
238.8413328476932
 30
0.0
 11
-0.0000000000000002
 21
-1.000000000000113
 31
0.0
210
0.0
220
0.0
230
-1.0
 40
0.9961946980916284
 41
1.570796326794896
 42
3.141592653589792
  0
LINE
  5
FEA
330
1A
100
AcDbEntity
  8
1
 62
     8
100
AcDbLine
 10
282.3874621056766
 20
239.8413328476933
 30
0.0
 11
273.4217098228508
 21
239.8413328476933
 31
0.0
  0
LINE
  5
FEB
330
1A
100
AcDbEntity
  8
1
 62
     8
100
AcDbLine
 10
282.3874621056766
 20
240.3413328476935
 30
0.0
 11
273.4217098228508
 21
240.3413328476933
 31
0.0
  0
LINE
  5
FEC
330
1A
100
AcDbEntity
  8
1
 62
     8
100
AcDbLine
 10
271.927417775713
 20
227.8413328476943
 30
0.0
 11
271.927417775713
 21
238.8413328476932
 31
0.0
  0
LINE
  5
FED
330
1A
100
AcDbEntity
  8
1
 62
     8
100
AcDbLine
 10
272.4255151247587
 20
227.8413328476943
 30
0.0
 11
272.4255151247589
 21
238.8413328476932
 31
0.0
  0
LINE
  5
FEE
330
1A
100
AcDbEntity
  8
1
 62
     8
100
AcDbLine
 10
282.3874621056766
 20
226.8413328476941
 30
0.0
 11
273.4217098228508
 21
226.8413328476941
 31
0.0
  0
LINE
  5
FEF
330
1A
100
AcDbEntity
  8
1
 62
     8
100
AcDbLine
 10
283.383656803768
 20
227.8413328476946
 30
0.0
 11
283.383656803768
 21
238.841332847693
 31
0.0
  0
LINE
  5
FF0
330
1A
100
AcDbEntity
  8
1
 62
     8
100
AcDbLine
 10
283.8817541528139
 20
227.8413328476946
 30
0.0
 11
283.8817541528139
 21
238.8413328476929
 31
0.0
  0
LINE
  5
FF1
330
1A
100
AcDbEntity
  8
1
 62
     8
100
AcDbLine
 10
282.3874621056766
 20
226.3413328476942
 30
0.0
 11
273.4217098228509
 21
226.3413328476942
 31
0.0
  0
LINE
  5
FF2
330
1A
100
AcDbEntity
  8
1
 62
     8
100
AcDbLine
 10
282.3874621056766
 20
208.8413328476943
 30
0.0
 11
273.4217098228509
 21
208.8413328476941
 31
0.0
  0
LINE
  5
FF3
330
1A
100
AcDbEntity
  8
1
 62
     8
100
AcDbLine
 10
283.8817541528139
 20
210.3413328476946
 30
0.0
 11
283.8817541528139
 21
221.3413328476927
 31
0.0
  0
LINE
  5
FF4
330
1A
100
AcDbEntity
  8
1
 62
     8
100
AcDbLine
 10
283.383656803768
 20
210.3413328476946
 30
0.0
 11
283.383656803768
 21
221.341332847693
 31
0.0
  0
LINE
  5
FF5
330
1A
100
AcDbEntity
  8
1
 62
     8
100
AcDbLine
 10
282.3874621056766
 20
209.3413328476941
 30
0.0
 11
273.4217098228508
 21
209.3413328476941
 31
0.0
  0
LINE
  5
FF6
330
1A
100
AcDbEntity
  8
1
 62
     8
100
AcDbLine
 10
272.4255151247587
 20
210.3413328476942
 30
0.0
 11
272.4255151247589
 21
221.3413328476932
 31
0.0
  0
LINE
  5
FF7
330
1A
100
AcDbEntity
  8
1
 62
     8
100
AcDbLine
 10
271.927417775713
 20
210.3413328476942
 30
0.0
 11
271.927417775713
 21
221.3413328476932
 31
0.0
  0
LINE
  5
FF8
330
1A
100
AcDbEntity
  8
1
 62
     8
100
AcDbLine
 10
282.3874621056766
 20
222.8413328476934
 30
0.0
 11
273.4217098228508
 21
222.8413328476933
 31
0.0
  0
LINE
  5
FF9
330
1A
100
AcDbEntity
  8
1
 62
     8
100
AcDbLine
 10
282.3874621056766
 20
222.3413328476933
 30
0.0
 11
273.4217098228508
 21
222.3413328476933
 31
0.0
  0
ELLIPSE
  5
FFA
330
1A
100
AcDbEntity
  8
1
 62
     8
100
AcDbEllipse
 10
273.4217098228504
 20
221.3413328476932
 30
0.0
 11
-0.0000000000000002
 21
-1.000000000000113
 31
0.0
210
0.0
220
0.0
230
-1.0
 40
0.9961946980916284
 41
1.570796326794896
 42
3.141592653589792
  0
ELLIPSE
  5
FFB
330
1A
100
AcDbEntity
  8
1
 62
     8
100
AcDbEllipse
 10
282.3874621056762
 20
221.3413328476932
 30
0.0
 11
-0.0000000000000002
 21
-1.000000000000113
 31
0.0
210
0.0
220
0.0
230
-1.0
 40
0.9961946980916284
 41
3.141592653589792
 42
4.712388980384688
  0
ELLIPSE
  5
FFC
330
1A
100
AcDbEntity
  8
1
 62
     8
100
AcDbEllipse
 10
282.3874621056762
 20
210.3413328476942
 30
0.0
 11
0.0000000000000002
 21
1.000000000000113
 31
0.0
210
0.0
220
0.0
230
1.0
 40
0.9961946980916284
 41
3.141592653589792
 42
4.712388980384688
  0
ELLIPSE
  5
FFD
330
1A
100
AcDbEntity
  8
1
 62
     8
100
AcDbEllipse
 10
273.4217098228504
 20
210.3413328476942
 30
0.0
 11
0.0000000000000002
 21
1.000000000000113
 31
0.0
210
0.0
220
0.0
230
1.0
 40
0.9961946980916284
 41
1.570796326794896
 42
3.141592653589792
  0
ELLIPSE
  5
FFE
330
1A
100
AcDbEntity
  8
1
 62
     8
100
AcDbEllipse
 10
282.3874621056762
 20
221.3413328476932
 30
0.0
 11
-0.0000000000000003
 21
-1.5
 31
0.0
210
0.0
220
0.0
230
-1.0
 40
0.9961946980917465
 41
3.141592653589792
 42
4.712388980384688
  0
ELLIPSE
  5
FFF
330
1A
100
AcDbEntity
  8
1
 62
     8
100
AcDbEllipse
 10
273.4217098228504
 20
221.3413328476932
 30
0.0
 11
-0.0000000000000003
 21
-1.5
 31
0.0
210
0.0
220
0.0
230
-1.0
 40
0.9961946980917465
 41
1.570796326794896
 42
3.141592653589792
  0
ELLIPSE
  5
1000
330
1A
100
AcDbEntity
  8
1
 62
     8
100
AcDbEllipse
 10
273.4217098228504
 20
210.3413328476942
 30
0.0
 11
0.0000000000000003
 21
1.5
 31
0.0
210
0.0
220
0.0
230
1.0
 40
0.9961946980917465
 41
1.570796326794896
 42
3.141592653589792
  0
ELLIPSE
  5
1001
330
1A
100
AcDbEntity
  8
1
 62
     8
100
AcDbEllipse
 10
282.3874621056762
 20
210.3413328476942
 30
0.0
 11
0.0000000000000003
 21
1.5
 31
0.0
210
0.0
220
0.0
230
1.0
 40
0.9961946980917465
 41
3.141592653589792
 42
4.712388980384688
  0
ELLIPSE
  5
1002
330
1A
100
AcDbEntity
  8
1
 62
     8
100
AcDbEllipse
 10
272.1266567153312
 20
267.8413328476945
 30
0.0
 11
0.0000000000000002
 21
1.0
 31
0.0
210
0.0
220
0.0
230
1.0
 40
0.9961946980917415
 41
1.570796326794896
 42
3.141592653589792
  0
ELLIPSE
  5
1003
330
1A
100
AcDbEntity
  8
1
 62
     8
100
AcDbEllipse
 10
283.6825152131954
 20
267.8413328476945
 30
0.0
 11
0.0000000000000002
 21
1.0
 31
0.0
210
0.0
220
0.0
230
1.0
 40
0.9961946980917415
 41
3.141592653589792
 42
4.712388980384688
  0
LINE
  5
1004
330
1A
100
AcDbEntity
  8
1
 62
     8
100
AcDbLine
 10
283.6825152131957
 20
266.8413328476944
 30
0.0
 11
272.1266567153315
 21
266.8413328476944
 31
0.0
  0
LINE
  5
1007
330
1A
100
AcDbEntity
  8
1
 62
     8
100
AcDbLine
 10
289.8589223413644
 20
205.8413328476945
 30
0.0
 11
289.3608249923186
 21
205.8413328476945
 31
0.0
  0
LINE
  5
1008
330
1A
100
AcDbEntity
  8
1
 62
     8
100
AcDbLine
 10
266.4483469362082
 20
205.8413328476942
 30
0.0
 11
265.9502495871625
 21
205.8413328476945
 31
0.0
  0
CIRCLE
  5
100A
330
1A
100
AcDbEntity
  8
1
100
AcDbCircle
 10
355.8292409864802
 20
265.8413328476946
 30
0.0
 40
36.49029033784518
  0
CIRCLE
  5
100B
330
1A
100
AcDbEntity
  8
1
 62
     8
100
AcDbCircle
 10
355.8292409864802
 20
265.8413328476946
 30
0.0
 40
35.49029033784472
  0
CIRCLE
  5
100C
330
1A
100
AcDbEntity
  8
1
 62
     8
100
AcDbCircle
 10
355.8292409864802
 20
265.8413328476946
 30
0.0
 40
24.97506218943863
  0
LINE
  5
100D
330
1A
100
AcDbEntity
  8
1
 62
     8
100
AcDbLine
 10
395.8859703182133
 20
205.8413328476945
 30
0.0
 11
395.8859703182127
 21
325.8413328476943
 31
0.0
  0
LINE
  5
100E
330
1A
100
AcDbEntity
  8
1
100
AcDbLine
 10
398.82924098648
 20
205.8413328476945
 30
0.0
 11
398.82924098648
 21
325.8413328476943
 31
0.0
  0
ARC
  5
100F
330
1A
100
AcDbEntity
  8
1
100
AcDbCircle
 10
388.8292409864808
 20
325.8413328476943
 30
0.0
 40
10.0
100
AcDbArc
 50
0.0
 51
89.99999999999998
  0
ARC
  5
1010
330
1A
100
AcDbEntity
  8
1
 62
     8
100
AcDbCircle
 10
388.8292409864808
 20
325.8413328476943
 30
0.0
 40
7.056729331732639
100
AcDbArc
 50
0.0
 51
89.99999999999998
  0
ARC
  5
1011
330
1A
100
AcDbEntity
  8
1
100
AcDbCircle
 10
388.8292409864808
 20
205.8413328476945
 30
0.0
 40
10.0
100
AcDbArc
 50
270.0
 51
0.0
  0
ARC
  5
1012
330
1A
100
AcDbEntity
  8
1
 62
     8
100
AcDbCircle
 10
388.8292409864808
 20
205.8413328476945
 30
0.0
 40
7.056729331732639
100
AcDbArc
 50
270.0
 51
0.0
  0
LINE
  5
1013
330
1A
100
AcDbEntity
  8
1
100
AcDbLine
 10
388.8292409864798
 20
195.8413328476945
 30
0.0
 11
323.82924098648
 21
195.8413328476945
 31
0.0
  0
LINE
  5
1014
330
1A
100
AcDbEntity
  8
1
 62
     8
100
AcDbLine
 10
388.8424199199644
 20
198.784615822261
 30
0.0
 11
305.8292467317289
 21
198.7846158222618
 31
0.0
  0
LINE
  5
1015
330
1A
100
AcDbEntity
  8
1
 62
     8
100
AcDbLine
 10
305.8292467317215
 20
198.7846158222628
 30
0.0
 11
305.8292467317215
 21
332.8980498731262
 31
0.0
  0
LINE
  5
1016
330
1A
100
AcDbEntity
  8
1
 62
     8
100
AcDbLine
 10
258.0251963152324
 20
198.5654287869855
 30
0.0
 11
305.8292467317215
 21
198.7846158222618
 31
0.0
  0
LINE
  5
1017
330
1A
100
AcDbEntity
  8
1
100
AcDbLine
 10
258.8292409864654
 20
196.4702368498146
 30
0.0
 11
323.8292409863672
 21
195.8413328476945
 31
0.0
  0
ARC
  5
1018
330
1A
100
AcDbEntity
  8
1
100
AcDbCircle
 10
748.8292409864802
 20
265.8413328476943
 30
0.0
 40
500.0
100
AcDbArc
 50
172.5279449361083
 51
187.4720550638916
  0
ARC
  5
1019
330
1A
100
AcDbEntity
  8
1
 62
     8
100
AcDbCircle
 10
748.8292409864802
 20
265.8413328476943
 30
0.0
 40
498.0686035000003
100
AcDbArc
 50
172.5470619355899
 51
187.45293806441
  0
ARC
  5
101A
330
1A
100
AcDbEntity
  8
1
 62
     8
100
AcDbCircle
 10
258.0111265813803
 20
201.6339965314854
 30
0.0
 40
3.068599999999998
100
AcDbArc
 50
187.4529380644173
 51
270.2627058571388
  0
ARC
  5
101B
330
1A
100
AcDbEntity
  8
1
100
AcDbCircle
 10
258.0325804436116
 20
201.4702368498154
 30
0.0
 40
5.0
100
AcDbArc
 50
187.4720550638899
 51
270.0
  0
ARC
  5
101C
330
1A
100
AcDbEntity
  8
1
 62
     8
100
AcDbCircle
 10
258.0111265813804
 20
330.0486691639033
 30
0.0
 40
3.068599999999998
100
AcDbArc
 50
89.73729414286109
 51
172.5470619355827
  0
ARC
  5
101D
330
1A
100
AcDbEntity
  8
1
100
AcDbCircle
 10
258.0325804436116
 20
330.2124288455733
 30
0.0
 40
5.0
100
AcDbArc
 50
89.99999999999998
 51
172.5279449361099
  0
LINE
  5
101E
330
1A
100
AcDbEntity
  8
1
 62
     8
100
AcDbLine
 10
258.0251963152324
 20
333.1172369084033
 30
0.0
 11
305.8320363420073
 21
332.8980370824438
 31
0.0
  0
LINE
  5
101F
330
1A
100
AcDbEntity
  8
1
100
AcDbLine
 10
258.8292409865609
 20
335.2124288455743
 30
0.0
 11
323.8292409863672
 21
335.8413328476945
 31
0.0
  0
LINE
  5
1020
330
1A
100
AcDbEntity
  8
1
 62
     8
100
AcDbLine
 10
388.8480613105487
 20
332.8980370824446
 30
0.0
 11
305.8320363420073
 21
332.8980370824438
 31
0.0
  0
LINE
  5
1021
330
1A
100
AcDbEntity
  8
1
100
AcDbLine
 10
388.82924098648
 20
335.8413328476943
 30
0.0
 11
323.8292409863672
 21
335.8413328476945
 31
0.0
  0
CIRCLE
  5
1022
330
1A
100
AcDbEntity
  8
1
 62
     8
100
AcDbCircle
 10
384.8292654763672
 20
216.8413328476944
 30
0.0
 40
10.00002440000093
  0
LINE
  5
1023
330
1A
100
AcDbEntity
  8
1
 62
     8
100
AcDbLine
 10
297.82924098648
 20
205.8413328476945
 30
0.0
 11
297.82924098648
 21
325.8413328476944
 31
0.0
  0
ARC
  5
1024
330
1A
100
AcDbEntity
  8
1
 62
     8
100
AcDbCircle
 10
748.9091523265544
 20
265.8413328476943
 30
0.0
 40
492.0
100
AcDbArc
 50
173.0701288336026
 51
186.9298711663973
  0
LINE
  5
1026
330
1A
100
AcDbEntity
  8
1
 62
     8
100
AcDbLine
 10
295.82924098648
 20
327.8413328476945
 30
0.0
 11
263.4815058126781
 21
327.8413328476945
 31
0.0
  0
ARC
  5
1028
330
1A
100
AcDbEntity
  8
1
 62
     8
100
AcDbCircle
 10
263.4815058126788
 20
324.8413328476944
 30
0.0
 40
3.0
100
AcDbArc
 50
89.99999999999998
 51
173.0701288336073
  0
ARC
  5
1029
330
1A
100
AcDbEntity
  8
1
 62
     8
100
AcDbCircle
 10
295.8292409864808
 20
325.8413328476943
 30
0.0
 40
2.0
100
AcDbArc
 50
0.0
 51
89.99999999999998
  0
ARC
  5
102A
330
1A
100
AcDbEntity
  8
1
 62
     8
100
AcDbCircle
 10
263.4815058126787
 20
206.8413328476943
 30
0.0
 40
3.0
100
AcDbArc
 50
186.9298711663925
 51
270.0
  0
LINE
  5
102C
330
1A
100
AcDbEntity
  8
1
 62
     8
100
AcDbLine
 10
295.82924098648
 20
203.8413328476945
 30
0.0
 11
263.4815058126781
 21
203.8413328476945
 31
0.0
  0
ARC
  5
102D
330
1A
100
AcDbEntity
  8
1
 62
     8
100
AcDbCircle
 10
295.8292409864808
 20
205.8413328476945
 30
0.0
 40
2.0
100
AcDbArc
 50
270.0
 51
0.0
  0
LINE
  5
108D
330
1A
100
AcDbEntity
  8
1
100
AcDbLine
 10
258.8292409864654
 20
335.2124288455743
 30
0.0
 11
258.0325804436117
 21
335.2124288455743
 31
0.0
  0
LINE
  5
1091
330
1A
100
AcDbEntity
  8
1
 62
     8
100
AcDbLine
 10
508.8292409864663
 20
120.8919232347464
 30
0.0
 11
508.8292409864656
 21
120.1953560755999
 31
0.0
  0
LINE
  5
1092
330
1A
100
AcDbEntity
  8
1
 62
     8
100
AcDbLine
 10
528.8292409864697
 20
120.8919232347464
 30
0.0
 11
528.8292409864704
 21
120.1953560755999
 31
0.0
  0
LINE
  5
11AA
330
1A
100
AcDbEntity
  8
1
100
AcDbLine
 10
257.32922878648
 20
77.09537437559934
 30
0.0
 11
256.82922878648
 21
76.59537437559933
 31
0.0
  0
LINE
  5
11AB
330
1A
100
AcDbEntity
  8
1
100
AcDbLine
 10
255.3292287864801
 20
76.59537437559933
 30
0.0
 11
255.3292287864798
 21
74.63127276046211
 31
0.0
  0
LINE
  5
11AC
330
1A
100
AcDbEntity
  8
1
 62
     8
100
AcDbLine
 10
256.582092744314
 20
74.63127276046162
 30
0.0
 11
256.582092744314
 21
76.59537437559933
 31
0.0
  0
LINE
  5
11AD
330
1A
100
AcDbEntity
  8
1
 62
     8
100
AcDbLine
 10
255.5526932298921
 20
74.63127276046126
 30
0.0
 11
255.5526932298923
 21
76.59537437559933
 31
0.0
  0
LINE
  5
11AE
330
1A
100
AcDbEntity
  8
1
 62
     8
100
AcDbLine
 10
255.5526932298921
 20
74.63127276046162
 30
0.0
 11
255.3292287864798
 21
74.63127276046211
 31
0.0
  0
LINE
  5
11AF
330
1A
100
AcDbEntity
  8
1
 62
     8
100
AcDbLine
 10
259.4034960396149
 20
74.63127276046162
 30
0.0
 11
259.4034960396151
 21
76.59537437559933
 31
0.0
  0
LINE
  5
11B0
330
1A
100
AcDbEntity
  8
1
100
AcDbLine
 10
281.3292287864801
 20
76.59537437559922
 30
0.0
 11
281.3292287864803
 21
74.63127276046205
 31
0.0
  0
LINE
  5
11B1
330
1A
100
AcDbEntity
  8
1
100
AcDbLine
 10
279.3292287864801
 20
77.09537437559934
 30
0.0
 11
279.8292287864801
 21
76.59537437559933
 31
0.0
  0
LINE
  5
11B2
330
1A
100
AcDbEntity
  8
1
100
AcDbLine
 10
270.8292287864797
 20
77.34537437559933
 30
0.0
 11
265.82922878648
 21
77.34537437560487
 31
0.0
  0
LINE
  5
11B3
330
1A
100
AcDbEntity
  8
1
100
AcDbLine
 10
270.8292287864803
 20
77.34537437559845
 30
0.0
 11
271.0792287864793
 21
77.09537437559934
 31
0.0
  0
LINE
  5
11B4
330
1A
100
AcDbEntity
  8
1
100
AcDbLine
 10
265.8292287864803
 20
77.34537437559933
 30
0.0
 11
265.5792287864796
 21
77.09537437559934
 31
0.0
  0
LINE
  5
11B5
330
1A
100
AcDbEntity
  8
1
 62
     8
100
AcDbLine
 10
269.9948321888176
 20
74.63127276046211
 30
0.0
 11
269.9948321888173
 21
76.59537437559933
 31
0.0
  0
LINE
  5
11B6
330
1A
100
AcDbEntity
  8
1
 62
     8
100
AcDbLine
 10
266.6636253841427
 20
74.63127276046211
 30
0.0
 11
266.6636253841422
 21
76.59537437559933
 31
0.0
  0
LINE
  5
11B7
330
1A
100
AcDbEntity
  8
1
 62
     8
100
AcDbLine
 10
262.0984989563749
 20
74.63127276046162
 30
0.0
 11
262.0984989563749
 21
76.59537437559933
 31
0.0
  0
LINE
  5
11B8
330
1A
100
AcDbEntity
  8
1
 62
     8
100
AcDbLine
 10
266.6636253841427
 20
74.63127276046162
 30
0.0
 11
262.0984989563749
 21
74.63127276046162
 31
0.0
  0
LINE
  5
11B9
330
1A
100
AcDbEntity
  8
1
 62
     8
100
AcDbLine
 10
281.1057643430681
 20
74.63127276046112
 30
0.0
 11
281.1057643430677
 21
76.59537437559922
 31
0.0
  0
LINE
  5
11BA
330
1A
100
AcDbEntity
  8
1
 62
     8
100
AcDbLine
 10
280.0763648286459
 20
74.63127276046162
 30
0.0
 11
280.0763648286459
 21
76.59537437559933
 31
0.0
  0
LINE
  5
11BB
330
1A
100
AcDbEntity
  8
1
 62
     8
100
AcDbLine
 10
277.2549615333451
 20
74.63127276046162
 30
0.0
 11
277.254961533345
 21
76.59537437559933
 31
0.0
  0
LINE
  5
11BC
330
1A
100
AcDbEntity
  8
1
 62
     8
100
AcDbLine
 10
274.5599586165851
 20
74.63127276046162
 30
0.0
 11
274.5599586165851
 21
76.59537437559933
 31
0.0
  0
LINE
  5
11BD
330
1A
100
AcDbEntity
  8
1
 62
     8
100
AcDbLine
 10
274.5599586165851
 20
74.63127276046162
 30
0.0
 11
269.994832188818
 21
74.63127276046162
 31
0.0
  0
LINE
  5
11BE
330
1A
100
AcDbEntity
  8
1
 62
     8
100
AcDbLine
 10
281.3292287864803
 20
74.63127276046205
 30
0.0
 11
281.1057643430698
 21
74.63127276046205
 31
0.0
  0
LINE
  5
11BF
330
1A
100
AcDbEntity
  8
1
 62
     8
100
AcDbLine
 10
280.0763648286471
 20
74.63127276046211
 30
0.0
 11
277.2549615333455
 21
74.63127276046211
 31
0.0
  0
LINE
  5
11C0
330
1A
100
AcDbEntity
  8
1
100
AcDbLine
 10
270.8292287864803
 20
80.09537437559897
 30
0.0
 11
270.8292287864803
 21
77.34537437559845
 31
0.0
  0
LINE
  5
11C1
330
1A
100
AcDbEntity
  8
1
 62
     8
100
AcDbLine
 10
270.3962287864801
 20
80.09537437559897
 30
0.0
 11
270.3962287864801
 21
77.34537437559987
 31
0.0
  0
LINE
  5
11C2
330
1A
100
AcDbEntity
  8
1
 62
     8
100
AcDbLine
 10
266.2622287864801
 20
80.09537437559897
 30
0.0
 11
266.2622287864801
 21
77.34537437559987
 31
0.0
  0
LINE
  5
11C3
330
1A
100
AcDbEntity
  8
1
100
AcDbLine
 10
265.82922878648
 20
80.09537437559897
 30
0.0
 11
265.82922878648
 21
77.34537437559933
 31
0.0
  0
LINE
  5
11C4
330
1A
100
AcDbEntity
  8
1
 62
     8
100
AcDbLine
 10
259.4034960396149
 20
74.63127276046162
 30
0.0
 11
256.5820927443143
 21
74.63127276046162
 31
0.0
  0
LINE
  5
11C5
330
1A
100
AcDbEntity
  8
1
100
AcDbLine
 10
257.32922878648
 20
77.09537437559934
 30
0.0
 11
279.3292287864801
 21
77.09537437559934
 31
0.0
  0
LINE
  5
11C6
330
1A
100
AcDbEntity
  8
1
100
AcDbLine
 10
281.3292287864801
 20
76.59537437559922
 30
0.0
 11
255.3292287864798
 21
76.59537437559933
 31
0.0
  0
SPLINE
  5
11C7
330
1A
100
AcDbEntity
  8
1
 62
     8
100
AcDbSpline
210
0.0
220
0.0
230
1.0
 70
     8
 71
     3
 72
     9
 73
     5
 74
     0
 42
0.0000000001
 43
0.0000000001
 40
0.0
 40
0.0
 40
0.0
 40
0.0
 40
0.0709646172400961
 40
0.1241404801011342
 40
0.1241404801011342
 40
0.1241404801011342
 40
0.1241404801011342
 10
256.9165505909383
 20
74.36332356803124
 30
0.0
 10
256.9458376078574
 20
74.36257417159493
 30
0.0
 10
256.9970702429713
 20
74.36126323049473
 30
0.0
 10
256.9923434151106
 20
74.40960398970204
 30
0.0
 10
256.9903186674224
 20
74.43031086613863
 30
0.0
  0
ARC
  5
11C8
330
1A
100
AcDbEntity
  8
1
100
AcDbCircle
 10
262.0971779789106
 20
72.59537437559933
 30
0.0
 40
1.5
100
AcDbArc
 50
30.00000000000003
 51
89.99999999999998
  0
LINE
  5
11C9
330
1A
100
AcDbEntity
  8
1
100
AcDbLine
 10
263.3962160845872
 20
73.34537437559934
 30
0.0
 11
263.8292287864798
 21
72.59537437559933
 31
0.0
  0
LINE
  5
11CA
330
1A
100
AcDbEntity
  8
1
100
AcDbLine
 10
273.2622414883728
 20
73.34537437559934
 30
0.0
 11
272.8292287864803
 21
72.59537437559933
 31
0.0
  0
ARC
  5
11CB
330
1A
100
AcDbEntity
  8
1
100
AcDbCircle
 10
274.5612795940494
 20
72.59537437559933
 30
0.0
 40
1.5
100
AcDbArc
 50
89.99999999999998
 51
150.0
  0
LINE
  5
11CC
330
1A
100
AcDbEntity
  8
1
100
AcDbLine
 10
263.8292287864798
 20
72.59537437559933
 30
0.0
 11
272.8292287864824
 21
72.59537437560394
 31
0.0
  0
ARC
  5
11CD
330
1A
100
AcDbEntity
  8
1
100
AcDbCircle
 10
268.3292287864801
 20
78.09537437559933
 30
0.0
 40
6.5
100
AcDbArc
 50
237.7957724960212
 51
302.2042275040342
  0
SPLINE
  5
11CE
330
1A
100
AcDbEntity
  8
1
 62
     8
100
AcDbSpline
210
0.0
220
0.0
230
1.0
 70
     8
 71
     3
 72
     9
 73
     5
 74
     0
 42
0.0000000001
 43
0.0000000001
 40
0.0
 40
0.0
 40
0.0
 40
0.0
 40
0.0709646172400961
 40
0.1241404801011342
 40
0.1241404801011342
 40
0.1241404801011342
 40
0.1241404801011342
 10
279.7419069820217
 20
74.36332356803124
 30
0.0
 10
279.7126199651025
 20
74.36257417159493
 30
0.0
 10
279.6613873299887
 20
74.36126323049425
 30
0.0
 10
279.6661141578493
 20
74.40960398970204
 30
0.0
 10
279.6681389055375
 20
74.43031086613863
 30
0.0
  0
LINE
  5
11CF
330
1A
100
AcDbEntity
  8
1
100
AcDbLine
 10
279.3292287864769
 20
74.09537437559933
 30
0.0
 11
257.3292287864811
 21
74.09537437559933
 31
0.0
  0
LINE
  5
11D0
330
1A
100
AcDbEntity
  8
1
100
AcDbLine
 10
255.3292287864798
 20
74.63127276046211
 30
0.0
 11
257.329228786483
 21
74.09537437559933
 31
0.0
  0
SPLINE
  5
11D1
330
1A
100
AcDbEntity
  8
1
 62
     8
100
AcDbSpline
210
0.0
220
0.0
230
1.0
 70
     8
 71
     3
 72
    11
 73
     7
 74
     0
 42
0.0000000001
 43
0.0000000001
 40
0.0
 40
0.0
 40
0.0
 40
0.0
 40
0.2818106443530395
 40
0.5777407165587852
 40
0.9010228886137877
 40
1.391230904184199
 40
1.391230904184199
 40
1.391230904184199
 40
1.391230904184199
 10
255.5526932298921
 20
74.63127276046162
 30
0.0
 10
255.6438825565421
 20
74.60869757541596
 30
0.0
 10
255.8308300263307
 20
74.56241613131061
 30
0.0
 10
256.1234702178383
 20
74.49507638269537
 30
0.0
 10
256.4844904290856
 20
74.41355454368696
 30
0.0
 10
256.7540901733128
 20
74.38221108880575
 30
0.0
 10
256.9165505909383
 20
74.36332356803124
 30
0.0
  0
SPLINE
  5
11D2
330
1A
100
AcDbEntity
  8
1
 62
     8
100
AcDbSpline
210
0.0
220
0.0
230
1.0
 70
     8
 71
     3
 72
    10
 73
     6
 74
     0
 42
0.0000000001
 43
0.0000000001
 40
0.0
 40
0.0
 40
0.0
 40
0.0
 40
0.1767671893195819
 40
0.3324877103107063
 40
0.4562507110365228
 40
0.4562507110365228
 40
0.4562507110365228
 40
0.4562507110365228
 10
256.582092744314
 20
74.63127276046162
 30
0.0
 10
256.6367113144739
 20
74.60928337303304
 30
0.0
 10
256.7394453309098
 20
74.56792275002673
 30
0.0
 10
256.8790955592088
 20
74.50621857364501
 30
0.0
 10
256.9561824632485
 20
74.45360819205814
 30
0.0
 10
256.9903186674224
 20
74.43031086613863
 30
0.0
  0
LINE
  5
11D3
330
1A
100
AcDbEntity
  8
1
100
AcDbLine
 10
281.3292287864803
 20
74.63127276046205
 30
0.0
 11
279.3292287864769
 21
74.09537437559933
 31
0.0
  0
ELLIPSE
  5
11D4
330
1A
100
AcDbEntity
  8
1
 62
     8
100
AcDbEllipse
 10
268.3292287864801
 20
74.63127276046211
 30
0.0
 11
-1.665603402337409
 21
-0.0000000000007644
 31
0.0
210
0.0
220
0.0
230
-1.0
 40
0.1608721452267142
 41
3.141592653590945
 42
6.283185307180738
  0
SPLINE
  5
11D5
330
1A
100
AcDbEntity
  8
1
 62
     8
100
AcDbSpline
210
0.0
220
0.0
230
1.0
 70
     8
 71
     3
 72
    11
 73
     7
 74
     0
 42
0.0000000001
 43
0.0000000001
 40
0.0
 40
0.0
 40
0.0
 40
0.0
 40
0.6086661730821504
 40
0.7710122529252771
 40
0.8614720754176893
 40
0.9290680403780534
 40
0.9290680403780534
 40
0.9290680403780534
 40
0.9290680403780534
 10
261.2758057587876
 20
74.36332356803124
 30
0.0
 10
261.4819712550834
 20
74.36772747621844
 30
0.0
 10
261.7431261061399
 20
74.37330601388461
 30
0.0
 10
262.0106680418852
 20
74.47595063992086
 30
0.0
 10
262.0968438141168
 20
74.55340974822172
 30
0.0
 10
262.0980031439697
 20
74.60794821105844
 30
0.0
 10
262.0984989563749
 20
74.63127276046162
 30
0.0
  0
SPLINE
  5
11D6
330
1A
100
AcDbEntity
  8
1
 62
     8
100
AcDbSpline
210
0.0
220
0.0
230
1.0
 70
     8
 71
     3
 72
    10
 73
     6
 74
     0
 42
0.0000000001
 43
0.0000000001
 40
0.0
 40
0.0
 40
0.0
 40
0.0
 40
0.1767671893195819
 40
0.3324877103107063
 40
0.4562507110365228
 40
0.4562507110365228
 40
0.4562507110365228
 40
0.4562507110365228
 10
280.0763648286459
 20
74.63127276046162
 30
0.0
 10
280.021746258486
 20
74.60928337303304
 30
0.0
 10
279.9190122420501
 20
74.56792275002673
 30
0.0
 10
279.7793620137512
 20
74.50621857364501
 30
0.0
 10
279.7022751097116
 20
74.45360819205814
 30
0.0
 10
279.6681389055375
 20
74.43031086613863
 30
0.0
  0
SPLINE
  5
11D7
330
1A
100
AcDbEntity
  8
1
 62
     8
100
AcDbSpline
210
0.0
220
0.0
230
1.0
 70
     8
 71
     3
 72
    11
 73
     7
 74
     0
 42
0.0000000001
 43
0.0000000001
 40
0.0
 40
0.0
 40
0.0
 40
0.0
 40
0.2818106443530395
 40
0.5777407165587852
 40
0.9010228886137877
 40
1.391230904184199
 40
1.391230904184199
 40
1.391230904184199
 40
1.391230904184199
 10
281.1057643430681
 20
74.63127276046162
 30
0.0
 10
281.014575016418
 20
74.60869757541584
 30
0.0
 10
280.8276275466293
 20
74.56241613131061
 30
0.0
 10
280.5349873551217
 20
74.49507638269537
 30
0.0
 10
280.1739671438745
 20
74.41355454368696
 30
0.0
 10
279.9043673996473
 20
74.38221108880575
 30
0.0
 10
279.7419069820217
 20
74.36332356803124
 30
0.0
  0
SPLINE
  5
11D8
330
1A
100
AcDbEntity
  8
1
 62
     8
100
AcDbSpline
210
0.0
220
0.0
230
1.0
 70
     8
 71
     3
 72
    11
 73
     7
 74
     0
 42
0.0000000001
 43
0.0000000001
 40
0.0
 40
0.0
 40
0.0
 40
0.0
 40
0.2872470759112987
 40
0.6198822485823051
 40
1.033010929009501
 40
1.895118162462643
 40
1.895118162462643
 40
1.895118162462643
 40
1.895118162462643
 10
277.2549615333451
 20
74.63127276046162
 30
0.0
 10
277.1619892530849
 20
74.60833179294045
 30
0.0
 10
276.9613540822628
 20
74.55882494074095
 30
0.0
 10
276.6238196639408
 20
74.49056923623436
 30
0.0
 10
276.0951286695371
 20
74.39961422061734
 30
0.0
 10
275.670032645468
 20
74.37796157042234
 30
0.0
 10
275.3826518139896
 20
74.36332356803124
 30
0.0
  0
SPLINE
  5
11D9
330
1A
100
AcDbEntity
  8
1
 62
     8
100
AcDbSpline
210
0.0
220
0.0
230
1.0
 70
     8
 71
     3
 72
    11
 73
     7
 74
     0
 42
0.0000000001
 43
0.0000000001
 40
0.0
 40
0.0
 40
0.0
 40
0.0
 40
0.6086661730821504
 40
0.7710122529252771
 40
0.8614720754176893
 40
0.9290680403780534
 40
0.9290680403780534
 40
0.9290680403780534
 40
0.9290680403780534
 10
275.3826518141723
 20
74.36332356803124
 30
0.0
 10
275.1764863178766
 20
74.36772747621844
 30
0.0
 10
274.9153314668201
 20
74.37330601388461
 30
0.0
 10
274.6477895310748
 20
74.47595063992086
 30
0.0
 10
274.5616137588433
 20
74.55340974822172
 30
0.0
 10
274.5604544289903
 20
74.60794821105844
 30
0.0
 10
274.5599586165851
 20
74.63127276046162
 30
0.0
  0
SPLINE
  5
11DA
330
1A
100
AcDbEntity
  8
1
 62
     8
100
AcDbSpline
210
0.0
220
0.0
230
1.0
 70
     8
 71
     3
 72
    11
 73
     7
 74
     0
 42
0.0000000001
 43
0.0000000001
 40
0.0
 40
0.0
 40
0.0
 40
0.0
 40
0.2872470759112987
 40
0.6198822485823051
 40
1.033010929009501
 40
1.895118162462643
 40
1.895118162462643
 40
1.895118162462643
 40
1.895118162462643
 10
259.4034960396149
 20
74.63127276046162
 30
0.0
 10
259.496468319875
 20
74.60833179294045
 30
0.0
 10
259.6971034906973
 20
74.55882494074095
 30
0.0
 10
260.0346379090193
 20
74.49056923623436
 30
0.0
 10
260.5633289034229
 20
74.39961422061734
 30
0.0
 10
260.9884249274919
 20
74.37796157042234
 30
0.0
 10
261.2758057589704
 20
74.36332356803124
 30
0.0
  0
LINE
  5
11DB
330
1A
100
AcDbEntity
  8
1
100
AcDbLine
 10
261.3464172842386
 20
80.59537437559885
 30
0.0
 11
393.9236435260665
 21
80.59537437559885
 31
0.0
  0
LINE
  5
11DC
330
1A
100
AcDbEntity
  8
1
100
AcDbLine
 10
395.8240002085514
 20
89.69535607559851
 30
0.0
 11
395.4215878281987
 21
82.01687044123515
 31
0.0
  0
ARC
  5
11DD
330
1A
100
AcDbEntity
  8
1
100
AcDbCircle
 10
393.9236435260665
 20
82.09537437559971
 30
0.0
 40
1.5
100
AcDbArc
 50
270.0000000000004
 51
356.9999999999991
  0
ARC
  5
11DE
330
1A
100
AcDbEntity
  8
1
 62
     8
100
AcDbCircle
 10
265.566739827498
 20
85.59537437559933
 30
0.0
 40
5.0
100
AcDbArc
 50
194.9999999999997
 51
270.0000000000001
  0
ARC
  5
11DF
330
1A
100
AcDbEntity
  8
1
100
AcDbCircle
 10
261.3464172842386
 20
85.59537437559896
 30
0.0
 40
5.0
100
AcDbArc
 50
194.9999999999997
 51
270.0000000000001
  0
LINE
  5
11E0
330
1A
100
AcDbEntity
  8
1
100
AcDbLine
 10
265.3292287864801
 20
80.59537437559885
 30
0.0
 11
265.3292287864801
 21
80.09537437559897
 31
0.0
  0
LINE
  5
11E1
330
1A
100
AcDbEntity
  8
1
100
AcDbLine
 10
271.3292287864801
 20
80.59537437559885
 30
0.0
 11
271.3292287864801
 21
80.09537437559897
 31
0.0
  0
LINE
  5
11E2
330
1A
100
AcDbEntity
  8
1
100
AcDbLine
 10
265.3292287864801
 20
80.09537437559897
 30
0.0
 11
271.3292287864801
 21
80.09537437559897
 31
0.0
  0
LINE
  5
11E3
330
1A
100
AcDbEntity
  8
1
 62
     8
100
AcDbLine
 10
256.0763818307771
 20
101.695356075599
 30
0.0
 11
260.7371106960527
 21
84.30127915008762
 31
0.0
  0
LINE
  5
11E4
330
1A
100
AcDbEntity
  8
1
100
AcDbLine
 10
251.8560592875171
 20
101.695356075599
 30
0.0
 11
256.5167881527932
 21
84.30127915008672
 31
0.0
  0
ARC
  5
11E5
330
1A
100
AcDbEntity
  8
1
 62
     8
100
AcDbCircle
 10
373.6437536415551
 20
77.09534387559944
 30
0.0
 40
1.5
100
AcDbArc
 50
270.0
 51
356.9999999999994
  0
ARC
  5
11E6
330
1A
100
AcDbEntity
  8
1
 62
     8
100
AcDbCircle
 10
338.0147405314056
 20
77.09534387559944
 30
0.0
 40
1.5
100
AcDbArc
 50
182.9999999999966
 51
270.0
  0
LINE
  5
11E7
330
1A
100
AcDbEntity
  8
1
 62
     8
100
AcDbLine
 10
373.6437536415551
 20
75.59534387559944
 30
0.0
 11
338.0147405314056
 21
75.59534387559944
 31
0.0
  0
ARC
  5
11E8
330
1A
100
AcDbEntity
  8
1
100
AcDbCircle
 10
384.8292409864802
 20
103.5953743755988
 30
0.0
 40
32.0
100
AcDbArc
 50
259.5810969099743
 51
280.4189030900254
  0
ARC
  5
11EB
330
1A
100
AcDbEntity
  8
1
 62
     8
100
AcDbCircle
 10
387.8292654763674
 20
85.09537437558885
 30
0.0
 40
11.8
100
AcDbArc
 50
259.0121075727764
 51
280.9878924272234
  0
LINE
  5
11EE
330
1A
100
AcDbEntity
  8
1
 62
     8
100
AcDbLine
 10
375.1416979436869
 20
77.01683994123488
 30
0.0
 11
375.32924098648
 21
80.59537437559971
 31
0.0
  0
LINE
  5
11EF
330
1A
100
AcDbEntity
  8
1
 62
     8
100
AcDbLine
 10
336.5167962292736
 20
77.01683994123488
 30
0.0
 11
336.3292531864807
 21
80.59537437559885
 31
0.0
  0
LINE
  5
11F0
330
1A
100
AcDbEntity
  8
1
100
AcDbLine
 10
377.8292409864802
 20
80.59537437559923
 30
0.0
 11
378.2244587214518
 21
73.05417075319221
 31
0.0
  0
LINE
  5
11F1
330
1A
100
AcDbEntity
  8
1
100
AcDbLine
 10
391.8292409864802
 20
80.59537437559971
 30
0.0
 11
391.4340232515087
 21
73.05417075319221
 31
0.0
  0
LINE
  5
11F2
330
1A
100
AcDbEntity
  8
1
 62
     8
100
AcDbLine
 10
390.4823778332917
 20
73.97636384277183
 30
0.0
 11
390.8292654763673
 21
80.59537437558063
 31
0.0
  0
LINE
  5
11F3
330
1A
100
AcDbEntity
  8
1
 62
     8
100
AcDbLine
 10
385.1761531194431
 20
73.97636384277183
 30
0.0
 11
384.8292654763675
 21
80.59537437557972
 31
0.0
  0
LINE
  5
11F4
330
1A
100
AcDbEntity
  8
1
100
AcDbLine
 10
391.8292409864802
 20
120.8919232347451
 30
0.0
 11
392.3195313243254
 21
120.9899813023142
 31
0.0
  0
LINE
  5
11F5
330
1A
100
AcDbEntity
  8
1
100
AcDbLine
 10
391.3195313243253
 20
125.9899813023142
 30
0.0
 11
392.3195313243254
 21
120.9899813023142
 31
0.0
  0
ARC
  5
11F6
330
1A
100
AcDbEntity
  8
1
100
AcDbCircle
 10
390.8292409864804
 20
125.8919232347446
 30
0.0
 40
0.5
100
AcDbArc
 50
11.30993247402005
 51
89.99999999999998
  0
LINE
  5
11F7
330
1A
100
AcDbEntity
  8
1
100
AcDbLine
 10
319.8292409864801
 20
120.8919232347451
 30
0.0
 11
391.8292409864802
 21
120.8919232347451
 31
0.0
  0
LINE
  5
11F8
330
1A
100
AcDbEntity
  8
1
100
AcDbLine
 10
320.8292409864801
 20
126.3919232347451
 30
0.0
 11
390.8292409864802
 21
126.3919232347451
 31
0.0
  0
ARC
  5
11F9
330
1A
100
AcDbEntity
  8
1
100
AcDbCircle
 10
320.8292409864804
 20
125.8919232347446
 30
0.0
 40
0.5
100
AcDbArc
 50
89.99999999999998
 51
168.6900675259796
  0
LINE
  5
11FA
330
1A
100
AcDbEntity
  8
1
100
AcDbLine
 10
320.3389506486351
 20
125.9899813023142
 30
0.0
 11
319.338950648635
 21
120.9899813023142
 31
0.0
  0
LINE
  5
11FB
330
1A
100
AcDbEntity
  8
1
100
AcDbLine
 10
319.8292409864801
 20
120.8919232347451
 30
0.0
 11
319.338950648635
 21
120.9899813023142
 31
0.0
  0
ARC
  5
11FC
330
1A
100
AcDbEntity
  8
1
100
AcDbCircle
 10
395.8859685372002
 20
117.1953560755985
 30
0.0
 40
1.5
100
AcDbArc
 50
2.999999999999813
 51
89.99999999999998
  0
LINE
  5
11FD
330
1A
100
AcDbEntity
  8
1
100
AcDbLine
 10
305.8292409864783
 20
118.695356075599
 30
0.0
 11
395.8859685372002
 21
118.695356075599
 31
0.0
  0
LINE
  5
11FE
330
1A
100
AcDbEntity
  8
1
100
AcDbLine
 10
397.3839128393315
 20
117.2738600099631
 30
0.0
 11
398.8292409864802
 21
89.69535607559851
 31
0.0
  0
LINE
  5
11FF
330
1A
100
AcDbEntity
  8
1
 62
     8
100
AcDbLine
 10
388.8292409864802
 20
118.6953560755999
 30
0.0
 11
388.8292409864802
 21
120.1953560755985
 31
0.0
  0
LINE
  5
1200
330
1A
100
AcDbEntity
  8
1
 62
     8
100
AcDbLine
 10
322.8292409864802
 20
120.1953560755995
 30
0.0
 11
388.8292409864802
 21
120.1953560755985
 31
0.0
  0
LINE
  5
1201
330
1A
100
AcDbEntity
  8
1
100
AcDbLine
 10
323.8292409864762
 20
89.69535607559851
 30
0.0
 11
398.8292409864802
 21
89.69535607559851
 31
0.0
  0
LINE
  5
1202
330
1A
100
AcDbEntity
  8
1
100
AcDbLine
 10
305.8292409864783
 20
118.695356075599
 30
0.0
 11
250.760691545023
 21
113.8774822826556
 31
0.0
  0
ARC
  5
1203
330
1A
100
AcDbEntity
  8
1
100
AcDbCircle
 10
250.8914251591445
 20
112.3831902355175
 30
0.0
 40
1.5
100
AcDbArc
 50
94.99999999999989
 51
176.9999999999999
  0
LINE
  5
1204
330
1A
100
AcDbEntity
  8
1
100
AcDbLine
 10
248.8292409864801
 20
101.695356075599
 30
0.0
 11
249.3934808570123
 21
112.4616941698821
 31
0.0
  0
LINE
  5
1205
330
1A
100
AcDbEntity
  8
1
 62
     8
100
AcDbLine
 10
253.0750384179257
 20
101.695356075599
 30
0.0
 11
253.6588353078575
 21
112.8348643302509
 31
0.0
  0
ARC
  5
1206
330
1A
100
AcDbEntity
  8
1
 62
     8
100
AcDbCircle
 10
255.1567796099893
 20
112.7563603958863
 30
0.0
 40
1.5
100
AcDbArc
 50
94.9999999999996
 51
176.9999999999976
  0
LINE
  5
1207
330
1A
100
AcDbEntity
  8
1
100
AcDbLine
 10
323.8292409864765
 20
89.69535607559851
 30
0.0
 11
258.8292409864793
 21
101.6953560755986
 31
0.0
  0
LINE
  5
1208
330
1A
100
AcDbEntity
  8
1
100
AcDbLine
 10
248.8292409864801
 20
101.695356075599
 30
0.0
 11
258.8292409864763
 21
101.695356075599
 31
0.0
  0
LINE
  5
1209
330
1A
100
AcDbEntity
  8
1
 62
     8
100
AcDbLine
 10
365.8292409864943
 20
120.8919232347451
 30
0.0
 11
365.8292409864947
 21
120.1953560755985
 31
0.0
  0
LINE
  5
120A
330
1A
100
AcDbEntity
  8
1
 62
     8
100
AcDbLine
 10
322.8292409864802
 20
118.6953560755999
 30
0.0
 11
322.8292409864802
 21
120.195356075599
 31
0.0
  0
LINE
  5
120B
330
1A
100
AcDbEntity
  8
1
 62
     8
100
AcDbLine
 10
345.8292409864907
 20
120.8919232347451
 30
0.0
 11
345.8292409864903
 21
120.1953560755985
 31
0.0
  0
LINE
  5
120C
330
1A
100
AcDbEntity
  8
1
100
AcDbLine
 10
258.8292409864654
 20
196.4702368498146
 30
0.0
 11
258.0325804436117
 21
196.4702368498146
 31
0.0
  0
CIRCLE
  5
120D
330
1A
100
AcDbEntity
  8
1
 62
     8
100
AcDbCircle
 10
384.8292654763672
 20
216.8413328476944
 30
0.0
 40
6.000024400001847
  0
LINE
  5
1268
330
1A
100
AcDbEntity
  8
CENTER
 48
0.5
100
AcDbLine
 10
355.8292409864802
 20
224.3510425098494
 30
0.0
 11
355.8292409864802
 21
307.3316231855398
 31
0.0
  0
LINE
  5
1269
330
1A
100
AcDbEntity
  8
CENTER
 48
0.5
100
AcDbLine
 10
397.3195313243252
 20
265.8413328476946
 30
0.0
 11
314.3389506486351
 21
265.8413328476946
 31
0.0
  0
DIMENSION
  5
1278
330
1A
100
AcDbEntity
  8
MEASURE
100
AcDbDimension
  2
*D1
 10
434.8292409864799
 20
195.8413328476945
 30
0.0
 11
430.3292409864798
 21
265.8413328476945
 31
0.0
 70
    32
  3
AD-STANDARD
100
AcDbAlignedDimension
 13
388.8292409864807
 23
335.8413328476942
 33
0.0
 14
388.8292409864807
 24
195.8413328476945
 34
0.0
 50
270.0
100
AcDbRotatedDimension
  0
DIMENSION
  5
1285
330
1A
100
AcDbEntity
  8
MEASURE
100
AcDbDimension
  2
*D2
 10
422.8292409864799
 20
195.8413328476945
 30
0.0
 11
418.3292409864798
 21
230.8413328476946
 31
0.0
 70
    32
  3
AD-STANDARD
100
AcDbAlignedDimension
 13
392.3195313243254
 23
265.8413328476946
 33
0.0
 14
388.8292409864807
 24
195.8413328476945
 34
0.0
 50
270.0
100
AcDbRotatedDimension
  0
DIMENSION
  5
1292
330
1A
100
AcDbEntity
  8
MEASURE
100
AcDbDimension
  2
*D3
 10
422.8292409864799
 20
335.8413328476942
 30
0.0
 11
418.3292409864798
 21
300.8413328476945
 31
0.0
 70
    32
  3
AD-STANDARD
100
AcDbAlignedDimension
 13
398.82924098648
 23
265.8413328476946
 33
0.0
 14
388.8292409864807
 24
335.8413328476942
 34
0.0
 50
270.0
100
AcDbRotatedDimension
  0
DIMENSION
  5
129F
330
1A
100
AcDbEntity
  8
MEASURE
100
AcDbDimension
  2
*D4
 10
398.82924098648
 20
359.8413328476945
 30
0.0
 11
377.3292409864801
 21
364.3413328476944
 31
0.0
 70
    32
  3
AD-STANDARD
100
AcDbAlignedDimension
 13
355.8292409864802
 23
302.3316231855397
 33
0.0
 14
398.82924098648
 24
325.8413328476943
 34
0.0
100
AcDbRotatedDimension
  0
DIMENSION
  5
12AC
330
1A
100
AcDbEntity
  8
MEASURE
100
AcDbDimension
  2
*D5
 10
248.82924098648
 20
359.8413328476945
 30
0.0
 11
302.3292409864801
 21
364.3413328476944
 31
0.0
 70
    32
  3
AD-STANDARD
100
AcDbAlignedDimension
 13
355.8292409864802
 23
302.3316231855397
 33
0.0
 14
248.82924098648
 24
265.8413328476945
 34
0.0
100
AcDbRotatedDimension
  0
DIMENSION
  5
12B9
330
1A
100
AcDbEntity
  8
MEASURE
100
AcDbDimension
  2
*D6
 10
248.82924098648
 20
371.8413328476945
 30
0.0
 11
323.82924098648
 21
376.3413328476945
 31
0.0
 70
    32
  3
AD-STANDARD
100
AcDbAlignedDimension
 13
398.82924098648
 23
325.8413328476943
 33
0.0
 14
248.82924098648
 24
265.8413328476945
 34
0.0
100
AcDbRotatedDimension
  0
DIMENSION
  5
12C6
330
1A
100
AcDbEntity
  8
MEASURE
100
AcDbDimension
  2
*D7
 10
163.8292409864801
 20
150.3919232347451
 30
0.0
 11
128.8292409864802
 21
154.8919232347451
 31
0.0
 70
    32
  1
%%C<>
  3
AD-STANDARD
100
AcDbAlignedDimension
 13
93.82924098648032
 23
126.3919232347451
 33
0.0
 14
163.8292409864801
 24
126.3919232347451
 34
0.0
100
AcDbRotatedDimension
  0
DIMENSION
  5
1320
330
1A
100
AcDbEntity
  8
MEASURE
100
AcDbDimension
  2
*D8
 10
34.82924098648016
 20
71.59537437559933
 30
0.0
 11
30.32924098648015
 21
98.99364880517225
 31
0.0
 70
    32
  3
AD-STANDARD
100
AcDbAlignedDimension
 13
93.82924098648009
 23
126.3919232347451
 33
0.0
 14
76.82924098648118
 24
71.59537437559933
 34
0.0
 50
90.0
100
AcDbRotatedDimension
1001
ACAD
1000
DSTYLE
1002
{
1070
   271
1070
     0
1002
}
  0
ARC
  5
14A7
330
1A
100
AcDbEntity
  8
1
 62
     8
100
AcDbCircle
 10
387.829240986495
 20
321.8413328476959
 30
0.0
 40
6.0
100
AcDbArc
 50
0.0
 51
89.99999999999998
  0
LINE
  5
14A8
330
1A
100
AcDbEntity
  8
1
 62
     8
100
AcDbLine
 10
316.8292409864952
 20
327.8413328476961
 30
0.0
 11
387.829240986495
 21
327.8413328476959
 31
0.0
  0
LINE
  5
14A9
330
1A
100
AcDbEntity
  8
1
 62
     8
100
AcDbLine
 10
393.8292409864951
 20
235.8413328476959
 30
0.0
 11
393.8292409864951
 21
321.8413328476959
 31
0.0
  0
ARC
  5
14AA
330
1A
100
AcDbEntity
  8
1
 62
     8
100
AcDbCircle
 10
316.8292409864952
 20
321.8413328476959
 30
0.0
 40
6.0
100
AcDbArc
 50
89.99999999999998
 51
180.0
  0
LINE
  5
14AB
330
1A
100
AcDbEntity
  8
1
 62
     8
100
AcDbLine
 10
310.8292409864952
 20
321.841332847696
 30
0.0
 11
310.829240986495
 21
209.8413328476959
 31
0.0
  0
ARC
  5
14AD
330
1A
100
AcDbEntity
  8
1
 62
     8
100
AcDbCircle
 10
316.829240986495
 20
209.8413328476959
 30
0.0
 40
6.0
100
AcDbArc
 50
179.9999999999999
 51
270.0
  0
LINE
  5
14AE
330
1A
100
AcDbEntity
  8
1
 62
     8
100
AcDbLine
 10
316.829240986495
 20
203.8413328476959
 30
0.0
 11
365.8292654763822
 21
203.8413328476959
 31
0.0
  0
ARC
  5
14AF
330
1A
100
AcDbEntity
  8
1
 62
     8
100
AcDbCircle
 10
365.8292654763822
 20
209.8413328476959
 30
0.0
 40
6.0
100
AcDbArc
 50
270.0
 51
0.0000000000001654
  0
LINE
  5
14B0
330
1A
100
AcDbEntity
  8
1
 62
     8
100
AcDbLine
 10
371.8292654763822
 20
216.841332847696
 30
0.0
 11
371.8292654763822
 21
209.8413328476959
 31
0.0
  0
ARC
  5
14B1
330
1A
100
AcDbEntity
  8
1
 62
     8
100
AcDbCircle
 10
384.8292654763823
 20
216.841332847696
 30
0.0
 40
13.0
100
AcDbArc
 50
89.99999999999998
 51
180.0
  0
LINE
  5
14B2
330
1A
100
AcDbEntity
  8
1
 62
     8
100
AcDbLine
 10
384.8292654763822
 20
229.8413328476959
 30
0.0
 11
387.829240986495
 21
229.8413328476959
 31
0.0
  0
ARC
  5
14B3
330
1A
100
AcDbEntity
  8
1
 62
     8
100
AcDbCircle
 10
387.829240986495
 20
235.8413328476959
 30
0.0
 40
6.0
100
AcDbArc
 50
270.0000000000004
 51
0.0
  0
ARC
  5
14CD
330
1A
100
AcDbEntity
  8
1
100
AcDbCircle
 10
123.2230973614239
 20
73.10650670942365
 30
0.0
 40
1.0
100
AcDbArc
 50
183.0000000000056
 51
259.5810969099741
  0
ARC
  5
14CE
330
1A
100
AcDbEntity
  8
1
100
AcDbCircle
 10
134.435402821971
 20
73.10650670942354
 30
0.0
 40
1.0
100
AcDbArc
 50
280.4189030900225
 51
356.9999999999913
  0
ARC
  5
14D0
330
1A
100
AcDbEntity
  8
1
100
AcDbCircle
 10
379.2230882562063
 20
73.10650670943513
 30
0.0
 40
1.0
100
AcDbArc
 50
182.9999999999991
 51
259.5810969099708
  0
ARC
  5
14D1
330
1A
100
AcDbEntity
  8
1
100
AcDbCircle
 10
390.4353937167541
 20
73.10650670943513
 30
0.0
 40
1.0
100
AcDbArc
 50
280.4189030900225
 51
357.0000000000009
  0
ARC
  5
14D2
330
1A
100
AcDbEntity
  8
1
 62
     8
100
AcDbCircle
 10
385.6754678868203
 20
74.00253182089333
 30
0.0
 40
0.5
100
AcDbArc
 50
183.0000000000021
 51
259.0121075727716
  0
ARC
  5
14D3
330
1A
100
AcDbEntity
  8
1
 62
     8
100
AcDbCircle
 10
389.9830630659145
 20
74.00253182089333
 30
0.0
 40
0.5
100
AcDbArc
 50
280.9878924272282
 51
357.0000000000009
  0
ARC
  5
14D4
330
1A
100
AcDbEntity
  8
1
100
AcDbCircle
 10
568.6754546286789
 20
74.00253182089506
 30
0.0
 40
0.5
100
AcDbArc
 50
183.0000000000028
 51
259.0121075727751
  0
ARC
  5
14D5
330
1A
100
AcDbEntity
  8
1
100
AcDbCircle
 10
572.9830498077734
 20
74.00253182089511
 30
0.0
 40
0.5
100
AcDbArc
 50
280.987892427224
 51
356.9999999999984
  0
ARC
  5
14D6
330
1A
100
AcDbEntity
  8
1
100
AcDbCircle
 10
464.6754339547546
 20
74.00253182089244
 30
0.0
 40
0.5
100
AcDbArc
 50
183.0000000000021
 51
259.0121075727716
  0
ARC
  5
14D7
330
1A
100
AcDbEntity
  8
1
100
AcDbCircle
 10
468.9830291338487
 20
74.00253182089253
 30
0.0
 40
0.5
100
AcDbArc
 50
280.9878924272282
 51
357.0000000000009
  0
ARC
  5
14D8
330
1A
100
AcDbEntity
  8
1
100
AcDbCircle
 10
513.2230891509882
 20
73.10650670942513
 30
0.0
 40
1.0
100
AcDbArc
 50
183.0000000000018
 51
259.5810969099773
  0
ARC
  5
14D9
330
1A
100
AcDbEntity
  8
1
100
AcDbCircle
 10
524.4353946115356
 20
73.10650670942521
 30
0.0
 40
1.0
100
AcDbArc
 50
280.4189030900225
 51
356.9999999999981
  0
LINE
  5
14DA
330
1A
100
AcDbEntity
  8
1
100
AcDbLine
 10
580.6458137589898
 20
77.09537437560064
 30
0.0
 11
581.8292409864795
 21
77.09537437560064
 31
0.0
  0
SPLINE
  5
14E2
330
1A
100
AcDbEntity
  8
1
 62
     8
100
AcDbSpline
210
0.0
220
0.0
230
1.0
 70
     8
 71
     3
 72
    11
 73
     7
 74
     0
 42
0.0000000001
 43
0.0000000001
 40
0.0
 40
0.0
 40
0.0
 40
0.0
 40
0.2872470759112987
 40
0.6198822485823051
 40
1.033010929009501
 40
1.895118162462643
 40
1.895118162462643
 40
1.895118162462643
 40
1.895118162462643
 10
561.9035082396143
 20
74.63127276046296
 30
0.0
 10
561.9964805198748
 20
74.60833179294173
 30
0.0
 10
562.1971156906968
 20
74.55882494074223
 30
0.0
 10
562.5346501090189
 20
74.49056923623562
 30
0.0
 10
563.0633411034223
 20
74.39961422061864
 30
0.0
 10
563.4884371274917
 20
74.37796157042362
 30
0.0
 10
563.7758179589699
 20
74.36332356803254
 30
0.0
  0
SPLINE
  5
14E3
330
1A
100
AcDbEntity
  8
1
 62
     8
100
AcDbSpline
210
0.0
220
0.0
230
1.0
 70
     8
 71
     3
 72
    11
 73
     7
 74
     0
 42
0.0000000001
 43
0.0000000001
 40
0.0
 40
0.0
 40
0.0
 40
0.0
 40
0.6086661730821504
 40
0.7710122529252771
 40
0.8614720754176893
 40
0.9290680403780534
 40
0.9290680403780534
 40
0.9290680403780534
 40
0.9290680403780534
 10
577.8826640141718
 20
74.36332356803254
 30
0.0
 10
577.6764985178759
 20
74.36772747621972
 30
0.0
 10
577.4153436668195
 20
74.37330601388595
 30
0.0
 10
577.1478017310744
 20
74.47595063992216
 30
0.0
 10
577.0616259588426
 20
74.55340974822303
 30
0.0
 10
577.0604666289897
 20
74.60794821105972
 30
0.0
 10
577.0599708165847
 20
74.63127276046296
 30
0.0
  0
SPLINE
  5
14E4
330
1A
100
AcDbEntity
  8
1
 62
     8
100
AcDbSpline
210
0.0
220
0.0
230
1.0
 70
     8
 71
     3
 72
    11
 73
     7
 74
     0
 42
0.0000000001
 43
0.0000000001
 40
0.0
 40
0.0
 40
0.0
 40
0.0
 40
0.2872470759112987
 40
0.6198822485823051
 40
1.033010929009501
 40
1.895118162462643
 40
1.895118162462643
 40
1.895118162462643
 40
1.895118162462643
 10
579.7549737333447
 20
74.63127276046296
 30
0.0
 10
579.6620014530843
 20
74.60833179294173
 30
0.0
 10
579.4613662822623
 20
74.55882494074223
 30
0.0
 10
579.1238318639401
 20
74.49056923623562
 30
0.0
 10
578.5951408695366
 20
74.39961422061864
 30
0.0
 10
578.1700448454675
 20
74.37796157042362
 30
0.0
 10
577.8826640139891
 20
74.36332356803254
 30
0.0
  0
SPLINE
  5
14E5
330
1A
100
AcDbEntity
  8
1
 62
     8
100
AcDbSpline
210
0.0
220
0.0
230
1.0
 70
     8
 71
     3
 72
    11
 73
     7
 74
     0
 42
0.0000000001
 43
0.0000000001
 40
0.0
 40
0.0
 40
0.0
 40
0.0
 40
0.2818106443530395
 40
0.5777407165587852
 40
0.9010228886137877
 40
1.391230904184199
 40
1.391230904184199
 40
1.391230904184199
 40
1.391230904184199
 10
583.6057765430677
 20
74.63127276046296
 30
0.0
 10
583.5145872164175
 20
74.60869757541721
 30
0.0
 10
583.3276397466287
 20
74.56241613131195
 30
0.0
 10
583.0349995551212
 20
74.49507638269674
 30
0.0
 10
582.6739793438738
 20
74.41355454368821
 30
0.0
 10
582.4043795996466
 20
74.38221108880703
 30
0.0
 10
582.2419191820212
 20
74.36332356803254
 30
0.0
  0
SPLINE
  5
14E6
330
1A
100
AcDbEntity
  8
1
 62
     8
100
AcDbSpline
210
0.0
220
0.0
230
1.0
 70
     8
 71
     3
 72
    10
 73
     6
 74
     0
 42
0.0000000001
 43
0.0000000001
 40
0.0
 40
0.0
 40
0.0
 40
0.0
 40
0.1767671893195819
 40
0.3324877103107063
 40
0.4562507110365228
 40
0.4562507110365228
 40
0.4562507110365228
 40
0.4562507110365228
 10
582.5763770286455
 20
74.63127276046296
 30
0.0
 10
582.5217584584858
 20
74.60928337303423
 30
0.0
 10
582.4190244420496
 20
74.56792275002792
 30
0.0
 10
582.2793742137506
 20
74.50621857364621
 30
0.0
 10
582.2022873097112
 20
74.45360819205944
 30
0.0
 10
582.1681511055372
 20
74.43031086614002
 30
0.0
  0
SPLINE
  5
14E7
330
1A
100
AcDbEntity
  8
1
 62
     8
100
AcDbSpline
210
0.0
220
0.0
230
1.0
 70
     8
 71
     3
 72
    11
 73
     7
 74
     0
 42
0.0000000001
 43
0.0000000001
 40
0.0
 40
0.0
 40
0.0
 40
0.0
 40
0.6086661730821504
 40
0.7710122529252771
 40
0.8614720754176893
 40
0.9290680403780534
 40
0.9290680403780534
 40
0.9290680403780534
 40
0.9290680403780534
 10
563.7758179587873
 20
74.36332356803254
 30
0.0
 10
563.9819834550831
 20
74.36772747621972
 30
0.0
 10
564.2431383061396
 20
74.37330601388595
 30
0.0
 10
564.5106802418846
 20
74.47595063992216
 30
0.0
 10
564.5968560141163
 20
74.55340974822303
 30
0.0
 10
564.5980153439692
 20
74.60794821105972
 30
0.0
 10
564.5985111563745
 20
74.63127276046296
 30
0.0
  0
LINE
  5
14E9
330
1A
100
AcDbEntity
  8
1
100
AcDbLine
 10
583.8292409864797
 20
74.63127276046344
 30
0.0
 11
581.8292409864763
 21
74.09537437560064
 31
0.0
  0
SPLINE
  5
14EA
330
1A
100
AcDbEntity
  8
1
 62
     8
100
AcDbSpline
210
0.0
220
0.0
230
1.0
 70
     8
 71
     3
 72
    10
 73
     6
 74
     0
 42
0.0000000001
 43
0.0000000001
 40
0.0
 40
0.0
 40
0.0
 40
0.0
 40
0.1767671893195819
 40
0.3324877103107063
 40
0.4562507110365228
 40
0.4562507110365228
 40
0.4562507110365228
 40
0.4562507110365228
 10
559.0821049443134
 20
74.63127276046296
 30
0.0
 10
559.1367235144733
 20
74.60928337303423
 30
0.0
 10
559.2394575309095
 20
74.56792275002792
 30
0.0
 10
559.3791077592084
 20
74.50621857364621
 30
0.0
 10
559.4561946632478
 20
74.45360819205944
 30
0.0
 10
559.4903308674219
 20
74.43031086614002
 30
0.0
  0
SPLINE
  5
14EB
330
1A
100
AcDbEntity
  8
1
 62
     8
100
AcDbSpline
210
0.0
220
0.0
230
1.0
 70
     8
 71
     3
 72
    11
 73
     7
 74
     0
 42
0.0000000001
 43
0.0000000001
 40
0.0
 40
0.0
 40
0.0
 40
0.0
 40
0.2818106443530395
 40
0.5777407165587852
 40
0.9010228886137877
 40
1.391230904184199
 40
1.391230904184199
 40
1.391230904184199
 40
1.391230904184199
 10
558.0527054298916
 20
74.63127276046296
 30
0.0
 10
558.1438947565415
 20
74.60869757541721
 30
0.0
 10
558.3308422263303
 20
74.56241613131195
 30
0.0
 10
558.6234824178379
 20
74.49507638269674
 30
0.0
 10
558.9845026290853
 20
74.41355454368821
 30
0.0
 10
559.2541023733123
 20
74.38221108880703
 30
0.0
 10
559.4165627909377
 20
74.36332356803254
 30
0.0
  0
LINE
  5
14EC
330
1A
100
AcDbEntity
  8
1
100
AcDbLine
 10
557.8292409864793
 20
74.63127276046344
 30
0.0
 11
559.8292409864828
 21
74.09537437560064
 31
0.0
  0
LINE
  5
14ED
330
1A
100
AcDbEntity
  8
1
100
AcDbLine
 10
581.8292409864763
 20
74.09537437560064
 30
0.0
 11
573.4886016528876
 21
74.09537437560064
 31
0.0
  0
SPLINE
  5
14EE
330
1A
100
AcDbEntity
  8
1
 62
     8
100
AcDbSpline
210
0.0
220
0.0
230
1.0
 70
     8
 71
     3
 72
     9
 73
     5
 74
     0
 42
0.0000000001
 43
0.0000000001
 40
0.0
 40
0.0
 40
0.0
 40
0.0
 40
0.0709646172400961
 40
0.1241404801011342
 40
0.1241404801011342
 40
0.1241404801011342
 40
0.1241404801011342
 10
582.2419191820212
 20
74.36332356803254
 30
0.0
 10
582.2126321651023
 20
74.36257417159623
 30
0.0
 10
582.1613995299883
 20
74.36126323049553
 30
0.0
 10
582.1661263578488
 20
74.40960398970332
 30
0.0
 10
582.1681511055372
 20
74.43031086614002
 30
0.0
  0
ARC
  5
14EF
330
1A
100
AcDbEntity
  8
1
100
AcDbCircle
 10
570.8292409864795
 20
78.09537437560064
 30
0.0
 40
6.5
100
AcDbArc
 50
237.7957724960212
 51
302.2042275040344
  0
LINE
  5
14F0
330
1A
100
AcDbEntity
  8
1
100
AcDbLine
 10
566.3292409864792
 20
72.59537437560064
 30
0.0
 11
575.3292409864821
 21
72.59537437560513
 31
0.0
  0
ARC
  5
14F1
330
1A
100
AcDbEntity
  8
1
100
AcDbCircle
 10
577.0612917940487
 20
72.59537437560069
 30
0.0
 40
1.5
100
AcDbArc
 50
90.0
 51
150.0
  0
LINE
  5
14F2
330
1A
100
AcDbEntity
  8
1
100
AcDbLine
 10
575.7622536883721
 20
73.34537437560064
 30
0.0
 11
575.3292409864797
 21
72.59537437560064
 31
0.0
  0
LINE
  5
14F3
330
1A
100
AcDbEntity
  8
1
100
AcDbLine
 10
565.8962282845869
 20
73.34537437560064
 30
0.0
 11
566.3292409864792
 21
72.59537437560064
 31
0.0
  0
ARC
  5
14F4
330
1A
100
AcDbEntity
  8
1
100
AcDbCircle
 10
564.5971901789103
 20
72.59537437560069
 30
0.0
 40
1.5
100
AcDbArc
 50
30.00000000000005
 51
90.0
  0
SPLINE
  5
14F5
330
1A
100
AcDbEntity
  8
1
 62
     8
100
AcDbSpline
210
0.0
220
0.0
230
1.0
 70
     8
 71
     3
 72
     9
 73
     5
 74
     0
 42
0.0000000001
 43
0.0000000001
 40
0.0
 40
0.0
 40
0.0
 40
0.0
 40
0.0709646172400961
 40
0.1241404801011342
 40
0.1241404801011342
 40
0.1241404801011342
 40
0.1241404801011342
 10
559.4165627909377
 20
74.36332356803254
 30
0.0
 10
559.4458498078568
 20
74.36257417159623
 30
0.0
 10
559.4970824429707
 20
74.36126323049603
 30
0.0
 10
559.4923556151102
 20
74.40960398970332
 30
0.0
 10
559.4903308674219
 20
74.43031086614002
 30
0.0
  0
LINE
  5
14F6
330
1A
100
AcDbEntity
  8
1
100
AcDbLine
 10
583.8292409864796
 20
76.59537437560064
 30
0.0
 11
580.5579688023664
 21
76.5953743756007
 31
0.0
  0
LINE
  5
14F7
330
1A
100
AcDbEntity
  8
1
 62
     8
100
AcDbLine
 10
561.9035082396143
 20
74.63127276046296
 30
0.0
 11
559.0821049443138
 21
74.63127276046296
 31
0.0
  0
LINE
  5
14F8
330
1A
100
AcDbEntity
  8
1
 62
     8
100
AcDbLine
 10
582.5763770286465
 20
74.63127276046344
 30
0.0
 11
579.7549737333449
 21
74.63127276046344
 31
0.0
  0
LINE
  5
14F9
330
1A
100
AcDbEntity
  8
1
 62
     8
100
AcDbLine
 10
583.8292409864797
 20
74.63127276046344
 30
0.0
 11
583.6057765430694
 21
74.63127276046344
 31
0.0
  0
LINE
  5
14FA
330
1A
100
AcDbEntity
  8
1
 62
     8
100
AcDbLine
 10
577.0599708165847
 20
74.63127276046296
 30
0.0
 11
573.5166868971596
 21
74.63127276046296
 31
0.0
  0
LINE
  5
14FB
330
1A
100
AcDbEntity
  8
1
 62
     8
100
AcDbLine
 10
577.0599708165847
 20
74.63127276046296
 30
0.0
 11
577.0599708165847
 21
75.59537437559933
 31
0.0
  0
LINE
  5
14FC
330
1A
100
AcDbEntity
  8
1
 62
     8
100
AcDbLine
 10
579.7549737333447
 20
74.63127276046296
 30
0.0
 11
579.7549737333446
 21
75.72555250638254
 31
0.0
  0
LINE
  5
14FD
330
1A
100
AcDbEntity
  8
1
 62
     8
100
AcDbLine
 10
582.5763770286455
 20
74.63127276046296
 30
0.0
 11
582.5763770286455
 21
76.59537437560064
 31
0.0
  0
LINE
  5
14FE
330
1A
100
AcDbEntity
  8
1
 62
     8
100
AcDbLine
 10
583.6057765430677
 20
74.63127276046254
 30
0.0
 11
583.6057765430672
 21
76.59537437560064
 31
0.0
  0
LINE
  5
14FF
330
1A
100
AcDbEntity
  8
1
 62
     8
100
AcDbLine
 10
568.1418175392932
 20
74.63127276046296
 30
0.0
 11
564.5985111563745
 21
74.63127276046296
 31
0.0
  0
LINE
  5
1500
330
1A
100
AcDbEntity
  8
1
 62
     8
100
AcDbLine
 10
564.5985111563745
 20
74.63127276046296
 30
0.0
 11
564.5985111563745
 21
75.59537437559933
 31
0.0
  0
LINE
  5
1503
330
1A
100
AcDbEntity
  8
1
100
AcDbLine
 10
583.8292409864796
 20
76.59537437560064
 30
0.0
 11
583.8292409864797
 21
74.63127276046344
 31
0.0
  0
LINE
  5
1504
330
1A
100
AcDbEntity
  8
1
 62
     8
100
AcDbLine
 10
561.9035082396143
 20
74.63127276046296
 30
0.0
 11
561.9035082396147
 21
75.59537437559933
 31
0.0
  0
LINE
  5
1505
330
1A
100
AcDbEntity
  8
1
 62
     8
100
AcDbLine
 10
558.0527054298916
 20
74.63127276046296
 30
0.0
 11
557.8292409864793
 21
74.63127276046344
 31
0.0
  0
LINE
  5
1506
330
1A
100
AcDbEntity
  8
1
 62
     8
100
AcDbLine
 10
558.0527054298916
 20
74.63127276046254
 30
0.0
 11
558.0527054298917
 21
75.59537437559922
 31
0.0
  0
LINE
  5
1507
330
1A
100
AcDbEntity
  8
1
 62
     8
100
AcDbLine
 10
559.0821049443134
 20
74.63127276046296
 30
0.0
 11
559.0821049443134
 21
75.59537437559933
 31
0.0
  0
LINE
  5
1508
330
1A
100
AcDbEntity
  8
1
100
AcDbLine
 10
557.8292409864793
 20
75.59537437559922
 30
0.0
 11
557.8292409864793
 21
74.63127276046344
 31
0.0
  0
LINE
  5
1509
330
1A
100
AcDbEntity
  8
1
100
AcDbLine
 10
581.8292409864795
 20
77.09537437560064
 30
0.0
 11
582.3292409864795
 21
76.59537437560064
 31
0.0
  0
LINE
  5
150C
330
1A
100
AcDbEntity
  8
1
100
AcDbLine
 10
568.1699027835652
 20
74.09537437560064
 30
0.0
 11
559.8292409864807
 21
74.09537437560064
 31
0.0
  0
LINE
  5
150D
330
1A
100
AcDbEntity
  8
1
100
AcDbLine
 10
457.0126682139705
 20
77.09537437560064
 30
0.0
 11
455.8292409864808
 21
77.09537437560064
 31
0.0
  0
SPLINE
  5
150E
330
1A
100
AcDbEntity
  8
1
 62
     8
100
AcDbSpline
210
0.0
220
0.0
230
1.0
 70
     8
 71
     3
 72
    11
 73
     7
 74
     0
 42
0.0000000001
 43
0.0000000001
 40
0.0
 40
0.0
 40
0.0
 40
0.0
 40
0.2872470759112987
 40
0.6198822485823051
 40
1.033010929009501
 40
1.895118162462643
 40
1.895118162462643
 40
1.895118162462643
 40
1.895118162462643
 10
475.754973733346
 20
74.63127276046296
 30
0.0
 10
475.6620014530859
 20
74.60833179294173
 30
0.0
 10
475.4613662822637
 20
74.55882494074223
 30
0.0
 10
475.1238318639416
 20
74.49056923623562
 30
0.0
 10
474.595140869538
 20
74.39961422061864
 30
0.0
 10
474.170044845469
 20
74.37796157042362
 30
0.0
 10
473.8826640139905
 20
74.36332356803254
 30
0.0
  0
SPLINE
  5
150F
330
1A
100
AcDbEntity
  8
1
 62
     8
100
AcDbSpline
210
0.0
220
0.0
230
1.0
 70
     8
 71
     3
 72
    11
 73
     7
 74
     0
 42
0.0000000001
 43
0.0000000001
 40
0.0
 40
0.0
 40
0.0
 40
0.0
 40
0.6086661730821504
 40
0.7710122529252771
 40
0.8614720754176893
 40
0.9290680403780534
 40
0.9290680403780534
 40
0.9290680403780534
 40
0.9290680403780534
 10
459.7758179587885
 20
74.36332356803254
 30
0.0
 10
459.9819834550843
 20
74.36772747621972
 30
0.0
 10
460.2431383061409
 20
74.37330601388595
 30
0.0
 10
460.5106802418861
 20
74.47595063992216
 30
0.0
 10
460.5968560141177
 20
74.55340974822303
 30
0.0
 10
460.5980153439706
 20
74.60794821105972
 30
0.0
 10
460.5985111563758
 20
74.63127276046296
 30
0.0
  0
SPLINE
  5
1510
330
1A
100
AcDbEntity
  8
1
 62
     8
100
AcDbSpline
210
0.0
220
0.0
230
1.0
 70
     8
 71
     3
 72
    11
 73
     7
 74
     0
 42
0.0000000001
 43
0.0000000001
 40
0.0
 40
0.0
 40
0.0
 40
0.0
 40
0.2872470759112987
 40
0.6198822485823051
 40
1.033010929009501
 40
1.895118162462643
 40
1.895118162462643
 40
1.895118162462643
 40
1.895118162462643
 10
457.9035082396158
 20
74.63127276046296
 30
0.0
 10
457.996480519876
 20
74.60833179294173
 30
0.0
 10
458.1971156906981
 20
74.55882494074223
 30
0.0
 10
458.5346501090201
 20
74.49056923623562
 30
0.0
 10
459.0633411034238
 20
74.39961422061864
 30
0.0
 10
459.4884371274929
 20
74.37796157042362
 30
0.0
 10
459.7758179589714
 20
74.36332356803254
 30
0.0
  0
SPLINE
  5
1511
330
1A
100
AcDbEntity
  8
1
 62
     8
100
AcDbSpline
210
0.0
220
0.0
230
1.0
 70
     8
 71
     3
 72
    11
 73
     7
 74
     0
 42
0.0000000001
 43
0.0000000001
 40
0.0
 40
0.0
 40
0.0
 40
0.0
 40
0.2818106443530395
 40
0.5777407165587852
 40
0.9010228886137877
 40
1.391230904184199
 40
1.391230904184199
 40
1.391230904184199
 40
1.391230904184199
 10
454.0527054298928
 20
74.63127276046296
 30
0.0
 10
454.1438947565429
 20
74.60869757541721
 30
0.0
 10
454.3308422263318
 20
74.56241613131195
 30
0.0
 10
454.6234824178393
 20
74.49507638269674
 30
0.0
 10
454.9845026290864
 20
74.41355454368821
 30
0.0
 10
455.2541023733136
 20
74.38221108880703
 30
0.0
 10
455.4165627909392
 20
74.36332356803254
 30
0.0
  0
SPLINE
  5
1512
330
1A
100
AcDbEntity
  8
1
 62
     8
100
AcDbSpline
210
0.0
220
0.0
230
1.0
 70
     8
 71
     3
 72
    10
 73
     6
 74
     0
 42
0.0000000001
 43
0.0000000001
 40
0.0
 40
0.0
 40
0.0
 40
0.0
 40
0.1767671893195819
 40
0.3324877103107063
 40
0.4562507110365228
 40
0.4562507110365228
 40
0.4562507110365228
 40
0.4562507110365228
 10
455.082104944315
 20
74.63127276046296
 30
0.0
 10
455.1367235144747
 20
74.60928337303423
 30
0.0
 10
455.2394575309107
 20
74.56792275002792
 30
0.0
 10
455.3791077592097
 20
74.50621857364621
 30
0.0
 10
455.4561946632492
 20
74.45360819205944
 30
0.0
 10
455.4903308674234
 20
74.43031086614002
 30
0.0
  0
SPLINE
  5
1513
330
1A
100
AcDbEntity
  8
1
 62
     8
100
AcDbSpline
210
0.0
220
0.0
230
1.0
 70
     8
 71
     3
 72
    11
 73
     7
 74
     0
 42
0.0000000001
 43
0.0000000001
 40
0.0
 40
0.0
 40
0.0
 40
0.0
 40
0.6086661730821504
 40
0.7710122529252771
 40
0.8614720754176893
 40
0.9290680403780534
 40
0.9290680403780534
 40
0.9290680403780534
 40
0.9290680403780534
 10
473.8826640141732
 20
74.36332356803254
 30
0.0
 10
473.6764985178773
 20
74.36772747621972
 30
0.0
 10
473.4153436668209
 20
74.37330601388595
 30
0.0
 10
473.1478017310756
 20
74.47595063992216
 30
0.0
 10
473.0616259588441
 20
74.55340974822303
 30
0.0
 10
473.0604666289912
 20
74.60794821105972
 30
0.0
 10
473.0599708165859
 20
74.63127276046296
 30
0.0
  0
LINE
  5
1514
330
1A
100
AcDbEntity
  8
1
100
AcDbLine
 10
453.8292409864807
 20
74.63127276046344
 30
0.0
 11
455.8292409864841
 21
74.09537437560064
 31
0.0
  0
SPLINE
  5
1515
330
1A
100
AcDbEntity
  8
1
 62
     8
100
AcDbSpline
210
0.0
220
0.0
230
1.0
 70
     8
 71
     3
 72
    10
 73
     6
 74
     0
 42
0.0000000001
 43
0.0000000001
 40
0.0
 40
0.0
 40
0.0
 40
0.0
 40
0.1767671893195819
 40
0.3324877103107063
 40
0.4562507110365228
 40
0.4562507110365228
 40
0.4562507110365228
 40
0.4562507110365228
 10
478.5763770286467
 20
74.63127276046296
 30
0.0
 10
478.5217584584869
 20
74.60928337303423
 30
0.0
 10
478.4190244420511
 20
74.56792275002792
 30
0.0
 10
478.2793742137521
 20
74.50621857364621
 30
0.0
 10
478.2022873097124
 20
74.45360819205944
 30
0.0
 10
478.1681511055384
 20
74.43031086614002
 30
0.0
  0
SPLINE
  5
1516
330
1A
100
AcDbEntity
  8
1
 62
     8
100
AcDbSpline
210
0.0
220
0.0
230
1.0
 70
     8
 71
     3
 72
    11
 73
     7
 74
     0
 42
0.0000000001
 43
0.0000000001
 40
0.0
 40
0.0
 40
0.0
 40
0.0
 40
0.2818106443530395
 40
0.5777407165587852
 40
0.9010228886137877
 40
1.391230904184199
 40
1.391230904184199
 40
1.391230904184199
 40
1.391230904184199
 10
479.6057765430689
 20
74.63127276046296
 30
0.0
 10
479.5145872164188
 20
74.60869757541721
 30
0.0
 10
479.3276397466303
 20
74.56241613131195
 30
0.0
 10
479.0349995551225
 20
74.49507638269674
 30
0.0
 10
478.6739793438751
 20
74.41355454368821
 30
0.0
 10
478.404379599648
 20
74.38221108880703
 30
0.0
 10
478.2419191820228
 20
74.36332356803254
 30
0.0
  0
LINE
  5
1517
330
1A
100
AcDbEntity
  8
1
100
AcDbLine
 10
479.8292409864812
 20
74.63127276046344
 30
0.0
 11
477.8292409864778
 21
74.09537437560064
 31
0.0
  0
LINE
  5
1518
330
1A
100
AcDbEntity
  8
1
100
AcDbLine
 10
455.8292409864841
 20
74.09537437560064
 30
0.0
 11
464.1698803200728
 21
74.09537437560064
 31
0.0
  0
SPLINE
  5
1519
330
1A
100
AcDbEntity
  8
1
 62
     8
100
AcDbSpline
210
0.0
220
0.0
230
1.0
 70
     8
 71
     3
 72
     9
 73
     5
 74
     0
 42
0.0000000001
 43
0.0000000001
 40
0.0
 40
0.0
 40
0.0
 40
0.0
 40
0.0709646172400961
 40
0.1241404801011342
 40
0.1241404801011342
 40
0.1241404801011342
 40
0.1241404801011342
 10
455.4165627909392
 20
74.36332356803254
 30
0.0
 10
455.4458498078583
 20
74.36257417159623
 30
0.0
 10
455.4970824429722
 20
74.36126323049553
 30
0.0
 10
455.4923556151114
 20
74.40960398970332
 30
0.0
 10
455.4903308674234
 20
74.43031086614002
 30
0.0
  0
ARC
  5
151A
330
1A
100
AcDbEntity
  8
1
100
AcDbCircle
 10
466.8292409864808
 20
78.09537437560064
 30
0.0
 40
6.5
100
AcDbArc
 50
237.7957724959655
 51
302.2042275039786
  0
LINE
  5
151B
330
1A
100
AcDbEntity
  8
1
100
AcDbLine
 10
471.3292409864812
 20
72.59537437560064
 30
0.0
 11
462.3292409864783
 21
72.59537437560513
 31
0.0
  0
ARC
  5
151C
330
1A
100
AcDbEntity
  8
1
100
AcDbCircle
 10
460.5971901789115
 20
72.59537437560069
 30
0.0
 40
1.5
100
AcDbArc
 50
29.99999999999996
 51
90.0
  0
LINE
  5
151D
330
1A
100
AcDbEntity
  8
1
100
AcDbLine
 10
461.8962282845882
 20
73.34537437560064
 30
0.0
 11
462.3292409864807
 21
72.59537437560064
 31
0.0
  0
LINE
  5
151E
330
1A
100
AcDbEntity
  8
1
100
AcDbLine
 10
471.7622536883737
 20
73.34537437560064
 30
0.0
 11
471.3292409864812
 21
72.59537437560064
 31
0.0
  0
ARC
  5
151F
330
1A
100
AcDbEntity
  8
1
100
AcDbCircle
 10
473.0612917940502
 20
72.59537437560069
 30
0.0
 40
1.5
100
AcDbArc
 50
90.0
 51
149.9999999999999
  0
SPLINE
  5
1520
330
1A
100
AcDbEntity
  8
1
 62
     8
100
AcDbSpline
210
0.0
220
0.0
230
1.0
 70
     8
 71
     3
 72
     9
 73
     5
 74
     0
 42
0.0000000001
 43
0.0000000001
 40
0.0
 40
0.0
 40
0.0
 40
0.0
 40
0.0709646172400961
 40
0.1241404801011342
 40
0.1241404801011342
 40
0.1241404801011342
 40
0.1241404801011342
 10
478.2419191820228
 20
74.36332356803254
 30
0.0
 10
478.2126321651035
 20
74.36257417159623
 30
0.0
 10
478.1613995299895
 20
74.36126323049603
 30
0.0
 10
478.1661263578501
 20
74.40960398970332
 30
0.0
 10
478.1681511055384
 20
74.43031086614002
 30
0.0
  0
LINE
  5
1521
330
1A
100
AcDbEntity
  8
1
100
AcDbLine
 10
453.8292409864808
 20
76.59537437560064
 30
0.0
 11
457.1005131705941
 21
76.5953743756007
 31
0.0
  0
LINE
  5
1522
330
1A
100
AcDbEntity
  8
1
 62
     8
100
AcDbLine
 10
475.754973733346
 20
74.63127276046296
 30
0.0
 11
478.5763770286465
 21
74.63127276046296
 31
0.0
  0
LINE
  5
1523
330
1A
100
AcDbEntity
  8
1
 62
     8
100
AcDbLine
 10
455.0821049443138
 20
74.63127276046344
 30
0.0
 11
457.9035082396154
 21
74.63127276046344
 31
0.0
  0
LINE
  5
1524
330
1A
100
AcDbEntity
  8
1
 62
     8
100
AcDbLine
 10
453.8292409864807
 20
74.63127276046344
 30
0.0
 11
454.0527054298912
 21
74.63127276046344
 31
0.0
  0
LINE
  5
1525
330
1A
100
AcDbEntity
  8
1
 62
     8
100
AcDbLine
 10
460.5985111563758
 20
74.63127276046296
 30
0.0
 11
464.1417950758008
 21
74.63127276046296
 31
0.0
  0
LINE
  5
1526
330
1A
100
AcDbEntity
  8
1
 62
     8
100
AcDbLine
 10
460.5985111563758
 20
74.63127276046296
 30
0.0
 11
460.5985111563756
 21
75.59537437559933
 31
0.0
  0
LINE
  5
1527
330
1A
100
AcDbEntity
  8
1
 62
     8
100
AcDbLine
 10
457.9035082396158
 20
74.63127276046296
 30
0.0
 11
457.9035082396158
 21
75.72555250638254
 31
0.0
  0
LINE
  5
1528
330
1A
100
AcDbEntity
  8
1
 62
     8
100
AcDbLine
 10
455.082104944315
 20
74.63127276046296
 30
0.0
 11
455.082104944315
 21
76.59537437560064
 31
0.0
  0
LINE
  5
1529
330
1A
100
AcDbEntity
  8
1
 62
     8
100
AcDbLine
 10
454.0527054298928
 20
74.63127276046254
 30
0.0
 11
454.0527054298932
 21
76.59537437560064
 31
0.0
  0
LINE
  5
152A
330
1A
100
AcDbEntity
  8
1
 62
     8
100
AcDbLine
 10
469.5166644336673
 20
74.63127276046296
 30
0.0
 11
473.0599708165859
 21
74.63127276046296
 31
0.0
  0
LINE
  5
152B
330
1A
100
AcDbEntity
  8
1
 62
     8
100
AcDbLine
 10
473.0599708165859
 20
74.63127276046296
 30
0.0
 11
473.0599708165859
 21
75.59537437559933
 31
0.0
  0
LINE
  5
152C
330
1A
100
AcDbEntity
  8
1
100
AcDbLine
 10
453.8292409864808
 20
76.59537437560064
 30
0.0
 11
453.8292409864807
 21
74.63127276046344
 31
0.0
  0
LINE
  5
152D
330
1A
100
AcDbEntity
  8
1
 62
     8
100
AcDbLine
 10
475.754973733346
 20
74.63127276046296
 30
0.0
 11
475.754973733346
 21
75.59537437559933
 31
0.0
  0
LINE
  5
152E
330
1A
100
AcDbEntity
  8
1
 62
     8
100
AcDbLine
 10
479.6057765430689
 20
74.63127276046296
 30
0.0
 11
479.8292409864812
 21
74.63127276046344
 31
0.0
  0
LINE
  5
152F
330
1A
100
AcDbEntity
  8
1
 62
     8
100
AcDbLine
 10
479.6057765430689
 20
74.63127276046254
 30
0.0
 11
479.6057765430687
 21
75.59537437559922
 31
0.0
  0
LINE
  5
1530
330
1A
100
AcDbEntity
  8
1
 62
     8
100
AcDbLine
 10
478.5763770286467
 20
74.63127276046296
 30
0.0
 11
478.5763770286467
 21
75.59537437559933
 31
0.0
  0
LINE
  5
1531
330
1A
100
AcDbEntity
  8
1
100
AcDbLine
 10
479.8292409864812
 20
75.59537437559922
 30
0.0
 11
479.8292409864812
 21
74.63127276046344
 31
0.0
  0
LINE
  5
1532
330
1A
100
AcDbEntity
  8
1
100
AcDbLine
 10
455.8292409864808
 20
77.09537437560064
 30
0.0
 11
455.3292409864808
 21
76.59537437560064
 31
0.0
  0
LINE
  5
1533
330
1A
100
AcDbEntity
  8
1
100
AcDbLine
 10
469.4885791893954
 20
74.09537437560064
 30
0.0
 11
477.8292409864796
 21
74.09537437560064
 31
0.0
  0
POLYLINE
  5
1609
330
1A
100
AcDbEntity
  8
DEFPOINTS
100
AcDb2dPolyline
 66
     1
 10
0.0
 20
0.0
 30
0.0
 70
     1
  0
VERTEX
  5
1975
330
1609
100
AcDbEntity
  8
DEFPOINTS
100
AcDbVertex
100
AcDb2dVertex
 10
0.0
 20
0.0
 30
0.0
  0
VERTEX
  5
1976
330
1609
100
AcDbEntity
  8
DEFPOINTS
100
AcDbVertex
100
AcDb2dVertex
 10
630.0
 20
0.0
 30
0.0
  0
VERTEX
  5
1977
330
1609
100
AcDbEntity
  8
DEFPOINTS
100
AcDbVertex
100
AcDb2dVertex
 10
630.0
 20
445.5
 30
0.0
  0
VERTEX
  5
1978
330
1609
100
AcDbEntity
  8
DEFPOINTS
100
AcDbVertex
100
AcDb2dVertex
 10
0.0
 20
445.5
 30
0.0
  0
SEQEND
  5
1979
330
1609
100
AcDbEntity
  8
DEFPOINTS
  0
VIEWPORT
  5
165A
330
1652
100
AcDbEntity
 67
     1
  8
0
100
AcDbViewport
 10
260.2942146199945
 20
202.2141122171508
 30
0.0
 40
448.6188776239065
 41
368.1449758645666
 68
     1
 69
     1
1001
ACAD
1000
MVIEW
1002
{
1070
    16
1010
0.0
1020
0.0
1030
0.0
1010
0.0
1020
0.0
1030
1.0
1040
0.0
1040
368.1449758645666
1040
260.2942146199945
1040
202.2141122171508
1040
50.0
1040
0.0
1040
0.0
1070
     0
1070
   100
1070
     1
1070
     1
1070
     0
1070
     0
1070
     0
1070
     0
1040
0.0
1040
0.0
1040
0.0
1040
10.0
1040
10.0
1040
10.0
1040
10.0
1070
     0
1002
{
1002
}
1002
}
  0
VIEWPORT
  5
165C
330
1652
100
AcDbEntity
 67
     1
  8
DEFPOINTS
100
AcDbViewport
 10
261.566736039409
 20
210.7005862212644
 30
0.0
 40
408.5751200425163
 41
285.4829914214608
 68
     2
 69
     2
1001
ACAD
1000
MVIEW
1002
{
1070
    16
1010
0.0
1020
0.0
1030
0.0
1010
0.0
1020
0.0
1030
1.0
1040
0.0
1040
428.2244873592169
1040
315.560981334949
1040
224.2576412234589
1040
50.0
1040
0.0
1040
0.0
1070
     0
1070
   100
1070
     1
1070
     0
1070
     0
1070
     0
1070
     0
1070
     1
1040
0.0
1040
0.0
1040
0.0
1040
168.0
1040
168.0
1040
0.0
1040
0.0
1070
     0
1002
{
1002
}
1002
}
  0
MTEXT
  5
165D
330
1652
100
AcDbEntity
 67
     1
  8
MEASURE
100
AcDbMText
 10
346.2950149089572
 20
33.65996920238285
 30
0.0
 40
3.5
 41
74.0371
 71
     1
 72
     1
  1
AD:HL100
  7
AD-STANDARD
1001
ACAD
1000
MTEXTBEGIN
1070
    73
1070
     1
1070
    44
1040
1.0
1070
    74
1070
     0
1000
MTEXTEND
1000
MTEXTBEGIN
1070
    73
1070
     1
1070
    44
1040
1.0
1070
    74
1070
     0
1000
MTEXTEND
  0
ENDSEC
  0
SECTION
  2
OBJECTS
  0
DICTIONARY
  5
C
330
0
100
AcDbDictionary
  3
ACAD_GROUP
350
D
  3
ACAD_LAYOUT
350
14B8
  3
ACAD_MLINESTYLE
350
E
  3
ACAD_PLOTSETTINGS
350
14B9
  3
CONTENTDICTIONARY
350
234
1001
ACAD
1000
TREAT_AS_HARD
1070
     0
  0
DICTIONARY
  5
16A7
330
1A
100
AcDbDictionary
  3
ACAD_LAYOUTSELFREF
350
194F
1001
ACAD
1000
TREAT_AS_HARD
1070
     1
  0
DICTIONARY
  5
16AA
330
1652
100
AcDbDictionary
  3
ACAD_LAYOUTSELFREF
350
197A
1001
ACAD
1000
TREAT_AS_HARD
1070
     1
  0
DICTIONARY
  5
D
102
{ACAD_REACTORS
330
C
102
}
330
C
100
AcDbDictionary
  3
*A10
350
1241
  3
*A11
350
1243
  3
*A17
350
1248
  3
*A2
350
15A0
  3
*A22
350
123E
  3
*A23
350
123B
  3
*A24
350
1250
  3
*A27
350
1242
  3
*A3
350
15A1
  3
*A4
350
124E
  3
*A5
350
15A2
  3
*A6
350
15A3
  3
*A7
350
124A
  3
*A8
350
1247
  3
*A9
350
1240
1001
ACAD
1000
TREAT_AS_HARD
1070
     0
  0
DICTIONARY
  5
14B8
102
{ACAD_REACTORS
330
C
102
}
330
C
100
AcDbDictionary
1001
ACAD
1000
TREAT_AS_HARD
1070
     0
  0
DICTIONARY
  5
E
102
{ACAD_REACTORS
330
C
102
}
330
C
100
AcDbDictionary
  3
STANDARD
350
13
1001
ACAD
1000
TREAT_AS_HARD
1070
     0
  0
DICTIONARY
  5
14B9
102
{ACAD_REACTORS
330
C
102
}
330
C
100
AcDbDictionary
  3
A3FORMLP8200
350
15D5
1001
ACAD
1000
TREAT_AS_HARD
1070
     0
  0
DICTIONARY
  5
234
102
{ACAD_REACTORS
330
C
102
}
330
C
100
AcDbDictionary
1001
ACAD
1000
TREAT_AS_HARD
1070
     0
  0
XRECORD
  5
194F
102
{ACAD_REACTORS
330
16A7
102
}
330
16A7
100
AcDbXrecord
340
1A
  0
XRECORD
  5
197A
102
{ACAD_REACTORS
330
16AA
102
}
330
16AA
100
AcDbXrecord
340
1652
  0
GROUP
  5
1241
102
{ACAD_REACTORS
330
D
102
}
330
D
100
AcDbGroup
300

 70
     1
 71
     1
  0
GROUP
  5
1243
102
{ACAD_REACTORS
330
D
102
}
330
D
100
AcDbGroup
300

 70
     1
 71
     1
  0
GROUP
  5
1248
102
{ACAD_REACTORS
330
D
102
}
330
D
100
AcDbGroup
300

 70
     1
 71
     1
  0
GROUP
  5
15A0
102
{ACAD_REACTORS
330
D
102
}
330
D
100
AcDbGroup
300

 70
     1
 71
     1
  0
GROUP
  5
123E
102
{ACAD_REACTORS
330
D
102
}
330
D
100
AcDbGroup
300

 70
     1
 71
     1
  0
GROUP
  5
123B
102
{ACAD_REACTORS
330
D
102
}
330
D
100
AcDbGroup
300

 70
     1
 71
     1
  0
GROUP
  5
1250
102
{ACAD_REACTORS
330
D
102
}
330
D
100
AcDbGroup
300

 70
     1
 71
     1
  0
GROUP
  5
1242
102
{ACAD_REACTORS
330
D
102
}
330
D
100
AcDbGroup
300

 70
     1
 71
     1
  0
GROUP
  5
15A1
102
{ACAD_REACTORS
330
D
102
}
330
D
100
AcDbGroup
300

 70
     1
 71
     1
  0
GROUP
  5
124E
102
{ACAD_REACTORS
330
D
102
}
330
D
100
AcDbGroup
300

 70
     1
 71
     1
  0
GROUP
  5
15A2
102
{ACAD_REACTORS
330
D
102
}
330
D
100
AcDbGroup
300

 70
     1
 71
     1
  0
GROUP
  5
15A3
102
{ACAD_REACTORS
330
D
102
}
330
D
100
AcDbGroup
300

 70
     1
 71
     1
  0
GROUP
  5
124A
102
{ACAD_REACTORS
330
D
102
}
330
D
100
AcDbGroup
300

 70
     1
 71
     1
  0
GROUP
  5
1247
102
{ACAD_REACTORS
330
D
102
}
330
D
100
AcDbGroup
300

 70
     1
 71
     1
  0
GROUP
  5
1240
102
{ACAD_REACTORS
330
D
102
}
330
D
100
AcDbGroup
300

 70
     1
 71
     1
  0
MLINESTYLE
  5
13
102
{ACAD_REACTORS
330
E
102
}
330
E
100
AcDbMlineStyle
  2
STANDARD
 70
     0
  3

 62
     0
 51
90.0
 52
90.0
 71
     2
 49
0.5
 62
   256
  6
BYLAYER
 49
-0.5
 62
   256
  6
BYLAYER
  0
PLOTSETTINGS
  5
15D5
102
{ACAD_REACTORS
330
14B9
102
}
330
14B9
100
AcDbPlotSettings
  1
A3formLP8200
  2
EPSON LP-8200
  4
A3
  6

 40
5.873749732971191
 41
5.873747825622557
 42
5.873748779296875
 43
5.873748779296875
 44
297.0106506347656
 45
419.9466552734373
 46
0.0
 47
0.0
 48
0.0
 49
0.0
140
0.0
141
0.0
142
1.0
143
1.0
 70
   688
 72
     1
 73
     1
 74
     5
  7
図面用.ctb
 75
    16
147
1.0
148
0.0
149
0.0
  0
ENDSEC
  0
EOF
