  0
SECTION
  2
HEADER
  9
$ACADVER
  1
AC1012
  9
$DWGCODEPAGE
  3
dos932
  9
$INSBASE
 10
0.0
 20
0.0
 30
0.0
  9
$EXTMIN
 10
0.0
 20
0.0
 30
-179.3974879980673
  9
$EXTMAX
 10
1680.0
 20
1188.0
 30
0.0000000000006004
  9
$LIMMIN
 10
0.0
 20
0.0
  9
$LIMMAX
 10
10000.0
 20
10000.0
  9
$ORTHOMODE
 70
     1
  9
$REGENMODE
 70
     1
  9
$FILLMODE
 70
     1
  9
$QTEXTMODE
 70
     0
  9
$MIRRTEXT
 70
     1
  9
$DRAGMODE
 70
     2
  9
$LTSCALE
 40
1.0
  9
$OSMODE
 70
   311
  9
$ATTMODE
 70
     1
  9
$TEXTSIZE
 40
2.5
  9
$TRACEWID
 40
1.0
  9
$TEXTSTYLE
  7
AD-STANDARD
  9
$CLAYER
  8
NOTE
  9
$CELTYPE
  6
BYLAYER
  9
$CECOLOR
 62
   256
  9
$CELTSCALE
 40
1.0
  9
$DELOBJ
 70
     1
  9
$DISPSILH
 70
     0
  9
$DIMSCALE
 40
5.0
  9
$DIMASZ
 40
2.5
  9
$DIMEXO
 40
1.0
  9
$DIMDLI
 40
0.38
  9
$DIMRND
 40
0.0
  9
$DIMDLE
 40
0.0
  9
$DIMEXE
 40
2.0
  9
$DIMTP
 40
0.0
  9
$DIMTM
 40
0.0
  9
$DIMTXT
 40
2.799999999999998
  9
$DIMCEN
 40
-2.0
  9
$DIMTSZ
 40
0.0
  9
$DIMTOL
 70
     0
  9
$DIMLIM
 70
     0
  9
$DIMTIH
 70
     0
  9
$DIMTOH
 70
     0
  9
$DIMSE1
 70
     0
  9
$DIMSE2
 70
     0
  9
$DIMTAD
 70
     1
  9
$DIMZIN
 70
     8
  9
$DIMBLK
  1

  9
$DIMASO
 70
     1
  9
$DIMSHO
 70
     1
  9
$DIMPOST
  1

  9
$DIMAPOST
  1

  9
$DIMALT
 70
     0
  9
$DIMALTD
 70
     2
  9
$DIMALTF
 40
25.4
  9
$DIMLFAC
 40
1.0
  9
$DIMTOFL
 70
     1
  9
$DIMTVP
 40
0.0
  9
$DIMTIX
 70
     0
  9
$DIMSOXD
 70
     0
  9
$DIMSAH
 70
     0
  9
$DIMBLK1
  1

  9
$DIMBLK2
  1

  9
$DIMSTYLE
  2
AD-STANDARD
  9
$DIMCLRD
 70
     9
  9
$DIMCLRE
 70
     9
  9
$DIMCLRT
 70
     2
  9
$DIMTFAC
 40
1.0
  9
$DIMGAP
 40
0.5
  9
$DIMJUST
 70
     0
  9
$DIMSD1
 70
     0
  9
$DIMSD2
 70
     0
  9
$DIMTOLJ
 70
     1
  9
$DIMTZIN
 70
     8
  9
$DIMALTZ
 70
     0
  9
$DIMALTTZ
 70
     0
  9
$DIMFIT
 70
     3
  9
$DIMUPT
 70
     0
  9
$DIMUNIT
 70
     2
  9
$DIMDEC
 70
     8
  9
$DIMTDEC
 70
     8
  9
$DIMALTU
 70
     2
  9
$DIMALTTD
 70
     2
  9
$DIMTXSTY
  7
AD-STANDARD
  9
$DIMAUNIT
 70
     0
  9
$LUNITS
 70
     2
  9
$LUPREC
 70
     4
  9
$SKETCHINC
 40
1.0
  9
$FILLETRAD
 40
0.0
  9
$AUNITS
 70
     0
  9
$AUPREC
 70
     0
  9
$MENU
  1
.
  9
$ELEVATION
 40
0.0
  9
$PELEVATION
 40
0.0
  9
$THICKNESS
 40
0.0
  9
$LIMCHECK
 70
     0
  9
$BLIPMODE
 70
     0
  9
$CHAMFERA
 40
0.0
  9
$CHAMFERB
 40
0.0
  9
$CHAMFERC
 40
673.4006734006732
  9
$CHAMFERD
 40
0.0
  9
$SKPOLY
 70
     0
  9
$TDCREATE
 40
2451414.498518055
  9
$TDUPDATE
 40
2454337.758800532
  9
$TDINDWG
 40
0.0837151968
  9
$TDUSRTIMER
 40
0.0837151968
  9
$USRTIMER
 70
     1
  9
$ANGBASE
 50
0.0
  9
$ANGDIR
 70
     0
  9
$PDMODE
 70
     0
  9
$PDSIZE
 40
0.0
  9
$PLINEWID
 40
0.0
  9
$COORDS
 70
     1
  9
$SPLFRAME
 70
     0
  9
$SPLINETYPE
 70
     6
  9
$SPLINESEGS
 70
     8
  9
$ATTDIA
 70
     0
  9
$ATTREQ
 70
     1
  9
$HANDLING
 70
 22529
  9
$HANDSEED
  5
1CCE
  9
$SURFTAB1
 70
     6
  9
$SURFTAB2
 70
     6
  9
$SURFTYPE
 70
     6
  9
$SURFU
 70
     6
  9
$SURFV
 70
     6
  9
$UCSNAME
  2

  9
$UCSORG
 10
0.0
 20
0.0
 30
0.0
  9
$UCSXDIR
 10
1.0
 20
0.0
 30
0.0
  9
$UCSYDIR
 10
0.0
 20
1.0
 30
0.0
  9
$PUCSNAME
  2

  9
$PUCSORG
 10
0.0
 20
0.0
 30
0.0
  9
$PUCSXDIR
 10
1.0
 20
0.0
 30
0.0
  9
$PUCSYDIR
 10
0.0
 20
1.0
 30
0.0
  9
$USERI1
 70
     0
  9
$USERI2
 70
     0
  9
$USERI3
 70
     0
  9
$USERI4
 70
     0
  9
$USERI5
 70
     0
  9
$USERR1
 40
0.0
  9
$USERR2
 40
0.0
  9
$USERR3
 40
0.0
  9
$USERR4
 40
0.0
  9
$USERR5
 40
0.0
  9
$WORLDVIEW
 70
     1
  9
$SHADEDGE
 70
     3
  9
$SHADEDIF
 70
    70
  9
$TILEMODE
 70
     0
  9
$MAXACTVP
 70
    16
  9
$PINSBASE
 10
0.0
 20
0.0
 30
0.0
  9
$PLIMCHECK
 70
     0
  9
$PEXTMIN
 10
2.616614088072765
 20
1.22910114288328
 30
0.0
  9
$PEXTMAX
 10
380.7271295552038
 20
281.7825858029668
 30
0.0
  9
$PLIMMIN
 10
-17.38575695489316
 20
-6.287688292503617
  9
$PLIMMAX
 10
402.6142430451068
 20
290.7123117074963
  9
$UNITMODE
 70
     0
  9
$VISRETAIN
 70
     0
  9
$PLINEGEN
 70
     0
  9
$PSLTSCALE
 70
     1
  9
$TREEDEPTH
 70
  3020
  9
$PICKSTYLE
 70
     1
  9
$CMLSTYLE
  2
STANDARD
  9
$CMLJUST
 70
     0
  9
$CMLSCALE
 40
1.0
  9
$SAVEIMAGES
 70
     1
  0
ENDSEC
  0
SECTION
  2
CLASSES
  0
CLASS
  1
LWPOLYLINE
  2
AcDbPolyline
  3
AutoCAD 2000
 90
    32768
280
     0
281
     1
  0
CLASS
  1
ACDBDICTIONARYWDFLT
  2
AcDbDictionaryWithDefault
  3
AutoCAD 2000
 90
    32768
280
     0
281
     0
  0
CLASS
  1
TABLESTYLE
  2
AcDbTableStyle
  3
ObjectDBX Classes
 90
    34815
280
     0
281
     0
  0
CLASS
  1
SORTENTSTABLE
  2
AcDbSortentsTable
  3
AutoCAD 2000
 90
    32768
280
     0
281
     0
  0
CLASS
  1
PLOTSETTINGS
  2
AcDbPlotSettings
  3
AutoCAD 2000
 90
    32768
280
     0
281
     0
  0
CLASS
  1
DICTIONARYVAR
  2
AcDbDictionaryVar
  3
AutoCAD 2000
 90
    32768
280
     0
281
     0
  0
CLASS
  1
ACDBPLACEHOLDER
  2
AcDbPlaceHolder
  3
AutoCAD 2000
 90
    32768
280
     0
281
     0
  0
CLASS
  1
LAYOUT
  2
AcDbLayout
  3
AutoCAD 2000
 90
    32768
280
     0
281
     0
  0
CLASS
  1
ACAD_PROXY_OBJECT_WRAPPER
  2
AcDbProxyObjectWrapper
  3
AutoCAD 2000
 90
    32768
280
     0
281
     0
  0
CLASS
  1
LONG_TRANSACTION
  2
AcDbLongTransaction
  3
AutoCAD 2000
 90
    32768
280
     0
281
     0
  0
CLASS
  1
LWPOLYLINE
  2
AcDbPolyline
  3
AutoCAD 2000
 90
    32768
280
     0
281
     1
  0
CLASS
  1
HATCH
  2
AcDbHatch
  3
AutoCAD 2000
 90
    32768
280
     0
281
     1
  0
CLASS
  1
XRECORD
  2
AcDbXrecord
  3
AutoCAD 2000
 90
    32768
280
     0
281
     0
  0
CLASS
  1
LONG_TRANSACTION
  2
AcDbLongTransaction
  3
AutoCAD 2000
 90
    32768
280
     0
281
     0
  0
CLASS
  1
LWPOLYLINE
  2
AcDbPolyline
  3
AutoCAD 2000
 90
    32768
280
     0
281
     1
  0
CLASS
  1
HATCH
  2
AcDbHatch
  3
AutoCAD 2000
 90
    32768
280
     0
281
     1
  0
CLASS
  1
XRECORD
  2
AcDbXrecord
  3
AutoCAD 2000
 90
    32768
280
     0
281
     0
  0
ENDSEC
  0
SECTION
  2
TABLES
  0
TABLE
  2
VPORT
  5
8
330
0
100
AcDbSymbolTable
 70
     5
  0
VPORT
  5
1C04
330
8
100
AcDbSymbolTableRecord
100
AcDbViewportTableRecord
  2
*ACTIVE
 70
     0
 10
0.0
 20
0.0
 11
1.0
 21
1.0
 12
855.7915100602356
 22
627.4265056778861
 13
0.0
 23
0.0
 14
1.0
 24
1.0
 15
0.0
 25
0.0
 16
0.0
 26
0.0
 36
1.0
 17
0.0
 27
0.0
 37
0.0
 40
1481.440673634293
 41
1.21859296482412
 42
50.0
 43
0.0
 44
0.0
 50
0.0
 51
0.0
 71
     0
 72
   100
 73
     1
 74
     0
 75
     0
 76
     0
 77
     0
 78
     1
  0
ENDTAB
  0
TABLE
  2
LTYPE
  5
5
330
0
100
AcDbSymbolTable
 70
     2
  0
LTYPE
  5
14
330
5
100
AcDbSymbolTableRecord
100
AcDbLinetypeTableRecord
  2
BYBLOCK
 70
     0
  3

 72
    65
 73
     0
 40
0.0
  0
LTYPE
  5
15
330
5
100
AcDbSymbolTableRecord
100
AcDbLinetypeTableRecord
  2
BYLAYER
 70
     0
  3

 72
    65
 73
     0
 40
0.0
  0
LTYPE
  5
16
330
5
100
AcDbSymbolTableRecord
100
AcDbLinetypeTableRecord
  2
CONTINUOUS
 70
     0
  3
Solid line
 72
    65
 73
     0
 40
0.0
  0
LTYPE
  5
6E
330
5
100
AcDbSymbolTableRecord
100
AcDbLinetypeTableRecord
  2
CENTER
 70
     0
  3
____ _ ____ _ ____ _ ____ _ ____ _ ____ _ ____ 
 72
    65
 73
     4
 40
2.0
 49
1.25
 74
     0
 49
-0.25
 74
     0
 49
0.25
 74
     0
 49
-0.25
 74
     0
  0
ENDTAB
  0
TABLE
  2
LAYER
  5
2
102
{ACAD_XDICTIONARY
360
12B7
102
}
330
0
100
AcDbSymbolTable
 70
    12
  0
LAYER
  5
F
330
2
100
AcDbSymbolTableRecord
100
AcDbLayerTableRecord
  2
0
 70
     0
 62
     7
  6
CONTINUOUS
  0
LAYER
  5
71
330
2
100
AcDbSymbolTableRecord
100
AcDbLayerTableRecord
  2
MEASURE
 70
     0
 62
     9
  6
CONTINUOUS
  0
LAYER
  5
72
330
2
100
AcDbSymbolTableRecord
100
AcDbLayerTableRecord
  2
DEFPOINTS
 70
     0
 62
     7
  6
CONTINUOUS
  0
LAYER
  5
244
330
2
100
AcDbSymbolTableRecord
100
AcDbLayerTableRecord
  2
NOTE
 70
     0
 62
     2
  6
CONTINUOUS
  0
LAYER
  5
255
330
2
100
AcDbSymbolTableRecord
100
AcDbLayerTableRecord
  2
1
 70
     0
 62
     7
  6
CONTINUOUS
  0
ENDTAB
  0
TABLE
  2
STYLE
  5
3
330
0
100
AcDbSymbolTable
 70
     4
  0
STYLE
  5
10
330
3
100
AcDbSymbolTableRecord
100
AcDbTextStyleTableRecord
  2
STANDARD
 70
     0
 40
0.0
 41
0.8
 50
0.0
 71
     0
 42
84.17508417508415
  3
TXT
  4
bigfont.shx
  0
STYLE
  5
63
330
3
100
AcDbSymbolTableRecord
100
AcDbTextStyleTableRecord
  2
AD-STANDARD
 70
     0
 40
0.0
 41
0.8
 50
0.0
 71
     0
 42
2.5
  3
C:\Program Files\AutoCAD LT\romans.shx
  4
bigfont.shx
  0
STYLE
  5
265
330
3
100
AcDbSymbolTableRecord
100
AcDbTextStyleTableRecord
  2
ROMAND
 70
     0
 40
5.0
 41
1.0
 50
0.0
 71
     0
 42
4.5
  3
romand
  4

  0
ENDTAB
  0
TABLE
  2
VIEW
  5
6
330
0
100
AcDbSymbolTable
 70
     0
  0
ENDTAB
  0
TABLE
  2
UCS
  5
7
330
0
100
AcDbSymbolTable
 70
     0
  0
ENDTAB
  0
TABLE
  2
APPID
  5
9
330
0
100
AcDbSymbolTable
 70
     6
  0
APPID
  5
11
330
9
100
AcDbSymbolTableRecord
100
AcDbRegAppTableRecord
  2
ACAD
 70
     0
  0
APPID
  5
22A
330
9
100
AcDbSymbolTableRecord
100
AcDbRegAppTableRecord
  2
CONTENTTABDATA
 70
     0
  0
APPID
  5
22B
330
9
100
AcDbSymbolTableRecord
100
AcDbRegAppTableRecord
  2
CONTENTCURRENTTAB
 70
     0
  0
APPID
  5
232
330
9
100
AcDbSymbolTableRecord
100
AcDbRegAppTableRecord
  2
CONTENTBLOCKDESCRIPTION
 70
     0
  0
APPID
  5
233
330
9
100
AcDbSymbolTableRecord
100
AcDbRegAppTableRecord
  2
CONTENTBLOCKICON
 70
     0
  0
APPID
  5
12AB
330
9
100
AcDbSymbolTableRecord
100
AcDbRegAppTableRecord
  2
ACAD_PSEXT
 70
     0
  0
ENDTAB
  0
TABLE
  2
DIMSTYLE
  5
A
330
0
100
AcDbSymbolTable
 70
     2
  0
DIMSTYLE
105
1D
330
A
100
AcDbSymbolTableRecord
100
AcDbDimStyleTableRecord
  2
STANDARD
 70
     0
  3

  4

  5

  6

  7

 40
1.0
 41
0.18
 42
0.0625
 43
0.38
 44
0.18
 45
0.0
 46
0.0
 47
0.0
 48
0.0
140
0.18
141
0.09
142
0.0
143
25.4
144
1.0
145
0.0
146
1.0
147
0.09
 71
     0
 72
     0
 73
     1
 74
     1
 75
     0
 76
     0
 77
     0
 78
     0
170
     0
171
     2
172
     0
173
     0
174
     0
175
     0
176
     0
177
     0
178
     0
270
     2
271
     4
272
     4
273
     2
274
     2
340
10
275
     0
280
     0
281
     0
282
     0
283
     1
284
     0
285
     0
286
     0
287
     3
288
     0
  0
DIMSTYLE
105
68
102
{ACAD_REACTORS
330
A1F
330
A21
330
10F3
330
1100
330
A20
330
A29
330
11A6
330
11B3
330
11CD
330
11F2
102
}
330
A
100
AcDbSymbolTableRecord
100
AcDbDimStyleTableRecord
  2
AD-STANDARD
 70
     0
  3

  4

  5

  6

  7

 40
1.0
 41
2.5
 42
1.0
 43
0.38
 44
2.0
 45
0.0
 46
0.0
 47
0.0
 48
0.0
140
3.5
141
-2.0
142
0.0
143
25.4
144
1.0
145
0.0
146
1.0
147
0.5
 71
     0
 72
     0
 73
     0
 74
     0
 75
     0
 76
     0
 77
     1
 78
     8
170
     0
171
     2
172
     1
173
     0
174
     0
175
     0
176
     9
177
     9
178
     2
270
     2
271
     4
272
     4
273
     2
274
     2
340
63
275
     0
280
     0
281
     0
282
     0
283
     1
284
     8
285
     0
286
     0
287
     3
288
     0
  0
ENDTAB
  0
TABLE
  2
BLOCK_RECORD
  5
1
330
0
100
AcDbSymbolTable
 70
    13
  0
BLOCK_RECORD
  5
1A
102
{ACAD_XDICTIONARY
360
131A
102
}
330
1
100
AcDbSymbolTableRecord
100
AcDbBlockTableRecord
  2
*MODEL_SPACE
  0
BLOCK_RECORD
  5
183D
102
{ACAD_XDICTIONARY
360
18C5
102
}
330
1
100
AcDbSymbolTableRecord
100
AcDbBlockTableRecord
  2
*PAPER_SPACE
  0
BLOCK_RECORD
  5
1040
330
1
100
AcDbSymbolTableRecord
100
AcDbBlockTableRecord
  2
*D1
  0
BLOCK_RECORD
  5
104C
330
1
100
AcDbSymbolTableRecord
100
AcDbBlockTableRecord
  2
*D2
  0
BLOCK_RECORD
  5
105A
330
1
100
AcDbSymbolTableRecord
100
AcDbBlockTableRecord
  2
*D3
  0
BLOCK_RECORD
  5
1066
330
1
100
AcDbSymbolTableRecord
100
AcDbBlockTableRecord
  2
*D4
  0
BLOCK_RECORD
  5
10E7
330
1
100
AcDbSymbolTableRecord
100
AcDbBlockTableRecord
  2
*D5
  0
BLOCK_RECORD
  5
10F4
330
1
100
AcDbSymbolTableRecord
100
AcDbBlockTableRecord
  2
*D6
  0
BLOCK_RECORD
  5
119A
330
1
100
AcDbSymbolTableRecord
100
AcDbBlockTableRecord
  2
*D7
  0
BLOCK_RECORD
  5
11A7
330
1
100
AcDbSymbolTableRecord
100
AcDbBlockTableRecord
  2
*D8
  0
BLOCK_RECORD
  5
11C1
330
1
100
AcDbSymbolTableRecord
100
AcDbBlockTableRecord
  2
*D9
  0
BLOCK_RECORD
  5
11E6
330
1
100
AcDbSymbolTableRecord
100
AcDbBlockTableRecord
  2
*D10
  0
ENDTAB
  0
ENDSEC
  0
SECTION
  2
BLOCKS
  0
BLOCK
  5
1B
330
1A
100
AcDbEntity
  8
0
100
AcDbBlockBegin
  2
*MODEL_SPACE
 70
     0
 10
0.0
 20
0.0
 30
0.0
  3
*MODEL_SPACE
  1

  0
ENDBLK
  5
1C
330
1A
100
AcDbEntity
  8
0
100
AcDbBlockEnd
  0
BLOCK
  5
183F
330
183D
100
AcDbEntity
 67
     1
  8
0
100
AcDbBlockBegin
  2
*PAPER_SPACE
 70
     0
 10
0.0
 20
0.0
 30
0.0
  3
*PAPER_SPACE
  1

  0
ENDBLK
  5
1840
330
183D
100
AcDbEntity
 67
     1
  8
0
100
AcDbBlockEnd
  0
BLOCK
  5
1271
330
1040
100
AcDbEntity
  8
0
100
AcDbBlockBegin
  2
*D1
 70
     1
 10
0.0
 20
0.0
 30
0.0
  3
*D1
  1

  0
LINE
  5
1C22
330
1040
100
AcDbEntity
  8
MEASURE
 62
     9
100
AcDbLine
 10
1151.647470106737
 20
358.6788955831043
 30
0.0
 11
1494.330641385162
 21
358.6788955831042
 31
0.0
  0
LINE
  5
1C23
330
1040
100
AcDbEntity
  8
MEASURE
 62
     9
100
AcDbLine
 10
1373.632852375878
 20
914.1891385023269
 30
0.0
 11
1494.330641385162
 21
914.1891385023269
 31
0.0
  0
LINE
  5
1C24
330
1040
100
AcDbEntity
  8
MEASURE
 62
     9
100
AcDbLine
 10
1484.330641385162
 20
371.1788955831042
 30
0.0
 11
1484.330641385162
 21
901.6891385023269
 31
0.0
  0
SOLID
  5
1C25
330
1040
100
AcDbEntity
  8
MEASURE
 62
     9
100
AcDbTrace
 10
1482.247308051829
 20
371.1788955831042
 30
0.0
 11
1486.413974718495
 21
371.1788955831042
 31
0.0
 12
1484.330641385162
 22
358.6788955831042
 32
0.0
 13
1484.330641385162
 23
358.6788955831042
 33
0.0
  0
SOLID
  5
1C26
330
1040
100
AcDbEntity
  8
MEASURE
 62
     9
100
AcDbTrace
 10
1482.247308051829
 20
901.6891385023269
 30
0.0
 11
1486.413974718495
 21
901.6891385023269
 31
0.0
 12
1484.330641385162
 22
914.1891385023269
 32
0.0
 13
1484.330641385162
 23
914.1891385023269
 33
0.0
  0
MTEXT
  5
1C27
330
1040
100
AcDbEntity
  8
MEASURE
 62
     2
100
AcDbMText
 10
1474.830641385162
 20
636.4340170427157
 30
0.0
 40
13.99999999999999
 41
0.0
 71
     5
 72
     1
  1
\A1;（777）
  7
AD-STANDARD
 11
0.0000000000000001
 21
1.0
 31
0.0
  0
POINT
  5
1C28
330
1040
100
AcDbEntity
  8
DEFPOINTS
 62
     0
100
AcDbPoint
 10
1146.647470106737
 20
358.6788955831043
 30
0.0
  0
POINT
  5
1C29
330
1040
100
AcDbEntity
  8
DEFPOINTS
 62
     0
100
AcDbPoint
 10
1368.632852375878
 20
914.1891385023269
 30
0.0
  0
POINT
  5
1C2A
330
1040
100
AcDbEntity
  8
DEFPOINTS
 62
     0
100
AcDbPoint
 10
1484.330641385162
 20
914.1891385023269
 30
0.0
  0
ENDBLK
  5
127B
330
1040
100
AcDbEntity
  8
0
100
AcDbBlockEnd
  0
BLOCK
  5
1179
330
104C
100
AcDbEntity
  8
0
100
AcDbBlockBegin
  2
*D2
 70
     1
 10
0.0
 20
0.0
 30
0.0
  3
*D2
  1

  0
LINE
  5
1C2B
330
104C
100
AcDbEntity
  8
MEASURE
 62
     9
100
AcDbLine
 10
750.6474701067388
 20
405.1788955831007
 30
0.0
 11
651.5991511997531
 21
405.1788955831007
 31
0.0
  0
LINE
  5
1C2C
330
104C
100
AcDbEntity
  8
MEASURE
 62
     9
100
AcDbLine
 10
762.1474701067313
 20
460.1788955831008
 30
0.0
 11
651.5991511997531
 21
460.1788955831008
 31
0.0
  0
LINE
  5
1C2D
330
104C
100
AcDbEntity
  8
MEASURE
 62
     9
100
AcDbLine
 10
661.5991511997531
 20
417.6788955831007
 30
0.0
 11
661.5991511997531
 21
447.6788955831008
 31
0.0
  0
SOLID
  5
1C2E
330
104C
100
AcDbEntity
  8
MEASURE
 62
     9
100
AcDbTrace
 10
659.5158178664197
 20
417.6788955831007
 30
0.0
 11
663.6824845330864
 21
417.6788955831007
 31
0.0
 12
661.5991511997531
 22
405.1788955831007
 32
0.0
 13
661.5991511997531
 23
405.1788955831007
 33
0.0
  0
SOLID
  5
1C2F
330
104C
100
AcDbEntity
  8
MEASURE
 62
     9
100
AcDbTrace
 10
659.5158178664197
 20
447.6788955831008
 30
0.0
 11
663.6824845330864
 21
447.6788955831008
 31
0.0
 12
661.5991511997531
 22
460.1788955831008
 32
0.0
 13
661.5991511997531
 23
460.1788955831008
 33
0.0
  0
MTEXT
  5
1C30
330
104C
100
AcDbEntity
  8
MEASURE
 62
     2
100
AcDbMText
 10
652.099151199753
 20
432.6788955831008
 30
0.0
 40
13.99999999999999
 41
0.0
 71
     5
 72
     1
  1
\A1;55
  7
AD-STANDARD
 11
0.0000000000000001
 21
1.0
 31
0.0
  0
POINT
  5
1C31
330
104C
100
AcDbEntity
  8
DEFPOINTS
 62
     0
100
AcDbPoint
 10
755.6474701067387
 20
405.1788955831007
 30
0.0
  0
POINT
  5
1C32
330
104C
100
AcDbEntity
  8
DEFPOINTS
 62
     0
100
AcDbPoint
 10
767.1474701067313
 20
460.1788955831008
 30
0.0
  0
POINT
  5
1C33
330
104C
100
AcDbEntity
  8
DEFPOINTS
 62
     0
100
AcDbPoint
 10
661.5991511997531
 20
460.1788955831008
 30
0.0
  0
ENDBLK
  5
1183
330
104C
100
AcDbEntity
  8
0
100
AcDbBlockEnd
  0
BLOCK
  5
1215
330
105A
100
AcDbEntity
  8
0
100
AcDbBlockBegin
  2
*D3
 70
     1
 10
0.0
 20
0.0
 30
0.0
  3
*D3
  1

  0
LINE
  5
1C34
330
105A
100
AcDbEntity
  8
MEASURE
 62
     9
100
AcDbLine
 10
755.6474701067387
 20
400.1788955831007
 30
0.0
 11
755.6474701067387
 21
240.3404445202913
 31
0.0
  0
LINE
  5
1C35
330
105A
100
AcDbEntity
  8
MEASURE
 62
     9
100
AcDbLine
 10
1379.702801973181
 20
890.5291598282358
 30
0.0
 11
1379.702801973181
 21
240.3404445202913
 31
0.0
  0
LINE
  5
1C36
330
105A
100
AcDbEntity
  8
MEASURE
 62
     9
100
AcDbLine
 10
768.1474701067387
 20
250.3404445202913
 30
0.0
 11
1367.202801973181
 21
250.3404445202913
 31
0.0
  0
SOLID
  5
1C37
330
105A
100
AcDbEntity
  8
MEASURE
 62
     9
100
AcDbTrace
 10
768.1474701067387
 20
252.4237778536247
 30
0.0
 11
768.1474701067387
 21
248.257111186958
 31
0.0
 12
755.6474701067387
 22
250.3404445202913
 32
0.0
 13
755.6474701067387
 23
250.3404445202913
 33
0.0
  0
SOLID
  5
1C38
330
105A
100
AcDbEntity
  8
MEASURE
 62
     9
100
AcDbTrace
 10
1367.202801973181
 20
252.4237778536247
 30
0.0
 11
1367.202801973181
 21
248.257111186958
 31
0.0
 12
1379.702801973181
 22
250.3404445202913
 32
0.0
 13
1379.702801973181
 23
250.3404445202913
 33
0.0
  0
MTEXT
  5
1C39
330
105A
100
AcDbEntity
  8
MEASURE
 62
     2
100
AcDbMText
 10
1067.67513603996
 20
259.8404445202914
 30
0.0
 40
13.99999999999999
 41
0.0
 71
     5
 72
     1
  1
\A1;（627）
  7
AD-STANDARD
  0
POINT
  5
1C3A
330
105A
100
AcDbEntity
  8
DEFPOINTS
 62
     0
100
AcDbPoint
 10
755.6474701067387
 20
405.1788955831007
 30
0.0
  0
POINT
  5
1C3B
330
105A
100
AcDbEntity
  8
DEFPOINTS
 62
     0
100
AcDbPoint
 10
1379.702801973181
 20
895.5291598282359
 30
0.0
  0
POINT
  5
1C3C
330
105A
100
AcDbEntity
  8
DEFPOINTS
 62
     0
100
AcDbPoint
 10
1379.702801973181
 20
250.3404445202913
 30
0.0
  0
ENDBLK
  5
121F
330
105A
100
AcDbEntity
  8
0
100
AcDbBlockEnd
  0
BLOCK
  5
1284
330
1066
100
AcDbEntity
  8
0
100
AcDbBlockBegin
  2
*D4
 70
     1
 10
0.0
 20
0.0
 30
0.0
  3
*D4
  1

  0
LINE
  5
1C3D
330
1066
100
AcDbEntity
  8
MEASURE
 62
     9
100
AcDbLine
 10
783.6474701067313
 20
358.6788955831032
 30
0.0
 11
622.0881931669555
 21
358.6788955831033
 31
0.0
  0
LINE
  5
1C3E
330
1066
100
AcDbEntity
  8
MEASURE
 62
     9
100
AcDbLine
 10
762.1474701067313
 20
460.1788955831008
 30
0.0
 11
622.0881931669555
 21
460.1788955831008
 31
0.0
  0
LINE
  5
1C3F
330
1066
100
AcDbEntity
  8
MEASURE
 62
     9
100
AcDbLine
 10
632.0881931669555
 20
371.1788955831033
 30
0.0
 11
632.0881931669555
 21
447.6788955831008
 31
0.0
  0
SOLID
  5
1C40
330
1066
100
AcDbEntity
  8
MEASURE
 62
     9
100
AcDbTrace
 10
630.0048598336221
 20
371.1788955831033
 30
0.0
 11
634.1715265002889
 21
371.1788955831033
 31
0.0
 12
632.0881931669555
 22
358.6788955831033
 32
0.0
 13
632.0881931669555
 23
358.6788955831033
 33
0.0
  0
SOLID
  5
1C41
330
1066
100
AcDbEntity
  8
MEASURE
 62
     9
100
AcDbTrace
 10
630.0048598336221
 20
447.6788955831008
 30
0.0
 11
634.1715265002889
 21
447.6788955831008
 31
0.0
 12
632.0881931669555
 22
460.1788955831008
 32
0.0
 13
632.0881931669555
 23
460.1788955831008
 33
0.0
  0
MTEXT
  5
1C42
330
1066
100
AcDbEntity
  8
MEASURE
 62
     2
100
AcDbMText
 10
622.5881931669554
 20
409.4288955831021
 30
0.0
 40
13.99999999999999
 41
0.0
 71
     5
 72
     1
  1
\A1;107～117
  7
AD-STANDARD
 11
0.0000000000000001
 21
1.0
 31
0.0
  0
POINT
  5
1C43
330
1066
100
AcDbEntity
  8
DEFPOINTS
 62
     0
100
AcDbPoint
 10
788.6474701067314
 20
358.6788955831032
 30
0.0
  0
POINT
  5
1C44
330
1066
100
AcDbEntity
  8
DEFPOINTS
 62
     0
100
AcDbPoint
 10
767.1474701067313
 20
460.1788955831008
 30
0.0
  0
POINT
  5
1C45
330
1066
100
AcDbEntity
  8
DEFPOINTS
 62
     0
100
AcDbPoint
 10
632.0881931669555
 20
460.1788955831008
 30
0.0
  0
ENDBLK
  5
128E
330
1066
100
AcDbEntity
  8
0
100
AcDbBlockEnd
  0
BLOCK
  5
11CE
330
10E7
100
AcDbEntity
  8
0
100
AcDbBlockBegin
  2
*D5
 70
     1
 10
0.0
 20
0.0
 30
0.0
  3
*D5
  1

  0
LINE
  5
1C8E
330
10E7
100
AcDbEntity
  8
MEASURE
 62
     9
100
AcDbLine
 10
171.8411926364701
 20
352.9289728060729
 30
0.0
 11
171.8411926364701
 21
270.5841310719578
 31
0.0
  0
LINE
  5
1C8F
330
10E7
100
AcDbEntity
  8
MEASURE
 62
     9
100
AcDbLine
 10
411.8411926364701
 20
352.9289728060729
 30
0.0
 11
411.8411926364701
 21
270.5841310719578
 31
0.0
  0
LINE
  5
1C90
330
10E7
100
AcDbEntity
  8
MEASURE
 62
     9
100
AcDbLine
 10
184.3411926364701
 20
280.5841310719578
 30
0.0
 11
399.34119263647
 21
280.5841310719578
 31
0.0
  0
SOLID
  5
1C91
330
10E7
100
AcDbEntity
  8
MEASURE
 62
     9
100
AcDbTrace
 10
184.3411926364701
 20
282.6674644052911
 30
0.0
 11
184.3411926364701
 21
278.5007977386245
 31
0.0
 12
171.8411926364701
 22
280.5841310719578
 32
0.0
 13
171.8411926364701
 23
280.5841310719578
 33
0.0
  0
SOLID
  5
1C92
330
10E7
100
AcDbEntity
  8
MEASURE
 62
     9
100
AcDbTrace
 10
399.34119263647
 20
282.6674644052911
 30
0.0
 11
399.34119263647
 21
278.5007977386245
 31
0.0
 12
411.8411926364701
 22
280.5841310719578
 32
0.0
 13
411.8411926364701
 23
280.5841310719578
 33
0.0
  0
MTEXT
  5
1C93
330
10E7
100
AcDbEntity
  8
MEASURE
 62
     2
100
AcDbMText
 10
291.8411926364701
 20
290.0841310719578
 30
0.0
 40
13.99999999999999
 41
0.0
 71
     5
 72
     1
  1
\A1;240
  7
AD-STANDARD
  0
POINT
  5
1C94
330
10E7
100
AcDbEntity
  8
DEFPOINTS
 62
     0
100
AcDbPoint
 10
171.8411926364701
 20
357.9289728060729
 30
0.0
  0
POINT
  5
1C95
330
10E7
100
AcDbEntity
  8
DEFPOINTS
 62
     0
100
AcDbPoint
 10
411.8411926364701
 20
357.9289728060729
 30
0.0
  0
POINT
  5
1C96
330
10E7
100
AcDbEntity
  8
DEFPOINTS
 62
     0
100
AcDbPoint
 10
411.8411926364701
 20
280.5841310719578
 30
0.0
  0
ENDBLK
  5
11D8
330
10E7
100
AcDbEntity
  8
0
100
AcDbBlockEnd
  0
BLOCK
  5
10F5
330
10F4
100
AcDbEntity
  8
0
100
AcDbBlockBegin
  2
*D6
 70
     1
 10
0.0
 20
0.0
 30
0.0
  3
*D6
  1

  0
LINE
  5
1C97
330
10F4
100
AcDbEntity
  8
MEASURE
 62
     9
100
AcDbLine
 10
755.6474701067314
 20
453.678895583097
 30
0.0
 11
755.6474701067314
 21
557.4850142728508
 31
0.0
  0
LINE
  5
1C98
330
10F4
100
AcDbEntity
  8
MEASURE
 62
     9
100
AcDbLine
 10
1179.64747010673
 20
453.678895583097
 30
0.0
 11
1179.64747010673
 21
557.4850142728508
 31
0.0
  0
LINE
  5
1C99
330
10F4
100
AcDbEntity
  8
MEASURE
 62
     9
100
AcDbLine
 10
768.1474701067314
 20
547.4850142728509
 30
0.0
 11
1167.147470106731
 21
547.4850142728509
 31
0.0
  0
SOLID
  5
1C9A
330
10F4
100
AcDbEntity
  8
MEASURE
 62
     9
100
AcDbTrace
 10
768.1474701067314
 20
549.5683476061842
 30
0.0
 11
768.1474701067314
 21
545.4016809395175
 31
0.0
 12
755.6474701067314
 22
547.4850142728509
 32
0.0
 13
755.6474701067314
 23
547.4850142728509
 33
0.0
  0
SOLID
  5
1C9B
330
10F4
100
AcDbEntity
  8
MEASURE
 62
     9
100
AcDbTrace
 10
1167.147470106731
 20
549.5683476061842
 30
0.0
 11
1167.147470106731
 21
545.4016809395175
 31
0.0
 12
1179.64747010673
 22
547.4850142728509
 32
0.0
 13
1179.64747010673
 23
547.4850142728509
 33
0.0
  0
MTEXT
  5
1C9C
330
10F4
100
AcDbEntity
  8
MEASURE
 62
     2
100
AcDbMText
 10
967.6474701067311
 20
556.9850142728508
 30
0.0
 40
13.99999999999999
 41
0.0
 71
     5
 72
     1
  1
\A1;424
  7
AD-STANDARD
  0
POINT
  5
1C9D
330
10F4
100
AcDbEntity
  8
DEFPOINTS
 62
     0
100
AcDbPoint
 10
755.6474701067314
 20
448.678895583097
 30
0.0
  0
POINT
  5
1C9E
330
10F4
100
AcDbEntity
  8
DEFPOINTS
 62
     0
100
AcDbPoint
 10
1179.64747010673
 20
448.678895583097
 30
0.0
  0
POINT
  5
1C9F
330
10F4
100
AcDbEntity
  8
DEFPOINTS
 62
     0
100
AcDbPoint
 10
1179.64747010673
 20
547.4850142728509
 30
0.0
  0
ENDBLK
  5
10FF
330
10F4
100
AcDbEntity
  8
0
100
AcDbBlockEnd
  0
BLOCK
  5
119B
330
119A
100
AcDbEntity
  8
0
100
AcDbBlockBegin
  2
*D7
 70
     1
 10
0.0
 20
0.0
 30
0.0
  3
*D7
  1

  0
LINE
  5
1CA0
330
119A
100
AcDbEntity
  8
MEASURE
 62
     9
100
AcDbLine
 10
800.6474701067386
 20
355.6788955830912
 30
0.0
 11
800.6474701067386
 21
270.5841310719579
 31
0.0
  0
LINE
  5
1CA1
330
119A
100
AcDbEntity
  8
MEASURE
 62
     9
100
AcDbLine
 10
755.6474701067387
 20
400.1788955831007
 30
0.0
 11
755.6474701067387
 21
270.5841310719579
 31
0.0
  0
LINE
  5
1CA2
330
119A
100
AcDbEntity
  8
MEASURE
 62
     9
100
AcDbLine
 10
788.1474701067386
 20
280.5841310719579
 30
0.0
 11
768.1474701067387
 21
280.5841310719579
 31
0.0
  0
SOLID
  5
1CA3
330
119A
100
AcDbEntity
  8
MEASURE
 62
     9
100
AcDbTrace
 10
788.1474701067386
 20
282.6674644052912
 30
0.0
 11
788.1474701067386
 21
278.5007977386246
 31
0.0
 12
800.6474701067386
 22
280.5841310719579
 32
0.0
 13
800.6474701067386
 23
280.5841310719579
 33
0.0
  0
SOLID
  5
1CA4
330
119A
100
AcDbEntity
  8
MEASURE
 62
     9
100
AcDbTrace
 10
768.1474701067387
 20
282.6674644052912
 30
0.0
 11
768.1474701067387
 21
278.5007977386246
 31
0.0
 12
755.6474701067387
 22
280.5841310719579
 32
0.0
 13
755.6474701067387
 23
280.5841310719579
 33
0.0
  0
MTEXT
  5
1CA5
330
119A
100
AcDbEntity
  8
MEASURE
 62
     2
100
AcDbMText
 10
778.1474701067386
 20
290.0841310719579
 30
0.0
 40
13.99999999999999
 41
0.0
 71
     5
 72
     1
  1
\A1;45
  7
AD-STANDARD
  0
POINT
  5
1CA6
330
119A
100
AcDbEntity
  8
DEFPOINTS
 62
     0
100
AcDbPoint
 10
800.6474701067386
 20
360.6788955830912
 30
0.0
  0
POINT
  5
1CA7
330
119A
100
AcDbEntity
  8
DEFPOINTS
 62
     0
100
AcDbPoint
 10
755.6474701067387
 20
405.1788955831007
 30
0.0
  0
POINT
  5
1CA8
330
119A
100
AcDbEntity
  8
DEFPOINTS
 62
     0
100
AcDbPoint
 10
755.6474701067387
 20
280.5841310719579
 30
0.0
  0
ENDBLK
  5
11A5
330
119A
100
AcDbEntity
  8
0
100
AcDbBlockEnd
  0
BLOCK
  5
11A8
330
11A7
100
AcDbEntity
  8
0
100
AcDbBlockBegin
  2
*D8
 70
     1
 10
0.0
 20
0.0
 30
0.0
  3
*D8
  1

  0
LINE
  5
1CA9
330
11A7
100
AcDbEntity
  8
MEASURE
 62
     9
100
AcDbLine
 10
800.6474701067386
 20
350.6788955830912
 30
0.0
 11
800.6474701067386
 21
270.5841310719579
 31
0.0
  0
LINE
  5
1CAA
330
11A7
100
AcDbEntity
  8
MEASURE
 62
     9
100
AcDbLine
 10
1134.647470106745
 20
355.6788955830912
 30
0.0
 11
1134.647470106745
 21
270.5841310719579
 31
0.0
  0
LINE
  5
1CAB
330
11A7
100
AcDbEntity
  8
MEASURE
 62
     9
100
AcDbLine
 10
813.1474701067386
 20
280.5841310719579
 30
0.0
 11
1122.147470106745
 21
280.5841310719579
 31
0.0
  0
SOLID
  5
1CAC
330
11A7
100
AcDbEntity
  8
MEASURE
 62
     9
100
AcDbTrace
 10
813.1474701067386
 20
282.6674644052912
 30
0.0
 11
813.1474701067386
 21
278.5007977386246
 31
0.0
 12
800.6474701067386
 22
280.5841310719579
 32
0.0
 13
800.6474701067386
 23
280.5841310719579
 33
0.0
  0
SOLID
  5
1CAD
330
11A7
100
AcDbEntity
  8
MEASURE
 62
     9
100
AcDbTrace
 10
1122.147470106745
 20
282.6674644052912
 30
0.0
 11
1122.147470106745
 21
278.5007977386246
 31
0.0
 12
1134.647470106745
 22
280.5841310719579
 32
0.0
 13
1134.647470106745
 23
280.5841310719579
 33
0.0
  0
MTEXT
  5
1CAE
330
11A7
100
AcDbEntity
  8
MEASURE
 62
     2
100
AcDbMText
 10
967.6474701067418
 20
290.0841310719579
 30
0.0
 40
13.99999999999999
 41
0.0
 71
     5
 72
     1
  1
\A1;334
  7
AD-STANDARD
  0
POINT
  5
1CAF
330
11A7
100
AcDbEntity
  8
DEFPOINTS
 62
     0
100
AcDbPoint
 10
800.6474701067386
 20
355.6788955830912
 30
0.0
  0
POINT
  5
1CB0
330
11A7
100
AcDbEntity
  8
DEFPOINTS
 62
     0
100
AcDbPoint
 10
1134.647470106745
 20
360.6788955830912
 30
0.0
  0
POINT
  5
1CB1
330
11A7
100
AcDbEntity
  8
DEFPOINTS
 62
     0
100
AcDbPoint
 10
1134.647470106745
 20
280.5841310719579
 30
0.0
  0
ENDBLK
  5
11B2
330
11A7
100
AcDbEntity
  8
0
100
AcDbBlockEnd
  0
BLOCK
  5
11C2
330
11C1
100
AcDbEntity
  8
0
100
AcDbBlockBegin
  2
*D9
 70
     1
 10
0.0
 20
0.0
 30
0.0
  3
*D9
  1

  0
LINE
  5
1CB2
330
11C1
100
AcDbEntity
  8
MEASURE
 62
     9
100
AcDbLine
 10
1134.647470106745
 20
355.6788955830912
 30
0.0
 11
1134.647470106745
 21
270.5841310719579
 31
0.0
  0
LINE
  5
1CB3
330
11C1
100
AcDbEntity
  8
MEASURE
 62
     9
100
AcDbLine
 10
1325.647470106745
 20
355.6788955830912
 30
0.0
 11
1325.647470106745
 21
270.5841310719579
 31
0.0
  0
LINE
  5
1CB4
330
11C1
100
AcDbEntity
  8
MEASURE
 62
     9
100
AcDbLine
 10
1147.147470106745
 20
280.5841310719579
 30
0.0
 11
1313.147470106745
 21
280.5841310719579
 31
0.0
  0
SOLID
  5
1CB5
330
11C1
100
AcDbEntity
  8
MEASURE
 62
     9
100
AcDbTrace
 10
1147.147470106745
 20
282.6674644052912
 30
0.0
 11
1147.147470106745
 21
278.5007977386246
 31
0.0
 12
1134.647470106745
 22
280.5841310719579
 32
0.0
 13
1134.647470106745
 23
280.5841310719579
 33
0.0
  0
SOLID
  5
1CB6
330
11C1
100
AcDbEntity
  8
MEASURE
 62
     9
100
AcDbTrace
 10
1313.147470106745
 20
282.6674644052912
 30
0.0
 11
1313.147470106745
 21
278.5007977386246
 31
0.0
 12
1325.647470106745
 22
280.5841310719579
 32
0.0
 13
1325.647470106745
 23
280.5841310719579
 33
0.0
  0
MTEXT
  5
1CB7
330
11C1
100
AcDbEntity
  8
MEASURE
 62
     2
100
AcDbMText
 10
1230.147470106745
 20
290.0841310719579
 30
0.0
 40
13.99999999999999
 41
0.0
 71
     5
 72
     1
  1
\A1;191
  7
AD-STANDARD
  0
POINT
  5
1CB8
330
11C1
100
AcDbEntity
  8
DEFPOINTS
 62
     0
100
AcDbPoint
 10
1134.647470106745
 20
360.6788955830912
 30
0.0
  0
POINT
  5
1CB9
330
11C1
100
AcDbEntity
  8
DEFPOINTS
 62
     0
100
AcDbPoint
 10
1325.647470106745
 20
360.6788955830912
 30
0.0
  0
POINT
  5
1CBA
330
11C1
100
AcDbEntity
  8
DEFPOINTS
 62
     0
100
AcDbPoint
 10
1325.647470106745
 20
280.5841310719579
 30
0.0
  0
ENDBLK
  5
11CC
330
11C1
100
AcDbEntity
  8
0
100
AcDbBlockEnd
  0
BLOCK
  5
11E7
330
11E6
100
AcDbEntity
  8
0
100
AcDbBlockBegin
  2
*D10
 70
     1
 10
0.0
 20
0.0
 30
0.0
  3
*D10
  1

  0
LINE
  5
1CBB
330
11E6
100
AcDbEntity
  8
MEASURE
 62
     9
100
AcDbLine
 10
126.84119263647
 20
400.1788955831007
 30
0.0
 11
126.84119263647
 21
240.3404445202913
 31
0.0
  0
LINE
  5
1CBC
330
11E6
100
AcDbEntity
  8
MEASURE
 62
     9
100
AcDbLine
 10
456.8411926364701
 20
400.1788955831007
 30
0.0
 11
456.8411926364701
 21
240.3404445202913
 31
0.0
  0
LINE
  5
1CBD
330
11E6
100
AcDbEntity
  8
MEASURE
 62
     9
100
AcDbLine
 10
139.34119263647
 20
250.3404445202913
 30
0.0
 11
444.3411926364701
 21
250.3404445202913
 31
0.0
  0
SOLID
  5
1CBE
330
11E6
100
AcDbEntity
  8
MEASURE
 62
     9
100
AcDbTrace
 10
139.34119263647
 20
252.4237778536247
 30
0.0
 11
139.34119263647
 21
248.257111186958
 31
0.0
 12
126.84119263647
 22
250.3404445202913
 32
0.0
 13
126.84119263647
 23
250.3404445202913
 33
0.0
  0
SOLID
  5
1CBF
330
11E6
100
AcDbEntity
  8
MEASURE
 62
     9
100
AcDbTrace
 10
444.3411926364701
 20
252.4237778536247
 30
0.0
 11
444.3411926364701
 21
248.257111186958
 31
0.0
 12
456.8411926364701
 22
250.3404445202913
 32
0.0
 13
456.8411926364701
 23
250.3404445202913
 33
0.0
  0
MTEXT
  5
1CC0
330
11E6
100
AcDbEntity
  8
MEASURE
 62
     2
100
AcDbMText
 10
291.84119263647
 20
259.8404445202914
 30
0.0
 40
13.99999999999999
 41
0.0
 71
     5
 72
     1
  1
\A1;330
  7
AD-STANDARD
  0
POINT
  5
1CC1
330
11E6
100
AcDbEntity
  8
DEFPOINTS
 62
     0
100
AcDbPoint
 10
126.84119263647
 20
405.1788955831007
 30
0.0
  0
POINT
  5
1CC2
330
11E6
100
AcDbEntity
  8
DEFPOINTS
 62
     0
100
AcDbPoint
 10
456.8411926364701
 20
405.1788955831007
 30
0.0
  0
POINT
  5
1CC3
330
11E6
100
AcDbEntity
  8
DEFPOINTS
 62
     0
100
AcDbPoint
 10
456.8411926364701
 20
250.3404445202913
 30
0.0
  0
ENDBLK
  5
11F1
330
11E6
100
AcDbEntity
  8
0
100
AcDbBlockEnd
  0
ENDSEC
  0
SECTION
  2
ENTITIES
  0
ARC
  5
9C7
330
1A
100
AcDbEntity
  8
1
 48
0.25
100
AcDbCircle
 10
-384.725156916824
 20
-345.0384452316487
 30
742.184066524647
 40
30.0
210
0.0000000000000005
220
0.9205048534524403
230
0.3907311284892737
100
AcDbArc
 50
89.99985419520328
 51
172.7437708830955
  0
ARC
  5
9C8
330
1A
100
AcDbEntity
  8
1
 48
0.25
100
AcDbCircle
 10
-199.1239067262263
 20
-345.038445231649
 30
742.1840665246468
 40
30.0
210
0.0000000000000003
220
0.9205048534524403
230
0.3907311284892737
100
AcDbArc
 50
7.256229116904334
 51
90.00014580479669
  0
ARC
  5
9D4
330
1A
100
AcDbEntity
  8
1
 62
     8
100
AcDbCircle
 10
15.83191627680253
 20
-403.7658544531308
 30
767.4294298154737
 40
180.0
210
0.0000000000000005
220
0.9205048534524403
230
0.3907311284892737
100
AcDbArc
 50
181.0000000000023
 51
195.4393555178335
  0
ARC
  5
9D5
330
1A
100
AcDbEntity
  8
1
 62
     8
100
AcDbCircle
 10
15.83191627680253
 20
-403.7658544531308
 30
767.4294298154737
 40
184.0
210
0.0000000000000005
220
0.9205048534524403
230
0.3907311284892737
100
AcDbArc
 50
181.0000000000023
 51
195.4393555178335
  0
ARC
  5
9D6
330
1A
100
AcDbEntity
  8
1
 62
     8
100
AcDbCircle
 10
-599.6809877223832
 20
-403.7658544531356
 30
767.4294298154737
 40
180.0
210
0.0000000000000005
220
0.9205048534524403
230
0.3907311284892737
100
AcDbArc
 50
344.5606444821676
 51
358.9999999999988
  0
ARC
  5
9D7
330
1A
100
AcDbEntity
  8
1
 62
     8
100
AcDbCircle
 10
-599.6809877223832
 20
-403.7658544531356
 30
767.4294298154737
 40
184.0
210
0.0000000000000005
220
0.9205048534524403
230
0.3907311284892737
100
AcDbArc
 50
344.5606444821676
 51
358.9999999999988
  0
ARC
  5
9D8
330
1A
100
AcDbEntity
  8
1
 62
     8
100
AcDbCircle
 10
-599.6809877223832
 20
-401.8121988106893
 30
762.8269055482113
 40
180.0
210
0.0000000000000005
220
0.9205048534524403
230
0.3907311284892737
100
AcDbArc
 50
344.5606444821676
 51
358.9999999999988
  0
ARC
  5
9D9
330
1A
100
AcDbEntity
  8
1
 62
     8
100
AcDbCircle
 10
15.83192407932711
 20
-401.4214676822001
 30
761.906400694757
 40
180.0
210
-0.0000000000000059
220
0.9205048534524403
230
0.3907311284892737
100
AcDbArc
 50
181.0000000000012
 51
195.4393555178322
  0
ARC
  5
9DA
330
1A
100
AcDbEntity
  8
1
 62
     8
100
AcDbCircle
 10
15.83192407932711
 20
-401.8121988106893
 30
762.8269055482093
 40
180.0
210
-0.0000000000000059
220
0.9205048534524403
230
0.3907311284892737
100
AcDbArc
 50
181.0000000000012
 51
195.4393555178322
  0
ARC
  5
9DB
330
1A
100
AcDbEntity
  8
1
 62
     8
100
AcDbCircle
 10
15.83192407932711
 20
-403.7658544531358
 30
767.4294298154714
 40
180.0
210
-0.0000000000000059
220
0.9205048534524403
230
0.3907311284892737
100
AcDbArc
 50
181.0000000000012
 51
195.4393555178322
  0
LINE
  5
9DC
330
1A
100
AcDbEntity
  8
1
 62
     8
100
AcDbLine
 10
322.4245318215253
 20
896.374416819833
 30
-147.6400705539569
 11
322.4245318215253
 21
847.7283913229177
 31
-33.03721629912821
210
0.0000000000000005
220
0.9205048534524403
230
0.3907311284892737
  0
LINE
  5
9DD
330
1A
100
AcDbEntity
  8
1
 62
     8
100
AcDbLine
 10
321.9245318215253
 20
896.3744168198337
 30
-147.6400705539588
 11
321.9245318215253
 21
847.3376601944288
 31
-32.11671144567573
210
0.0000000000000005
220
0.9205048534524403
230
0.3907311284892737
  0
LINE
  5
9DE
330
1A
100
AcDbEntity
  8
1
 62
     8
100
AcDbLine
 10
322.4245396240539
 20
847.3376601944288
 30
-32.11671144567505
 11
322.4245396240521
 21
896.3744168198322
 31
-147.6400705539563
210
0.0000000000000005
220
0.9205048534524403
230
0.3907311284892737
  0
ARC
  5
9DF
330
1A
100
AcDbEntity
  8
1
 48
0.25
100
AcDbCircle
 10
-599.6809877223832
 20
-399.0770809112644
 30
756.3833715740443
 40
180.0
210
0.0000000000000005
220
0.9205048534524403
230
0.3907311284892737
100
AcDbArc
 50
344.5606444821676
 51
358.9999999999988
  0
ARC
  5
9E0
330
1A
100
AcDbEntity
  8
1
 62
     8
100
AcDbCircle
 10
-599.6809877223832
 20
-401.4214676822001
 30
761.9064006947589
 40
180.0
210
0.0000000000000005
220
0.9205048534524403
230
0.3907311284892737
100
AcDbArc
 50
344.5606444821676
 51
358.9999999999988
  0
ARC
  5
9E1
330
1A
100
AcDbEntity
  8
1
 48
0.25
100
AcDbCircle
 10
15.83192407932711
 20
-399.0770809112643
 30
756.3833715740424
 40
180.0
210
-0.0000000000000059
220
0.9205048534524403
230
0.3907311284892737
100
AcDbArc
 50
181.0000000000012
 51
195.4393555178322
  0
LINE
  5
9E2
330
1A
100
AcDbEntity
  8
1
 62
     8
100
AcDbLine
 10
318.4245318215253
 20
903.9936738253736
 30
-165.5899151962796
 11
318.4245318215253
 21
881.135902808751
 31
-111.7403812693119
210
0.0000000000000005
220
0.9205048534524403
230
0.3907311284892737
  0
ARC
  5
9E4
330
1A
100
AcDbEntity
  8
1
 62
     8
100
AcDbCircle
 10
-244.4245318215255
 20
-475.644788941906
 30
767.4294298154737
 40
82.0
210
0.0000000000000005
220
0.9205048534524403
230
0.3907311284892737
100
AcDbArc
 50
339.0751675723618
 51
19.61597913540639
  0
ARC
  5
9E6
330
1A
100
AcDbEntity
  8
1
 62
     8
100
AcDbCircle
 10
-404.808015974635
 20
-500.6447889419056
 30
767.4294298154737
 40
16.0
210
0.0000000000000005
220
0.9205048534524403
230
0.3907311284892737
100
AcDbArc
 50
200.9248324276371
 51
270.0
  0
ARC
  5
9E7
330
1A
100
AcDbEntity
  8
1
 62
     8
100
AcDbCircle
 10
-311.4245318215255
 20
-505.6447889419057
 30
767.4294298154737
 40
7.0
210
0.0000000000000005
220
0.9205048534524403
230
0.3907311284892737
100
AcDbArc
 50
180.0
 51
270.0
  0
ARC
  5
9E9
330
1A
100
AcDbEntity
  8
1
 62
     8
100
AcDbCircle
 10
-179.0410476684157
 20
-500.6447889419057
 30
767.4294298154737
 40
16.0
210
0.0000000000000005
220
0.9205048534524403
230
0.3907311284892737
100
AcDbArc
 50
270.0
 51
339.0751675723628
  0
ARC
  5
9EA
330
1A
100
AcDbEntity
  8
1
 62
     8
100
AcDbCircle
 10
-179.0410476684157
 20
-500.6447889419057
 30
767.4294298154737
 40
12.0
210
0.0000000000000005
220
0.9205048534524403
230
0.3907311284892737
100
AcDbArc
 50
270.0
 51
339.0751675723638
  0
ARC
  5
9EC
330
1A
100
AcDbEntity
  8
1
 48
0.25
100
AcDbCircle
 10
-404.808015974635
 20
-500.6447889419056
 30
767.4294298154737
 40
20.0
210
0.0000000000000005
220
0.9205048534524403
230
0.3907311284892737
100
AcDbArc
 50
200.9248324276371
 51
270.0
  0
ARC
  5
9ED
330
1A
100
AcDbEntity
  8
1
 48
0.25
100
AcDbCircle
 10
-179.0410476684157
 20
-500.6447889419057
 30
767.4294298154737
 40
20.0
210
0.0000000000000005
220
0.9205048534524403
230
0.3907311284892737
100
AcDbArc
 50
270.0
 51
339.0751675723628
  0
ARC
  5
9EE
330
1A
100
AcDbEntity
  8
1
 62
     8
100
AcDbCircle
 10
-405.9752643494248
 20
-505.6447889419056
 30
767.4294298154737
 40
7.0
210
0.0000000000000005
220
0.9205048534524403
230
0.3907311284892737
100
AcDbArc
 50
204.2650859026864
 51
270.0
  0
ARC
  5
9EF
330
1A
100
AcDbEntity
  8
1
 62
     8
100
AcDbCircle
 10
-325.4245318215255
 20
-510.6447889419057
 30
767.4294298154737
 40
2.0
210
0.0000000000000005
220
0.9205048534524403
230
0.3907311284892737
100
AcDbArc
 50
270.0
 51
0.0
  0
LINE
  5
9F0
330
1A
100
AcDbEntity
  8
1
 48
0.25
100
AcDbLine
 10
334.4245318215212
 20
803.2794115581358
 30
-179.3974879980668
 11
334.4245318215212
 21
806.2794115581358
 31
-179.3974879980668
  0
LINE
  5
9F1
330
1A
100
AcDbEntity
  8
1
 48
0.25
100
AcDbLine
 10
249.4245318215312
 20
803.279494266159
 30
-179.3974879980668
 11
249.4245318215312
 21
806.2794942661591
 31
-179.3974879980668
  0
LINE
  5
9F2
330
1A
100
AcDbEntity
  8
1
 48
0.25
100
AcDbLine
 10
214.4245318215257
 20
803.2795283224041
 30
-179.3974879980668
 11
214.4245318215257
 21
806.2795283224042
 31
-179.3974879980668
  0
LINE
  5
9F3
330
1A
100
AcDbEntity
  8
1
 48
0.25
100
AcDbLine
 10
369.4245318215271
 20
803.2793775018911
 30
-179.3974879980668
 11
369.4245318215271
 21
806.2793775018912
 31
-179.3974879980668
  0
LINE
  5
9F4
330
1A
100
AcDbEntity
  8
1
 62
     8
100
AcDbLine
 10
179.041047668416
 20
906.7287917247991
 30
-172.0334491704476
 11
311.4245318215253
 21
906.7287917247986
 31
-172.0334491704468
210
0.0000000000000005
220
0.9205048534524403
230
0.3907311284892737
  0
LINE
  5
9F6
330
1A
100
AcDbEntity
  8
1
 62
     8
100
AcDbLine
 10
404.8080159746355
 20
908.2917162387555
 30
-175.7154685842571
 11
179.0410476684155
 21
908.2917162387559
 31
-175.7154685842573
  0
LINE
  5
9F7
330
1A
100
AcDbEntity
  8
1
 48
0.25
100
AcDbLine
 10
179.041047668416
 20
909.8546407527136
 30
-179.3974879980673
 11
404.8080159746355
 21
909.8546407527129
 31
-179.3974879980661
210
0.0000000000000005
220
0.9205048534524403
230
0.3907311284892737
  0
LINE
  5
9F8
330
1A
100
AcDbEntity
  8
1
 48
0.25
100
AcDbLine
 10
404.8080159746609
 20
909.8546407527129
 30
-179.3974879980661
 11
179.0410476683905
 21
909.8546407527136
 31
-179.3974879980673
210
0.0000000000000005
220
0.9205048534524403
230
0.3907311284892737
  0
LINE
  5
9F9
330
1A
100
AcDbEntity
  8
1
 62
     8
100
AcDbLine
 10
325.4245318215257
 20
906.7287917247986
 30
-172.0334491704468
 11
405.9752643494253
 21
906.7287917247986
 31
-172.0334491704468
210
0.0000000000000005
220
0.9205048534524403
230
0.3907311284892737
  0
LINE
  5
9FA
330
1A
100
AcDbEntity
  8
1
 48
0.25
100
AcDbLine
 10
154.4245318215255
 20
892.2264187218692
 30
-137.867999421418
 11
154.4245318215255
 21
880.2264187218694
 31
-137.867999421418
  0
ARC
  5
9FB
330
1A
100
AcDbEntity
  8
1
 48
0.25
100
AcDbCircle
 10
-244.4245318215255
 20
-475.644788941906
 30
767.4294298154737
 40
90.0
210
0.0000000000000005
220
0.9205048534524403
230
0.3907311284892737
100
AcDbArc
 50
339.0751675723606
 51
15.43935551783415
  0
LINE
  5
9FC
330
1A
100
AcDbEntity
  8
1
 48
0.25
100
AcDbLine
 10
429.4245318215256
 20
892.226418721874
 30
-137.8679994214198
 11
429.4245318215256
 21
880.2264187218741
 31
-137.8679994214198
  0
ARC
  5
9FD
330
1A
100
AcDbEntity
  8
1
 48
0.25
100
AcDbCircle
 10
-340.2779279645417
 20
-475.5287980583289
 30
767.4294298154737
 40
89.14660385698349
210
0.0000000000000005
220
0.9205048534524403
230
0.3907311284892737
100
AcDbArc
 50
164.4864865151915
 51
191.3970563212886
  0
ARC
  5
9FE
330
1A
100
AcDbEntity
  8
1
 62
     8
100
AcDbCircle
 10
-340.261256225013
 20
-475.531062507439
 30
767.4294298154737
 40
85.16327726379186
210
0.0000000000000005
220
0.9205048534524403
230
0.3907311284892737
100
AcDbArc
 50
164.4845354435436
 51
191.7987439427778
  0
LINE
  5
9FF
330
1A
100
AcDbEntity
  8
1
 62
     8
100
AcDbLine
 10
307.4245318215207
 20
900.8678247974584
 30
-158.2258763686576
 11
307.4245318215207
 21
882.5034617584623
 31
-114.9621482563929
210
0.0000000000000005
220
0.9205048534524403
230
0.3907311284892737
  0
LINE
  5
A00
330
1A
100
AcDbEntity
  8
1
 62
     8
100
AcDbLine
 10
182.4245318215212
 20
900.8678247974588
 30
-158.2258763686576
 11
182.4245318215212
 21
882.5034617584627
 31
-114.9621482563932
210
0.0000000000000005
220
0.9205048534524403
230
0.3907311284892737
  0
ARC
  5
A01
330
1A
100
AcDbEntity
  8
1
 62
     8
100
AcDbCircle
 10
-244.4245318215255
 20
-475.644788941906
 30
767.4294298154737
 40
86.0
210
0.0000000000000005
220
0.9205048534524403
230
0.3907311284892737
100
AcDbArc
 50
339.0751675723606
 51
15.43935551783415
  0
LINE
  5
A02
330
1A
100
AcDbEntity
  8
1
 62
     8
100
AcDbLine
 10
182.4245318215212
 20
882.5034617584627
 30
-114.9621482563932
 11
307.4245318215207
 21
882.5034617584623
 31
-114.9621482563929
210
0.0000000000000005
220
0.9205048534524403
230
0.3907311284892737
  0
ARC
  5
A03
330
1A
100
AcDbEntity
  8
1
 62
     8
100
AcDbCircle
 10
-340.2779279645417
 20
-473.5751424158824
 30
762.8269055482113
 40
89.14660385698349
210
0.0000000000000005
220
0.9205048534524403
230
0.3907311284892737
100
AcDbArc
 50
164.4864865151915
 51
180.0000000000001
  0
ARC
  5
A04
330
1A
100
AcDbEntity
  8
1
 48
0.25
100
AcDbCircle
 10
-340.2779279645417
 20
-470.8400245164573
 30
756.3833715740443
 40
89.14660385698349
210
0.0000000000000005
220
0.9205048534524403
230
0.3907311284892737
100
AcDbArc
 50
164.4864865151915
 51
180.0000000000002
  0
ARC
  5
A05
330
1A
100
AcDbEntity
  8
1
 62
     8
100
AcDbCircle
 10
-340.2779279645417
 20
-473.1844112873932
 30
761.9064006947589
 40
89.14660385698349
210
0.0000000000000005
220
0.9205048534524403
230
0.3907311284892737
100
AcDbArc
 50
164.4864865151915
 51
180.0000000000001
  0
LINE
  5
A06
330
1A
100
AcDbEntity
  8
1
 62
     8
100
AcDbLine
 10
318.424581302037
 20
885.0432140936437
 30
-120.9454298038362
 11
318.424581302037
 21
885.6293107863784
 31
-122.3261870840167
210
0.0000000000000005
220
0.9205048534524403
230
0.3907311284892737
  0
ARC
  5
A09
330
1A
100
AcDbEntity
  8
1
 62
     8
100
AcDbCircle
 10
-243.5711356785148
 20
-473.1844112873933
 30
761.906400694757
 40
89.14660385698349
210
-0.0000000000000059
220
0.9205048534524403
230
0.3907311284892737
100
AcDbArc
 50
359.9999999999997
 51
15.51351348480847
  0
ARC
  5
A0A
330
1A
100
AcDbEntity
  8
1
 62
     8
100
AcDbCircle
 10
-243.5711356785148
 20
-473.5751424158824
 30
762.8269055482093
 40
89.14660385698349
210
-0.0000000000000059
220
0.9205048534524403
230
0.3907311284892737
100
AcDbArc
 50
359.9999999999997
 51
15.51351348480847
  0
ARC
  5
A0B
330
1A
100
AcDbEntity
  8
1
 48
0.25
100
AcDbCircle
 10
-243.5711356785148
 20
-470.8400245164577
 30
756.3833715740424
 40
89.14660385698349
210
-0.0000000000000059
220
0.9205048534524403
230
0.3907311284892737
100
AcDbArc
 50
359.9999999999997
 51
15.51351348480847
  0
LINE
  5
A0C
330
1A
100
AcDbEntity
  8
1
 62
     8
100
AcDbLine
 10
182.4245318215212
 20
900.8678247974588
 30
-158.2258763686576
 11
307.4245318215207
 21
900.8678247974584
 31
-158.2258763686576
210
0.0000000000000005
220
0.9205048534524403
230
0.3907311284892737
  0
ARC
  5
A0D
330
1A
100
AcDbEntity
  8
1
 62
     8
100
AcDbCircle
 10
-339.4245318215255
 20
-475.644788941906
 30
767.4294298154737
 40
86.0
210
0.0000000000000005
220
0.9205048534524403
230
0.3907311284892737
100
AcDbArc
 50
192.0814698847062
 51
200.924832427639
  0
ARC
  5
A0E
330
1A
100
AcDbEntity
  8
1
 48
0.25
100
AcDbCircle
 10
-339.4245318215255
 20
-475.644788941906
 30
767.4294298154737
 40
90.0
210
0.0000000000000005
220
0.9205048534524403
230
0.3907311284892737
100
AcDbArc
 50
191.5369590328148
 51
200.924832427639
  0
LINE
  5
A0F
330
1A
100
AcDbEntity
  8
1
 62
     8
100
AcDbLine
 10
330.4245318215253
 20
901.8446526186828
 30
-160.5271385022913
 11
412.7849434888539
 21
901.8446526186828
 31
-160.5271385022913
210
0.0000000000000005
220
0.9205048534524403
230
0.3907311284892737
  0
ARC
  5
A10
330
1A
100
AcDbEntity
  8
1
 62
     8
100
AcDbCircle
 10
-339.4245318215255
 20
-475.644788941906
 30
767.4294298154737
 40
80.0
210
0.0000000000000005
220
0.9205048534524403
230
0.3907311284892737
100
AcDbArc
 50
199.8612529467865
 51
204.2650859026834
  0
ARC
  5
A11
330
1A
100
AcDbEntity
  8
1
 62
     8
100
AcDbCircle
 10
-412.7849434888539
 20
-502.1447889419056
 30
767.4294298154737
 40
2.0
210
0.0000000000000005
220
0.9205048534524403
230
0.3907311284892737
100
AcDbArc
 50
90.0
 51
199.861252946807
  0
ARC
  5
A12
330
1A
100
AcDbEntity
  8
1
 62
     8
100
AcDbCircle
 10
-330.4245318215255
 20
-507.1447889419057
 30
767.4294298154737
 40
7.0
210
0.0000000000000005
220
0.9205048534524403
230
0.3907311284892737
100
AcDbArc
 50
0.0
 51
90.0
  0
LINE
  5
A13
330
1A
100
AcDbEntity
  8
1
 62
     8
100
AcDbLine
 10
323.4245318215253
 20
905.9473294678198
 30
-170.1924394635418
 11
323.4245318215253
 21
904.5797705181076
 31
-166.9706724764582
210
0.0000000000000005
220
0.9205048534524403
230
0.3907311284892737
  0
LINE
  5
A14
330
1A
100
AcDbEntity
  8
1
 62
     8
100
AcDbLine
 10
329.4245318215257
 20
899.3049002835027
 30
-154.543856954852
 11
427.6061625617199
 21
899.3049002835022
 31
-154.5438569548503
210
0.0000000000000005
220
0.9205048534524403
230
0.3907311284892737
  0
LINE
  5
A15
330
1A
100
AcDbEntity
  8
1
 62
     8
100
AcDbLine
 10
329.4245318215253
 20
899.1095347192576
 30
-154.083604528124
 11
426.6870667377189
 21
899.1095347192576
 31
-154.083604528124
210
0.0000000000000005
220
0.9205048534524403
230
0.3907311284892737
  0
LINE
  5
A16
330
1A
100
AcDbEntity
  8
1
 62
     8
100
AcDbLine
 10
329.4245396240521
 20
899.1095347192572
 30
-154.0836045281231
 11
427.6666792110472
 21
899.1095347192572
 31
-154.0836045281231
210
0.0000000000000005
220
0.9205048534524403
230
0.3907311284892737
  0
ARC
  5
A17
330
1A
100
AcDbEntity
  8
1
 62
     8
100
AcDbCircle
 10
-339.4245318215255
 20
-475.644788941906
 30
767.4294298154737
 40
89.0
210
0.0000000000000005
220
0.9205048534524403
230
0.3907311284892737
100
AcDbArc
 50
191.3399134476776
 51
191.668399496464
  0
ARC
  5
A18
330
1A
100
AcDbEntity
  8
1
 62
     8
100
AcDbCircle
 10
-329.4245318215255
 20
-486.1447889419058
 30
767.4294298154737
 40
7.0
210
0.0000000000000005
220
0.9205048534524403
230
0.3907311284892737
100
AcDbArc
 50
270.0
 51
0.0
  0
ARC
  5
A19
330
1A
100
AcDbEntity
  8
1
 62
     8
100
AcDbCircle
 10
-329.4245396240524
 20
-486.1447889419048
 30
767.4294298154737
 40
7.0
210
0.0000000000000005
220
0.9205048534524403
230
0.3907311284892737
100
AcDbArc
 50
270.0
 51
0.0000000000007994
  0
ARC
  5
A1A
330
1A
100
AcDbEntity
  8
1
 62
     8
100
AcDbCircle
 10
-329.4245318215255
 20
-486.1447889419067
 30
767.4294298154737
 40
7.5
210
0.0000000000000005
220
0.9205048534524403
230
0.3907311284892737
100
AcDbArc
 50
269.9999999999988
 51
0.0
  0
DIMENSION
  5
A1F
330
1A
100
AcDbEntity
  8
MEASURE
100
AcDbDimension
  2
*D1
 10
1484.330641385162
 20
914.1891385023269
 30
0.0
 11
1474.830641385162
 21
636.4340170427157
 31
0.0
 70
    32
  1
（777）
  3
AD-STANDARD
100
AcDbAlignedDimension
 13
1146.647470106737
 23
358.6788955831043
 33
0.0
 14
1368.632852375878
 24
914.1891385023269
 34
0.0
 50
90.0
100
AcDbRotatedDimension
1001
ACAD
1000
DSTYLE
1002
{
1070
   287
1070
     1
1070
   287
1070
     1
1070
    40
1040
5.0
1070
   140
1040
2.799999999999998
1070
   271
1070
     8
1070
   272
1070
     8
1070
   289
1070
     1
1002
}
  0
DIMENSION
  5
A20
330
1A
100
AcDbEntity
  8
MEASURE
100
AcDbDimension
  2
*D2
 10
661.5991511997531
 20
460.1788955831008
 30
0.0
 11
652.099151199753
 21
432.6788955831008
 31
0.0
 70
    32
  3
AD-STANDARD
100
AcDbAlignedDimension
 13
755.6474701067387
 23
405.1788955831007
 33
0.0
 14
767.1474701067313
 24
460.1788955831008
 34
0.0
 50
90.0
100
AcDbRotatedDimension
1001
ACAD
1000
DSTYLE
1002
{
1070
   287
1070
     1
1070
   287
1070
     1
1070
    40
1040
5.0
1070
   140
1040
2.799999999999998
1070
   271
1070
     8
1070
   272
1070
     8
1070
   289
1070
     1
1002
}
  0
DIMENSION
  5
A21
330
1A
100
AcDbEntity
  8
MEASURE
100
AcDbDimension
  2
*D3
 10
1379.702801973181
 20
250.3404445202913
 30
0.0
 11
1067.67513603996
 21
259.8404445202914
 31
0.0
 70
    32
  1
（627）
  3
AD-STANDARD
100
AcDbAlignedDimension
 13
755.6474701067387
 23
405.1788955831007
 33
0.0
 14
1379.702801973181
 24
895.5291598282359
 34
0.0
100
AcDbRotatedDimension
1001
ACAD
1000
DSTYLE
1002
{
1070
   287
1070
     1
1070
   287
1070
     1
1070
    40
1040
5.0
1070
   140
1040
2.799999999999998
1070
   271
1070
     8
1070
   272
1070
     8
1070
   289
1070
     1
1002
}
  0
LINE
  5
A24
330
1A
100
AcDbEntity
  8
1
100
AcDbLine
 10
1154.139042203406
 20
387.6788955831007
 30
0.0
 11
781.4808177062992
 21
387.6788955831007
 31
0.0
  0
LINE
  5
A25
330
1A
100
AcDbEntity
  8
1
100
AcDbLine
 10
1066.62696976543
 20
369.1788955831006
 30
0.0
 11
868.6679704480452
 21
369.1788955831006
 31
0.0
  0
LINE
  5
A26
330
1A
100
AcDbEntity
  8
1
 62
     8
100
AcDbLine
 10
1059.099184168841
 20
382.1788955831006
 30
0.0
 11
973.4985064345559
 21
382.1788955831006
 31
0.0
  0
LINE
  5
A27
330
1A
100
AcDbEntity
  8
1
100
AcDbLine
 10
755.6474701067386
 20
405.1788955831007
 30
0.0
 11
1179.647470106738
 21
405.1788955831007
 31
0.0
  0
LINE
  5
A28
330
1A
100
AcDbEntity
  8
1
100
AcDbLine
 10
767.1474701067386
 20
460.1788955831008
 30
0.0
 11
1168.147470106738
 21
460.1788955831008
 31
0.0
  0
DIMENSION
  5
A29
330
1A
100
AcDbEntity
  8
MEASURE
100
AcDbDimension
  2
*D4
 10
632.0881931669555
 20
460.1788955831008
 30
0.0
 11
622.5881931669554
 21
409.4288955831021
 31
0.0
 70
    32
  1
107～117
  3
AD-STANDARD
100
AcDbAlignedDimension
 13
788.6474701067314
 23
358.6788955831032
 33
0.0
 14
767.1474701067313
 24
460.1788955831008
 34
0.0
 50
90.0
100
AcDbRotatedDimension
1001
ACAD
1000
DSTYLE
1002
{
1070
   287
1070
     1
1070
   287
1070
     1
1070
    40
1040
5.0
1070
   140
1040
2.799999999999998
1070
   271
1070
     8
1070
   272
1070
     8
1070
   289
1070
     1
1002
}
  0
ARC
  5
A2C
330
1A
100
AcDbEntity
  8
1
 62
     8
100
AcDbCircle
 10
865.1397756172123
 20
379.178895583097
 30
0.0
 40
3.0
100
AcDbArc
 50
2.999999999999896
 51
90.0
  0
LINE
  5
A2D
330
1A
100
AcDbEntity
  8
1
100
AcDbLine
 10
868.6679704480379
 20
369.1788955831006
 30
0.0
 11
825.8636724663706
 21
376.726448207556
 31
0.0
  0
LINE
  5
A2E
330
1A
100
AcDbEntity
  8
1
100
AcDbLine
 10
868.6679704480379
 20
369.1788955831006
 30
0.0
 11
822.3882604321133
 21
377.3392571182707
 31
0.0
  0
LINE
  5
A2F
330
1A
100
AcDbEntity
  8
1
100
AcDbLine
 10
774.3416379662126
 20
405.1788955831007
 30
0.0
 11
779.5787046737136
 21
389.0608615943501
 31
0.0
  0
LINE
  5
A30
330
1A
100
AcDbEntity
  8
1
 62
     8
100
AcDbLine
 10
865.1397756172196
 20
382.1788955831006
 30
0.0
 11
812.649306395197
 21
382.1788955830932
 31
0.0
  0
LINE
  5
A31
330
1A
100
AcDbEntity
  8
1
 62
     8
100
AcDbLine
 10
821.9659866325205
 20
387.6788955831007
 30
0.0
 11
821.9659866325205
 21
383.6788955831007
 31
0.0
  0
LINE
  5
A32
330
1A
100
AcDbEntity
  8
1
 62
     8
100
AcDbLine
 10
821.9659866325205
 20
383.6788955831007
 30
0.0
 11
809.1474701067387
 21
383.6788955830967
 31
0.0
  0
ARC
  5
A33
330
1A
100
AcDbEntity
  8
1
100
AcDbCircle
 10
781.4808177062992
 20
389.678895583097
 30
0.0
 40
2.0
100
AcDbArc
 50
198.0000000000001
 51
270.0
  0
LINE
  5
A60
330
1A
100
AcDbEntity
  8
1
100
AcDbLine
 10
755.6474701067386
 20
405.1788955831007
 30
0.0
 11
755.6474701067386
 21
448.6788955831006
 31
0.0
  0
ARC
  5
A61
330
1A
100
AcDbEntity
  8
1
100
AcDbCircle
 10
767.1474701067313
 20
448.678895583097
 30
0.0
 40
11.5
100
AcDbArc
 50
90.0
 51
180.0
  0
ARC
  5
A74
330
1A
100
AcDbEntity
  8
1
100
AcDbCircle
 10
816.0903852740341
 20
381.4960222654344
 30
0.0
 40
3.0
100
AcDbArc
 50
200.0000000000004
 51
259.9999999999998
  0
LINE
  5
A75
330
1A
100
AcDbEntity
  8
1
100
AcDbLine
 10
813.2713074116733
 20
380.4699618354579
 30
0.0
 11
812.103351043796
 21
383.678895583097
 31
0.0
  0
LINE
  5
A76
330
1A
100
AcDbEntity
  8
1
100
AcDbLine
 10
822.3882604321138
 20
377.3392571182727
 30
0.0
 11
815.5694407410305
 21
378.5415990063929
 31
0.0
  0
LINE
  5
A77
330
1A
100
AcDbEntity
  8
1
 62
     8
100
AcDbLine
 10
970.500333953492
 20
379.2835940732119
 30
0.0
 11
970.1474701067381
 21
369.1788955831006
 31
0.0
  0
LINE
  5
A78
330
1A
100
AcDbEntity
  8
1
 62
     8
100
AcDbLine
 10
964.794606259984
 20
379.2835940732119
 30
0.0
 11
965.147470106738
 21
369.1788955831006
 31
0.0
  0
LINE
  5
A79
330
1A
100
AcDbEntity
  8
1
 62
     8
100
AcDbLine
 10
961.7964337789199
 20
382.1788955831006
 30
0.0
 11
876.1956927864707
 21
382.1788955831006
 31
0.0
  0
LINE
  5
A7A
330
1A
100
AcDbEntity
  8
1
 62
     8
100
AcDbLine
 10
947.6474701067386
 20
387.6788955831007
 30
0.0
 11
947.6474701067386
 21
382.1788955831006
 31
0.0
  0
LINE
  5
A7B
330
1A
100
AcDbEntity
  8
1
 62
     8
100
AcDbLine
 10
927.6474701067387
 20
387.6788955831007
 30
0.0
 11
927.6474701067387
 21
382.1788955831006
 31
0.0
  0
ARC
  5
A7C
330
1A
100
AcDbEntity
  8
1
 62
     8
100
AcDbCircle
 10
973.498506434549
 20
379.178895583097
 30
0.0
 40
3.0
100
AcDbArc
 50
90.0
 51
178.0000000000003
  0
ARC
  5
A7D
330
1A
100
AcDbEntity
  8
1
 62
     8
100
AcDbCircle
 10
961.7964337789199
 20
379.178895583097
 30
0.0
 40
3.0
100
AcDbArc
 50
2.000000000000035
 51
90.00000000000005
  0
LINE
  5
A7E
330
1A
100
AcDbEntity
  8
1
 62
     8
100
AcDbLine
 10
873.1998041822121
 20
379.3359034518297
 30
0.0
 11
872.6674979556451
 21
369.1788955831006
 31
0.0
  0
LINE
  5
A7F
330
1A
100
AcDbEntity
  8
1
 62
     8
100
AcDbLine
 10
868.1356642214852
 20
379.3359034518297
 30
0.0
 11
868.6679704480379
 21
369.1788955831006
 31
0.0
  0
ARC
  5
A80
330
1A
100
AcDbEntity
  8
1
 62
     8
100
AcDbCircle
 10
876.1956927864707
 20
379.178895583097
 30
0.0
 40
3.0
100
AcDbArc
 50
90.00000000000005
 51
176.9999999999997
  0
LINE
  5
A81
330
1A
100
AcDbEntity
  8
1
 62
     8
100
AcDbLine
 10
868.1615293985492
 20
378.8423664727606
 30
0.0
 11
873.1739390051412
 21
378.8423664727606
 31
0.0
  0
LINE
  5
A82
330
1A
100
AcDbEntity
  8
1
 62
     8
100
AcDbLine
 10
964.8100142673099
 20
378.8423664727606
 30
0.0
 11
970.484925946166
 21
378.8423664727606
 31
0.0
  0
LINE
  5
A85
330
1A
100
AcDbEntity
  8
1
 62
     8
100
AcDbLine
 10
1121.245218741864
 20
382.1788955830897
 30
0.0
 11
1070.155573830492
 21
382.1788955831006
 31
0.0
  0
LINE
  5
A89
330
1A
100
AcDbEntity
  8
1
100
AcDbLine
 10
1066.626969765445
 20
369.1788955831006
 30
0.0
 11
1111.575009105171
 21
377.1044476486452
 31
0.0
  0
LINE
  5
A8A
330
1A
100
AcDbEntity
  8
1
 62
     8
100
AcDbLine
 10
1007.647470106737
 20
387.6788955831007
 30
0.0
 11
1007.647470106737
 21
382.1788955831006
 31
0.0
  0
LINE
  5
A8B
330
1A
100
AcDbEntity
  8
1
 62
     8
100
AcDbLine
 10
987.647470106738
 20
387.6788955831007
 30
0.0
 11
987.647470106738
 21
382.1788955831006
 31
0.0
  0
LINE
  5
A8C
330
1A
100
AcDbEntity
  8
1
 62
     8
100
AcDbLine
 10
1067.159685226225
 20
379.3359034518297
 30
0.0
 11
1066.627378999666
 21
369.1788955831006
 31
0.0
  0
LINE
  5
A8D
330
1A
100
AcDbEntity
  8
1
 62
     8
100
AcDbLine
 10
1062.095072773106
 20
379.3359034518297
 30
0.0
 11
1062.627378999666
 21
369.1788955831006
 31
0.0
  0
ARC
  5
A8E
330
1A
100
AcDbEntity
  8
1
 62
     8
100
AcDbCircle
 10
1070.155573830492
 20
379.178895583097
 30
0.0
 40
3.0
100
AcDbArc
 50
90.0
 51
176.9999999999997
  0
ARC
  5
A8F
330
1A
100
AcDbEntity
  8
1
 62
     8
100
AcDbCircle
 10
1059.099184168841
 20
379.178895583097
 30
0.0
 40
3.0
100
AcDbArc
 50
3.000000000000149
 51
90.0
  0
LINE
  5
A90
330
1A
100
AcDbEntity
  8
1
100
AcDbLine
 10
1066.62696976543
 20
369.1788955831006
 30
0.0
 11
1097.155920323227
 21
374.5619732591449
 31
0.0
  0
LINE
  5
A91
330
1A
100
AcDbEntity
  8
1
 62
     8
100
AcDbLine
 10
1062.12093795017
 20
378.8423664727606
 30
0.0
 11
1067.133820049163
 21
378.8423664727606
 31
0.0
  0
LINE
  5
A96
330
1A
100
AcDbEntity
  8
1
 62
     8
100
AcDbLine
 10
1113.328953580956
 20
387.6788955831007
 30
0.0
 11
1113.328953580956
 21
383.6788955831007
 31
0.0
  0
LINE
  5
A97
330
1A
100
AcDbEntity
  8
1
 62
     8
100
AcDbLine
 10
1113.328953580956
 20
383.6788955831007
 30
0.0
 11
1126.147470106745
 21
383.6788955831007
 31
0.0
  0
LINE
  5
A98
330
1A
100
AcDbEntity
  8
1
100
AcDbLine
 10
1162.004764471497
 20
405.1788955830934
 30
0.0
 11
1156.992211752291
 21
389.7518445999748
 31
0.0
  0
ARC
  5
A99
330
1A
100
AcDbEntity
  8
1
100
AcDbCircle
 10
1154.139042203406
 20
390.678895583097
 30
0.0
 40
3.0
100
AcDbArc
 50
270.0
 51
342.0000000000011
  0
LINE
  5
A9A
330
1A
100
AcDbEntity
  8
1
100
AcDbLine
 10
1179.647470106738
 20
405.1788955831007
 30
0.0
 11
1179.647470106738
 21
448.6788955831006
 31
0.0
  0
ARC
  5
A9B
330
1A
100
AcDbEntity
  8
1
100
AcDbCircle
 10
1168.14747010673
 20
448.678895583097
 30
0.0
 40
11.5
100
AcDbArc
 50
359.9999999999998
 51
90.0
  0
LINE
  5
A9C
330
1A
100
AcDbEntity
  8
1
100
AcDbLine
 10
1154.139042203406
 20
387.6788955831007
 30
0.0
 11
1186.536610305924
 21
378.0548164566434
 31
0.0
  0
ARC
  5
A9D
330
1A
100
AcDbEntity
  8
1
100
AcDbCircle
 10
1208.213025970759
 20
379.9788955830925
 30
0.0
 40
2.0
100
AcDbArc
 50
269.9999999999998
 51
358.0908475670034
  0
LINE
  5
A9E
330
1A
100
AcDbEntity
  8
1
100
AcDbLine
 10
1187.082430345083
 20
377.9788955830963
 30
0.0
 11
1208.213025970766
 21
377.9788955830963
 31
0.0
  0
LINE
  5
A9F
330
1A
100
AcDbEntity
  8
1
100
AcDbLine
 10
1172.031598571152
 20
405.1788955831007
 30
0.0
 11
1172.322823750098
 21
396.839297596286
 31
0.0
  0
ARC
  5
AA0
330
1A
100
AcDbEntity
  8
1
100
AcDbCircle
 10
1176.320387058167
 20
396.9788955830927
 30
0.0
 40
4.0
100
AcDbArc
 50
182.0000000000004
 51
270.0000000000004
  0
LINE
  5
AA1
330
1A
100
AcDbEntity
  8
1
100
AcDbLine
 10
1176.320387058175
 20
392.9788955830963
 30
0.0
 11
1210.647470106738
 21
392.9788955830963
 31
0.0
  0
LINE
  5
AA2
330
1A
100
AcDbEntity
  8
1
100
AcDbLine
 10
1210.647470106738
 20
392.9788955830963
 30
0.0
 11
1210.211915784723
 21
379.9122659226349
 31
0.0
  0
ARC
  5
ADB
330
1A
100
AcDbEntity
  8
1
100
AcDbCircle
 10
1119.20455493945
 20
381.4960222654344
 30
0.0
 40
3.0
100
AcDbArc
 50
280.0
 51
339.9999999999995
  0
LINE
  5
ADC
330
1A
100
AcDbEntity
  8
1
100
AcDbLine
 10
1122.02363280181
 20
380.4699618354579
 30
0.0
 11
1123.191589169681
 21
383.6788955831007
 31
0.0
  0
ARC
  5
ADD
330
1A
100
AcDbEntity
  8
1
 62
     8
100
AcDbCircle
 10
1121.245218741864
 20
384.1788955831007
 30
0.0
 40
2.0
100
AcDbArc
 50
270.0
 51
339.9999999999999
  0
LINE
  5
ADE
330
1A
100
AcDbEntity
  8
1
100
AcDbLine
 10
1111.575009105171
 20
377.1044476486372
 30
0.0
 11
1119.725499472454
 21
378.5415990063929
 31
0.0
  0
ARC
  5
B1F
330
1A
100
AcDbEntity
  8
1
 62
     8
100
AcDbCircle
 10
-195.924531821525
 20
-390.8947889419039
 30
767.4294298154737
 40
20.0
210
0.0000000000000005
220
0.9205048534524403
230
0.3907311284892737
100
AcDbArc
 50
0.0
 51
90.0
  0
LINE
  5
B21
330
1A
100
AcDbEntity
  8
1
 62
     8
100
AcDbLine
 10
312.4245318215234
 20
870.1954312110514
 30
-85.96624537264348
 11
312.4245318215234
 21
852.124116518423
 31
-43.39289590046981
210
0.0000000000000005
220
0.9205048534524403
230
0.3907311284892737
  0
LINE
  5
B23
330
1A
100
AcDbEntity
  8
1
 62
     8
100
AcDbLine
 10
312.4245318215248
 20
870.293113993174
 30
-86.19637158600722
 11
312.4245318215248
 21
852.1241165184227
 31
-43.39289590046861
210
0.0000000000000005
220
0.9205048534524403
230
0.3907311284892737
  0
ARC
  5
B24
330
1A
100
AcDbEntity
  8
1
 62
     8
100
AcDbCircle
 10
-194.4736178214764
 20
-394.7632930287101
 30
767.4294298154737
 40
26.1185502118284
210
0.0000000000000005
220
0.9205048534524403
230
0.3907311284892737
100
AcDbArc
 50
0.2626104772850812
 51
89.89232088829098
  0
ARC
  5
B25
330
1A
100
AcDbEntity
  8
1
 62
     8
100
AcDbCircle
 10
-389.4937280989574
 20
-394.6435014857064
 30
767.4294298154737
 40
26.0
210
0.0000000000000005
220
0.9205048534524403
230
0.3907311284892737
100
AcDbArc
 50
89.42981080968911
 51
179.9999999999963
  0
ARC
  5
B26
330
1A
100
AcDbEntity
  8
1
 62
     8
100
AcDbCircle
 10
-389.419969782733
 20
-390.6447889419053
 30
767.4294298154737
 40
30.0
210
0.0000000000000005
220
0.9205048534524403
230
0.3907311284892737
100
AcDbArc
 50
90.0
 51
178.9999999999897
  0
ARC
  5
B27
330
1A
100
AcDbEntity
  8
1
 62
     8
100
AcDbCircle
 10
-194.4245318215255
 20
-390.6447889419061
 30
767.4294298154737
 40
30.0
210
0.0000000000000005
220
0.9205048534524403
230
0.3907311284892737
100
AcDbArc
 50
0.0
 51
90.0
  0
ARC
  5
B28
330
1A
100
AcDbEntity
  8
1
 62
     8
100
AcDbCircle
 10
-389.4199677939921
 20
-389.8632888067097
 30
765.5883308730814
 40
30.0
210
0.0000000000000005
220
0.9205048534524403
230
0.3907311284892737
100
AcDbArc
 50
89.9998541952039
 51
178.9999999999897
  0
ARC
  5
B29
330
1A
100
AcDbEntity
  8
1
 62
     8
100
AcDbCircle
 10
-194.4290958490646
 20
-389.8632888067097
 30
765.5883308730797
 40
30.0
210
-0.0000000000000059
220
0.9205048534524403
230
0.3907311284892737
100
AcDbArc
 50
1.000000000010224
 51
90.00014580479607
  0
ARC
  5
B2A
330
1A
100
AcDbEntity
  8
1
 62
     8
100
AcDbCircle
 10
-194.4290967712745
 20
-389.4725565481358
 30
764.6678233573151
 40
30.0
210
-0.0000000000000059
220
0.9205048534524403
230
0.3907311284892737
100
AcDbArc
 50
1.000000000010224
 51
90.00013523002955
  0
ARC
  5
B2C
330
1A
100
AcDbEntity
  8
1
 62
     8
100
AcDbCircle
 10
-194.4290978377239
 20
-384.3930473119531
 30
752.7012495060303
 40
30.0
210
-0.0000000000000059
220
0.9205048534524403
230
0.3907311284892737
100
AcDbArc
 50
7.256229116904332
 51
90.00014580479669
  0
ARC
  5
B2D
330
1A
100
AcDbEntity
  8
1
 62
     8
100
AcDbCircle
 10
-194.4290956665231
 20
-385.2690621585114
 30
754.765011154791
 40
30.0
210
-0.0000000000000059
220
0.9205048534524403
230
0.3907311284892737
100
AcDbArc
 50
7.256229116904332
 51
90.00014580479669
  0
ARC
  5
B2E
330
1A
100
AcDbEntity
  8
1
 62
     8
100
AcDbCircle
 10
-389.4199679765333
 20
-385.2690621585116
 30
754.7650111547929
 40
30.0
210
0.0000000000000005
220
0.9205048534524403
230
0.3907311284892737
100
AcDbArc
 50
89.99985419520328
 51
172.7437708830955
  0
ARC
  5
B2F
330
1A
100
AcDbEntity
  8
1
 62
     8
100
AcDbCircle
 10
-389.4199658053328
 20
-384.3930473119533
 30
752.7012495060322
 40
30.0
210
0.0000000000000005
220
0.9205048534524403
230
0.3907311284892737
100
AcDbArc
 50
89.99985419520328
 51
172.7437708830955
  0
LINE
  5
B30
330
1A
100
AcDbEntity
  8
1
 48
0.25
100
AcDbLine
 10
419.1797025145901
 20
841.5789223662537
 30
-46.82020369889589
 11
419.708402594234
 21
853.4138585064701
 31
-74.70156600419797
210
0.0000000000000005
220
0.9205048534524403
230
0.3907311284892737
  0
ARC
  5
B31
330
1A
100
AcDbEntity
  8
1
 62
     8
100
AcDbCircle
 10
-389.4199668717819
 20
-389.472556548136
 30
764.6678233573167
 40
30.0
210
0.0000000000000005
220
0.9205048534524403
230
0.3907311284892737
100
AcDbArc
 50
89.99986476997042
 51
178.9999999999897
  0
LINE
  5
B32
330
1A
100
AcDbEntity
  8
1
 48
0.25
100
AcDbLine
 10
164.6693611284608
 20
841.5789223662526
 30
-46.82020369889589
 11
164.140661048817
 21
853.4138585064694
 31
-74.70156600419797
210
-0.0000000000000059
220
0.9205048534524403
230
0.3907311284892737
  0
LINE
  5
B3D
330
1A
100
AcDbEntity
  8
1
 62
     8
100
AcDbLine
 10
177.9245318215239
 20
871.7583557250083
 30
-89.64826478645273
 11
310.4245318215234
 21
871.7583557250085
 31
-89.64826478645342
210
0.0000000000000005
220
0.9205048534524403
230
0.3907311284892737
  0
LINE
  5
B3E
330
1A
100
AcDbEntity
  8
1
 62
     8
100
AcDbLine
 10
177.9245318215257
 20
870.9768934680298
 30
-87.80725507954777
 11
310.4245318215234
 21
870.9768934680299
 31
-87.80725507954846
210
0.0000000000000005
220
0.9205048534524403
230
0.3907311284892737
  0
LINE
  5
B3F
330
1A
100
AcDbEntity
  8
1
 62
     8
100
AcDbLine
 10
178.1745318215271
 20
870.9768934680298
 30
-87.80725507954731
 11
310.1745318215248
 21
870.9768934680299
 31
-87.8072550795489
210
0.0000000000000005
220
0.9205048534524403
230
0.3907311284892737
  0
LINE
  5
B40
330
1A
100
AcDbEntity
  8
1
 62
     8
100
AcDbLine
 10
177.9245318215271
 20
871.0745762501518
 30
-88.0373812929106
 11
310.4245318215248
 21
871.0745762501522
 31
-88.03738129291197
210
0.0000000000000005
220
0.9205048534524403
230
0.3907311284892737
  0
LINE
  5
B41
330
1A
100
AcDbEntity
  8
1
 62
     8
100
AcDbLine
 10
178.4870614423857
 20
878.400784909326
 30
-105.2968472951442
 11
311.4245318215253
 21
878.400784909326
 31
-105.2968472951447
210
0.0000000000000005
220
0.9205048534524403
230
0.3907311284892737
  0
LINE
  5
B43
330
1A
100
AcDbEntity
  8
1
 62
     8
100
AcDbLine
 10
177.9245318215239
 20
877.6193226523476
 30
-103.4558375882392
 11
310.4245318215252
 21
877.6193226523467
 31
-103.455837588238
210
0.0000000000000005
220
0.9205048534524403
230
0.3907311284892737
  0
LINE
  5
B44
330
1A
100
AcDbEntity
  8
1
 62
     8
100
AcDbLine
 10
312.4245318215234
 20
872.5398179819872
 30
-91.48927449335815
 11
312.4245318215252
 21
876.8378603953683
 31
-101.6148278813334
210
0.0000000000000005
220
0.9205048534524403
230
0.3907311284892737
  0
ARC
  5
B45
330
1A
100
AcDbEntity
  8
1
 62
     8
100
AcDbCircle
 10
-347.4245396240528
 20
-433.1447889419052
 30
767.4294298154737
 40
1.0
210
0.0000000000000005
220
0.9205048534524403
230
0.3907311284892737
100
AcDbArc
 50
270.0
 51
90.0
  0
ARC
  5
B46
330
1A
100
AcDbEntity
  8
1
 62
     8
100
AcDbCircle
 10
-410.612039624053
 20
-433.144788941905
 30
767.4294298154737
 40
1.0
210
0.0000000000000005
220
0.9205048534524403
230
0.3907311284892737
100
AcDbArc
 50
90.0
 51
270.0
  0
LINE
  5
B47
330
1A
100
AcDbEntity
  8
1
 62
     8
100
AcDbLine
 10
347.4245396240526
 20
876.0563981383903
 30
-99.77381817442939
 11
410.6120396240526
 21
876.0563981383903
 31
-99.77381817442939
210
0.0000000000000005
220
0.9205048534524403
230
0.3907311284892737
  0
LINE
  5
B48
330
1A
100
AcDbEntity
  8
1
 62
     8
100
AcDbLine
 10
347.4245396240526
 20
878.0100537808365
 30
-104.3763424416914
 11
410.9245396240526
 21
878.0100537808365
 31
-104.3763424416914
210
0.0000000000000005
220
0.9205048534524403
230
0.3907311284892737
  0
LINE
  5
B49
330
1A
100
AcDbEntity
  8
1
 62
     8
100
AcDbLine
 10
347.4245396240526
 20
878.7915160378153
 30
-106.2173521485963
 11
410.9245396240526
 21
878.7915160378153
 31
-106.2173521485963
210
0.0000000000000005
220
0.9205048534524403
230
0.3907311284892737
  0
ARC
  5
B4A
330
1A
100
AcDbEntity
  8
1
 62
     8
100
AcDbCircle
 10
-410.924539624053
 20
-440.1447889419052
 30
767.4294298154737
 40
1.0
210
0.0000000000000005
220
0.9205048534524403
230
0.3907311284892737
100
AcDbArc
 50
90.0
 51
270.0
  0
ARC
  5
B4B
330
1A
100
AcDbEntity
  8
1
 62
     8
100
AcDbCircle
 10
-311.4245318215255
 20
-447.144788941906
 30
767.4294298154737
 40
7.0
210
0.0000000000000005
220
0.9205048534524403
230
0.3907311284892737
100
AcDbArc
 50
90.0
 51
180.0
  0
ARC
  5
B4D
330
1A
100
AcDbEntity
  8
1
 62
     8
100
AcDbCircle
 10
-347.4245396240528
 20
-440.1447889419052
 30
767.4294298154737
 40
1.0
210
0.0000000000000005
220
0.9205048534524403
230
0.3907311284892737
100
AcDbArc
 50
270.0
 51
90.0
  0
ARC
  5
B4E
330
1A
100
AcDbEntity
  8
1
 62
     8
100
AcDbCircle
 10
-310.4245318215255
 20
-436.1447889419043
 30
767.4294298154737
 40
2.0
210
0.0000000000000005
220
0.9205048534524403
230
0.3907311284892737
100
AcDbArc
 50
180.0
 51
270.0000000000005
  0
LINE
  5
B4F
330
1A
100
AcDbEntity
  8
1
 62
     8
100
AcDbLine
 10
347.4245396240526
 20
869.8047000825617
 30
-85.04574051919032
 11
409.9870396240531
 21
869.8047000825617
 31
-85.04574051919032
210
0.0000000000000005
220
0.9205048534524403
230
0.3907311284892737
  0
LINE
  5
B50
330
1A
100
AcDbEntity
  8
1
 62
     8
100
AcDbLine
 10
347.4245396240526
 20
870.5861623395405
 30
-86.88675022609528
 11
409.9870396240531
 21
870.5861623395405
 31
-86.88675022609528
210
0.0000000000000005
220
0.9205048534524403
230
0.3907311284892737
  0
LINE
  5
B51
330
1A
100
AcDbEntity
  8
1
 62
     8
100
AcDbLine
 10
347.4245396240526
 20
872.5398179819869
 30
-91.48927449335749
 11
410.2995396240531
 21
872.5398179819869
 31
-91.48927449335749
210
0.0000000000000005
220
0.9205048534524403
230
0.3907311284892737
  0
LINE
  5
B52
330
1A
100
AcDbEntity
  8
1
 62
     8
100
AcDbLine
 10
347.4245396240526
 20
873.3212802389653
 30
-93.33028420026222
 11
410.2995396240531
 21
873.3212802389653
 31
-93.33028420026222
210
0.0000000000000005
220
0.9205048534524403
230
0.3907311284892737
  0
LINE
  5
B53
330
1A
100
AcDbEntity
  8
1
 62
     8
100
AcDbLine
 10
347.4245396240526
 20
875.2749358814115
 30
-97.93280846752445
 11
410.6120396240526
 21
875.2749358814115
 31
-97.93280846752445
210
0.0000000000000005
220
0.9205048534524403
230
0.3907311284892737
  0
ARC
  5
B54
330
1A
100
AcDbEntity
  8
1
 62
     8
100
AcDbCircle
 10
-410.2995396240535
 20
-426.1447889419049
 30
767.4294298154737
 40
1.0
210
0.0000000000000005
220
0.9205048534524403
230
0.3907311284892737
100
AcDbArc
 50
90.0
 51
270.0
  0
ARC
  5
B55
330
1A
100
AcDbEntity
  8
1
 62
     8
100
AcDbCircle
 10
-409.9870396240535
 20
-419.144788941905
 30
767.4294298154737
 40
1.0
210
0.0000000000000005
220
0.9205048534524403
230
0.3907311284892737
100
AcDbArc
 50
90.0
 51
270.0
  0
POLYLINE
  5
B56
330
1A
100
AcDbEntity
  8
1
 62
     8
100
AcDb2dPolyline
 66
     1
 10
0.0
 20
0.0
 30
761.4030847293799
 70
     1
210
0.0000000000000005
220
0.9205048534524403
230
0.3907311284892737
  0
VERTEX
  5
1C46
330
B56
100
AcDbEntity
  8
1
 62
     8
100
AcDbVertex
100
AcDb2dVertex
 10
-214.9245318215246
 20
-416.7413133446896
 30
761.4030847293799
  0
VERTEX
  5
1C47
330
B56
100
AcDbEntity
  8
1
 62
     8
100
AcDbVertex
100
AcDb2dVertex
 10
-229.9245318215243
 20
-416.7413133446896
 30
761.4030847293799
 42
0.4142135623730951
  0
VERTEX
  5
1C48
330
B56
100
AcDbEntity
  8
1
 62
     8
100
AcDbVertex
100
AcDb2dVertex
 10
-231.9245318215243
 20
-418.7413133446896
 30
761.4030847293799
  0
VERTEX
  5
1C49
330
B56
100
AcDbEntity
  8
1
 62
     8
100
AcDbVertex
100
AcDb2dVertex
 10
-231.9245318215243
 20
-426.7413133446894
 30
761.4030847293799
 42
0.4142135623730951
  0
VERTEX
  5
1C4A
330
B56
100
AcDbEntity
  8
1
 62
     8
100
AcDbVertex
100
AcDb2dVertex
 10
-229.9245318215243
 20
-428.7413133446897
 30
761.4030847293799
  0
VERTEX
  5
1C4B
330
B56
100
AcDbEntity
  8
1
 62
     8
100
AcDbVertex
100
AcDb2dVertex
 10
-214.9245318215246
 20
-428.7413133446897
 30
761.4030847293799
 42
0.4142135623730951
  0
VERTEX
  5
1C4C
330
B56
100
AcDbEntity
  8
1
 62
     8
100
AcDbVertex
100
AcDb2dVertex
 10
-212.9245318215246
 20
-426.7413133446896
 30
761.4030847293799
  0
VERTEX
  5
1C4D
330
B56
100
AcDbEntity
  8
1
 62
     8
100
AcDbVertex
100
AcDb2dVertex
 10
-212.9245318215246
 20
-418.7413133446896
 30
761.4030847293799
 42
0.4142135623730984
  0
SEQEND
  5
1C4E
330
B56
100
AcDbEntity
  8
1
 62
     8
  0
POLYLINE
  5
B57
330
1A
100
AcDbEntity
  8
1
 62
     8
100
AcDb2dPolyline
 66
     1
 10
0.0
 20
0.0
 30
761.40308472938
 70
     1
210
0.0000000000000005
220
0.9205048534524403
230
0.3907311284892737
  0
VERTEX
  5
1C4F
330
B57
100
AcDbEntity
  8
1
 62
     8
100
AcDbVertex
100
AcDb2dVertex
 10
-286.9245318215244
 20
-416.7413133446894
 30
761.40308472938
  0
VERTEX
  5
1C50
330
B57
100
AcDbEntity
  8
1
 62
     8
100
AcDbVertex
100
AcDb2dVertex
 10
-301.9245318215244
 20
-416.7413133446894
 30
761.40308472938
 42
0.4142135623730951
  0
VERTEX
  5
1C51
330
B57
100
AcDbEntity
  8
1
 62
     8
100
AcDbVertex
100
AcDb2dVertex
 10
-303.9245318215244
 20
-418.7413133446898
 30
761.40308472938
  0
VERTEX
  5
1C52
330
B57
100
AcDbEntity
  8
1
 62
     8
100
AcDbVertex
100
AcDb2dVertex
 10
-303.9245318215244
 20
-426.7413133446896
 30
761.40308472938
 42
0.4142135623730951
  0
VERTEX
  5
1C53
330
B57
100
AcDbEntity
  8
1
 62
     8
100
AcDbVertex
100
AcDb2dVertex
 10
-301.9245318215244
 20
-428.7413133446898
 30
761.40308472938
  0
VERTEX
  5
1C54
330
B57
100
AcDbEntity
  8
1
 62
     8
100
AcDbVertex
100
AcDb2dVertex
 10
-286.9245318215246
 20
-428.7413133446897
 30
761.40308472938
 42
0.4142135623730951
  0
VERTEX
  5
1C55
330
B57
100
AcDbEntity
  8
1
 62
     8
100
AcDbVertex
100
AcDb2dVertex
 10
-284.9245318215246
 20
-426.7413133446894
 30
761.40308472938
  0
VERTEX
  5
1C56
330
B57
100
AcDbEntity
  8
1
 62
     8
100
AcDbVertex
100
AcDb2dVertex
 10
-284.9245318215244
 20
-418.7413133446897
 30
761.40308472938
 42
0.4142135623730984
  0
SEQEND
  5
1C57
330
B57
100
AcDbEntity
  8
1
 62
     8
  0
POLYLINE
  5
B58
330
1A
100
AcDbEntity
  8
1
 62
     8
100
AcDb2dPolyline
 66
     1
 10
0.0
 20
0.0
 30
761.4030847293797
 70
     1
210
0.0000000000000005
220
0.9205048534524403
230
0.3907311284892737
  0
VERTEX
  5
1C58
330
B58
100
AcDbEntity
  8
1
 62
     8
100
AcDbVertex
100
AcDb2dVertex
 10
-238.9245318215244
 20
-416.7413133446896
 30
761.4030847293797
  0
VERTEX
  5
1C59
330
B58
100
AcDbEntity
  8
1
 62
     8
100
AcDbVertex
100
AcDb2dVertex
 10
-253.9245318215244
 20
-416.7413133446896
 30
761.4030847293797
 42
0.4142135623730951
  0
VERTEX
  5
1C5A
330
B58
100
AcDbEntity
  8
1
 62
     8
100
AcDbVertex
100
AcDb2dVertex
 10
-255.9245318215244
 20
-418.7413133446896
 30
761.4030847293797
  0
VERTEX
  5
1C5B
330
B58
100
AcDbEntity
  8
1
 62
     8
100
AcDbVertex
100
AcDb2dVertex
 10
-255.9245318215244
 20
-426.7413133446898
 30
761.4030847293797
 42
0.4142135623730951
  0
VERTEX
  5
1C5C
330
B58
100
AcDbEntity
  8
1
 62
     8
100
AcDbVertex
100
AcDb2dVertex
 10
-253.9245318215244
 20
-428.7413133446896
 30
761.4030847293797
  0
VERTEX
  5
1C5D
330
B58
100
AcDbEntity
  8
1
 62
     8
100
AcDbVertex
100
AcDb2dVertex
 10
-238.9245318215245
 20
-428.7413133446897
 30
761.4030847293797
 42
0.4142135623730951
  0
VERTEX
  5
1C5E
330
B58
100
AcDbEntity
  8
1
 62
     8
100
AcDbVertex
100
AcDb2dVertex
 10
-236.9245318215245
 20
-426.74131334469
 30
761.4030847293797
  0
VERTEX
  5
1C5F
330
B58
100
AcDbEntity
  8
1
 62
     8
100
AcDbVertex
100
AcDb2dVertex
 10
-236.9245318215244
 20
-418.7413133446898
 30
761.4030847293797
 42
0.4142135623730984
  0
SEQEND
  5
1C60
330
B58
100
AcDbEntity
  8
1
 62
     8
  0
POLYLINE
  5
B59
330
1A
100
AcDbEntity
  8
1
 62
     8
100
AcDb2dPolyline
 66
     1
 10
0.0
 20
0.0
 30
761.4030847293799
 70
     1
210
0.0000000000000005
220
0.9205048534524403
230
0.3907311284892737
  0
VERTEX
  5
1C61
330
B59
100
AcDbEntity
  8
1
 62
     8
100
AcDbVertex
100
AcDb2dVertex
 10
-262.9245318215243
 20
-416.7413133446896
 30
761.4030847293799
  0
VERTEX
  5
1C62
330
B59
100
AcDbEntity
  8
1
 62
     8
100
AcDbVertex
100
AcDb2dVertex
 10
-277.9245318215243
 20
-416.7413133446896
 30
761.4030847293799
 42
0.4142135623730951
  0
VERTEX
  5
1C63
330
B59
100
AcDbEntity
  8
1
 62
     8
100
AcDbVertex
100
AcDb2dVertex
 10
-279.9245318215243
 20
-418.7413133446896
 30
761.4030847293799
  0
VERTEX
  5
1C64
330
B59
100
AcDbEntity
  8
1
 62
     8
100
AcDbVertex
100
AcDb2dVertex
 10
-279.9245318215243
 20
-426.7413133446892
 30
761.4030847293799
 42
0.4142135623730951
  0
VERTEX
  5
1C65
330
B59
100
AcDbEntity
  8
1
 62
     8
100
AcDbVertex
100
AcDb2dVertex
 10
-277.9245318215243
 20
-428.7413133446896
 30
761.4030847293799
  0
VERTEX
  5
1C66
330
B59
100
AcDbEntity
  8
1
 62
     8
100
AcDbVertex
100
AcDb2dVertex
 10
-262.9245318215246
 20
-428.7413133446896
 30
761.4030847293799
 42
0.4142135623730951
  0
VERTEX
  5
1C67
330
B59
100
AcDbEntity
  8
1
 62
     8
100
AcDbVertex
100
AcDb2dVertex
 10
-260.9245318215246
 20
-426.7413133446892
 30
761.4030847293799
  0
VERTEX
  5
1C68
330
B59
100
AcDbEntity
  8
1
 62
     8
100
AcDbVertex
100
AcDb2dVertex
 10
-260.9245318215243
 20
-418.7413133446896
 30
761.4030847293799
 42
0.4142135623730984
  0
SEQEND
  5
1C69
330
B59
100
AcDbEntity
  8
1
 62
     8
  0
POLYLINE
  5
B5A
330
1A
100
AcDbEntity
  8
1
 62
     8
100
AcDb2dPolyline
 66
     1
 10
0.0
 20
0.0
 30
761.4030847293803
 70
     1
210
0.0000000000000005
220
0.9205048534524403
230
0.3907311284892737
  0
VERTEX
  5
1C6A
330
B5A
100
AcDbEntity
  8
1
 62
     8
100
AcDbVertex
100
AcDb2dVertex
 10
-190.9245318215246
 20
-416.6233136435354
 30
761.4030847293803
  0
VERTEX
  5
1C6B
330
B5A
100
AcDbEntity
  8
1
 62
     8
100
AcDbVertex
100
AcDb2dVertex
 10
-205.9245318215245
 20
-416.6233136435352
 30
761.4030847293803
 42
0.4142135623730951
  0
VERTEX
  5
1C6C
330
B5A
100
AcDbEntity
  8
1
 62
     8
100
AcDbVertex
100
AcDb2dVertex
 10
-207.9245318215245
 20
-418.6233136435346
 30
761.4030847293803
  0
VERTEX
  5
1C6D
330
B5A
100
AcDbEntity
  8
1
 62
     8
100
AcDbVertex
100
AcDb2dVertex
 10
-207.9245318215245
 20
-426.6233136435349
 30
761.4030847293803
 42
0.4142135623730951
  0
VERTEX
  5
1C6E
330
B5A
100
AcDbEntity
  8
1
 62
     8
100
AcDbVertex
100
AcDb2dVertex
 10
-205.9245318215245
 20
-428.6233136435351
 30
761.4030847293803
  0
VERTEX
  5
1C6F
330
B5A
100
AcDbEntity
  8
1
 62
     8
100
AcDbVertex
100
AcDb2dVertex
 10
-190.9245318215246
 20
-428.6233136435352
 30
761.4030847293803
 42
0.4142135623730951
  0
VERTEX
  5
1C70
330
B5A
100
AcDbEntity
  8
1
 62
     8
100
AcDbVertex
100
AcDb2dVertex
 10
-188.9245318215245
 20
-426.623313643535
 30
761.4030847293803
  0
VERTEX
  5
1C71
330
B5A
100
AcDbEntity
  8
1
 62
     8
100
AcDbVertex
100
AcDb2dVertex
 10
-188.9245318215245
 20
-418.6233136435349
 30
761.4030847293803
 42
0.4142135623730984
  0
SEQEND
  5
1C72
330
B5A
100
AcDbEntity
  8
1
 62
     8
  0
ARC
  5
B5B
330
1A
100
AcDbEntity
  8
1
 62
     8
100
AcDbCircle
 10
-347.4245396240528
 20
-426.1447889419051
 30
767.4294298154737
 40
1.0
210
0.0000000000000005
220
0.9205048534524403
230
0.3907311284892737
100
AcDbArc
 50
270.0
 51
90.0
  0
ARC
  5
B5C
330
1A
100
AcDbEntity
  8
1
 62
     8
100
AcDbCircle
 10
-310.4245318215237
 20
-425.144788941906
 30
767.4294298154737
 40
2.0
210
0.0000000000000005
220
0.9205048534524403
230
0.3907311284892737
100
AcDbArc
 50
90.00000000000047
 51
179.9999999999938
  0
ARC
  5
B5D
330
1A
100
AcDbEntity
  8
1
 62
     8
100
AcDbCircle
 10
-310.4245318215237
 20
-419.1447889419061
 30
767.4294298154737
 40
2.0
210
0.0000000000000005
220
0.9205048534524403
230
0.3907311284892737
100
AcDbArc
 50
179.9999999999988
 51
270.0000000000005
  0
ARC
  5
B5F
330
1A
100
AcDbEntity
  8
1
 62
     8
100
AcDbCircle
 10
-310.424531821525
 20
-419.3947889419057
 30
767.4294298154737
 40
2.0
210
0.0000000000000005
220
0.9205048534524403
230
0.3907311284892737
100
AcDbArc
 50
179.9999999999988
 51
270.0000000000005
  0
ARC
  5
B60
330
1A
100
AcDbEntity
  8
1
 62
     8
100
AcDbCircle
 10
-347.4245396240528
 20
-419.1447889419051
 30
767.4294298154737
 40
1.0
210
0.0000000000000005
220
0.9205048534524403
230
0.3907311284892737
100
AcDbArc
 50
270.0
 51
90.0
  0
LINE
  5
B61
330
1A
100
AcDbEntity
  8
1
 62
     8
100
AcDbLine
 10
415.4778896014536
 20
860.2674712008592
 30
-62.577437294829
 11
415.7090118136084
 21
865.4411353003192
 31
-74.76582610351944
210
0.0000000000000005
220
0.9205048534524403
230
0.3907311284892737
  0
LINE
  5
B62
330
1A
100
AcDbEntity
  8
1
 62
     8
100
AcDbLine
 10
419.4154006374255
 20
858.8550180952415
 30
-59.24990630434492
 11
419.708402594234
 21
865.4138585064702
 31
-74.70156600419797
210
0.0000000000000005
220
0.9205048534524403
230
0.3907311284892737
  0
LINE
  5
B63
330
1A
100
AcDbEntity
  8
1
 62
     8
100
AcDbLine
 10
419.7084025942331
 20
859.4138585064701
 30
-74.70156600419763
 11
419.4153977264736
 21
855.8549182611141
 31
-59.24990630434586
  0
LINE
  5
B64
330
1A
100
AcDbEntity
  8
1
 62
     8
100
AcDbLine
 10
419.7084025942331
 20
860.4138585064701
 30
-74.70156600419763
 11
419.4153986486835
 21
856.8549211533444
 31
-59.24990630434582
  0
POLYLINE
  5
B65
330
1A
100
AcDbEntity
  8
1
 62
     8
100
AcDb2dPolyline
 66
     1
 10
0.0
 20
0.0
 30
761.4030847293804
 70
     1
210
0.0000000000000005
220
0.9205048534524403
230
0.3907311284892737
  0
VERTEX
  5
1C73
330
B65
100
AcDbEntity
  8
1
 62
     8
100
AcDbVertex
100
AcDb2dVertex
 10
-286.9245318215246
 20
-393.5053139423812
 30
761.4030847293804
  0
VERTEX
  5
1C74
330
B65
100
AcDbEntity
  8
1
 62
     8
100
AcDbVertex
100
AcDb2dVertex
 10
-301.9245318215246
 20
-393.5053139423812
 30
761.4030847293804
 42
0.4142135623730951
  0
VERTEX
  5
1C75
330
B65
100
AcDbEntity
  8
1
 62
     8
100
AcDbVertex
100
AcDb2dVertex
 10
-303.9245318215246
 20
-395.5053139423812
 30
761.4030847293804
  0
VERTEX
  5
1C76
330
B65
100
AcDbEntity
  8
1
 62
     8
100
AcDbVertex
100
AcDb2dVertex
 10
-303.9245318215246
 20
-403.5053139423808
 30
761.4030847293804
 42
0.4142135623730951
  0
VERTEX
  5
1C77
330
B65
100
AcDbEntity
  8
1
 62
     8
100
AcDbVertex
100
AcDb2dVertex
 10
-301.9245318215246
 20
-405.5053139423812
 30
761.4030847293804
  0
VERTEX
  5
1C78
330
B65
100
AcDbEntity
  8
1
 62
     8
100
AcDbVertex
100
AcDb2dVertex
 10
-286.9245318215248
 20
-405.5053139423812
 30
761.4030847293804
 42
0.4142135623730951
  0
VERTEX
  5
1C79
330
B65
100
AcDbEntity
  8
1
 62
     8
100
AcDbVertex
100
AcDb2dVertex
 10
-284.9245318215248
 20
-403.5053139423808
 30
761.4030847293804
  0
VERTEX
  5
1C7A
330
B65
100
AcDbEntity
  8
1
 62
     8
100
AcDbVertex
100
AcDb2dVertex
 10
-284.9245318215246
 20
-395.5053139423812
 30
761.4030847293804
 42
0.4142135623730984
  0
SEQEND
  5
1C7B
330
B65
100
AcDbEntity
  8
1
 62
     8
  0
POLYLINE
  5
B66
330
1A
100
AcDbEntity
  8
1
 62
     8
100
AcDb2dPolyline
 66
     1
 10
0.0
 20
0.0
 30
761.4030847293803
 70
     1
210
0.0000000000000005
220
0.9205048534524403
230
0.3907311284892737
  0
VERTEX
  5
1C7C
330
B66
100
AcDbEntity
  8
1
 62
     8
100
AcDbVertex
100
AcDb2dVertex
 10
-262.9245318215246
 20
-393.505313942381
 30
761.4030847293803
  0
VERTEX
  5
1C7D
330
B66
100
AcDbEntity
  8
1
 62
     8
100
AcDbVertex
100
AcDb2dVertex
 10
-277.9245318215246
 20
-393.505313942381
 30
761.4030847293803
 42
0.4142135623730951
  0
VERTEX
  5
1C7E
330
B66
100
AcDbEntity
  8
1
 62
     8
100
AcDbVertex
100
AcDb2dVertex
 10
-279.9245318215246
 20
-395.5053139423813
 30
761.4030847293803
  0
VERTEX
  5
1C7F
330
B66
100
AcDbEntity
  8
1
 62
     8
100
AcDbVertex
100
AcDb2dVertex
 10
-279.9245318215246
 20
-403.5053139423811
 30
761.4030847293803
 42
0.4142135623730951
  0
VERTEX
  5
1C80
330
B66
100
AcDbEntity
  8
1
 62
     8
100
AcDbVertex
100
AcDb2dVertex
 10
-277.9245318215246
 20
-405.5053139423814
 30
761.4030847293803
  0
VERTEX
  5
1C81
330
B66
100
AcDbEntity
  8
1
 62
     8
100
AcDbVertex
100
AcDb2dVertex
 10
-262.9245318215248
 20
-405.5053139423814
 30
761.4030847293803
 42
0.4142135623730951
  0
VERTEX
  5
1C82
330
B66
100
AcDbEntity
  8
1
 62
     8
100
AcDbVertex
100
AcDb2dVertex
 10
-260.9245318215248
 20
-403.5053139423811
 30
761.4030847293803
  0
VERTEX
  5
1C83
330
B66
100
AcDbEntity
  8
1
 62
     8
100
AcDbVertex
100
AcDb2dVertex
 10
-260.9245318215246
 20
-395.5053139423814
 30
761.4030847293803
 42
0.4142135623730984
  0
SEQEND
  5
1C84
330
B66
100
AcDbEntity
  8
1
 62
     8
  0
POLYLINE
  5
B67
330
1A
100
AcDbEntity
  8
1
 62
     8
100
AcDb2dPolyline
 66
     1
 10
0.0
 20
0.0
 30
761.4030847293804
 70
     1
210
0.0000000000000005
220
0.9205048534524403
230
0.3907311284892737
  0
VERTEX
  5
1C85
330
B67
100
AcDbEntity
  8
1
 62
     8
100
AcDbVertex
100
AcDb2dVertex
 10
-190.9245318215248
 20
-393.6233136435347
 30
761.4030847293804
  0
VERTEX
  5
1C86
330
B67
100
AcDbEntity
  8
1
 62
     8
100
AcDbVertex
100
AcDb2dVertex
 10
-205.9245318215249
 20
-393.6233136435347
 30
761.4030847293804
 42
0.4142135623730951
  0
VERTEX
  5
1C87
330
B67
100
AcDbEntity
  8
1
 62
     8
100
AcDbVertex
100
AcDb2dVertex
 10
-207.9245318215249
 20
-395.623313643535
 30
761.4030847293804
  0
VERTEX
  5
1C88
330
B67
100
AcDbEntity
  8
1
 62
     8
100
AcDbVertex
100
AcDb2dVertex
 10
-207.9245318215248
 20
-403.6233136435346
 30
761.4030847293804
 42
0.4142135623730951
  0
VERTEX
  5
1C89
330
B67
100
AcDbEntity
  8
1
 62
     8
100
AcDbVertex
100
AcDb2dVertex
 10
-205.9245318215248
 20
-405.6233136435353
 30
761.4030847293804
  0
VERTEX
  5
1C8A
330
B67
100
AcDbEntity
  8
1
 62
     8
100
AcDbVertex
100
AcDb2dVertex
 10
-190.9245318215248
 20
-405.6233136435353
 30
761.4030847293804
 42
0.4142135623730951
  0
VERTEX
  5
1C8B
330
B67
100
AcDbEntity
  8
1
 62
     8
100
AcDbVertex
100
AcDb2dVertex
 10
-188.9245318215248
 20
-403.6233136435352
 30
761.4030847293804
  0
VERTEX
  5
1C8C
330
B67
100
AcDbEntity
  8
1
 62
     8
100
AcDbVertex
100
AcDb2dVertex
 10
-188.9245318215248
 20
-395.6233136435352
 30
761.4030847293804
 42
0.4142135623730984
  0
SEQEND
  5
1C8D
330
B67
100
AcDbEntity
  8
1
 62
     8
  0
LINE
  5
B68
330
1A
100
AcDbEntity
  8
1
 62
     8
100
AcDbLine
 10
347.4245396240526
 20
864.3344642837119
 30
-72.15867257085619
 11
409.362039624053
 21
864.3344642837119
 31
-72.15867257085619
210
0.0000000000000005
220
0.9205048534524403
230
0.3907311284892737
  0
LINE
  5
B69
330
1A
100
AcDbEntity
  8
1
 62
     8
100
AcDbLine
 10
347.4245396240526
 20
865.1159265406903
 30
-73.99968227776096
 11
409.362039624053
 21
865.1159265406903
 31
-73.99968227776096
210
0.0000000000000005
220
0.9205048534524403
230
0.3907311284892737
  0
LINE
  5
B6A
330
1A
100
AcDbEntity
  8
1
 62
     8
100
AcDbLine
 10
347.4245396240526
 20
867.0695821831369
 30
-78.60220654502315
 11
409.674539624053
 21
867.0695821831369
 31
-78.60220654502315
210
0.0000000000000005
220
0.9205048534524403
230
0.3907311284892737
  0
LINE
  5
B6B
330
1A
100
AcDbEntity
  8
1
 62
     8
100
AcDbLine
 10
347.4245396240526
 20
867.8510444401153
 30
-80.44321625192813
 11
409.674539624053
 21
867.8510444401153
 31
-80.44321625192813
210
0.0000000000000005
220
0.9205048534524403
230
0.3907311284892737
  0
ARC
  5
B6C
330
1A
100
AcDbEntity
  8
1
 62
     8
100
AcDbCircle
 10
-409.6745396240534
 20
-412.144788941905
 30
767.4294298154737
 40
1.0
210
0.0000000000000005
220
0.9205048534524403
230
0.3907311284892737
100
AcDbArc
 50
90.0
 51
270.0
  0
ARC
  5
B6D
330
1A
100
AcDbEntity
  8
1
 62
     8
100
AcDbCircle
 10
-409.3620396240535
 20
-405.1447889419049
 30
767.4294298154737
 40
1.0
210
0.0000000000000005
220
0.9205048534524403
230
0.3907311284892737
100
AcDbArc
 50
90.0
 51
270.0
  0
ARC
  5
B6E
330
1A
100
AcDbEntity
  8
1
 62
     8
100
AcDbCircle
 10
-347.4245396240528
 20
-412.1447889419052
 30
767.4294298154737
 40
1.0
210
0.0000000000000005
220
0.9205048534524403
230
0.3907311284892737
100
AcDbArc
 50
270.0
 51
90.0
  0
ARC
  5
B6F
330
1A
100
AcDbEntity
  8
1
 62
     8
100
AcDbCircle
 10
-347.4245396240528
 20
-405.1447889419051
 30
767.4294298154737
 40
1.0
210
0.0000000000000005
220
0.9205048534524403
230
0.3907311284892737
100
AcDbArc
 50
270.0
 51
90.0
  0
LINE
  5
B70
330
1A
100
AcDbEntity
  8
1
 62
     8
100
AcDbLine
 10
347.4245396240526
 20
859.6456907418403
 30
-61.11261432942685
 11
408.7370396240531
 21
859.6456907418403
 31
-61.11261432942685
210
0.0000000000000005
220
0.9205048534524403
230
0.3907311284892737
  0
LINE
  5
B71
330
1A
100
AcDbEntity
  8
1
 62
     8
100
AcDbLine
 10
347.4245396240526
 20
861.5993463842869
 30
-65.71513859668904
 11
409.049539624053
 21
861.5993463842869
 31
-65.71513859668904
210
0.0000000000000005
220
0.9205048534524403
230
0.3907311284892737
  0
LINE
  5
B72
330
1A
100
AcDbEntity
  8
1
 62
     8
100
AcDbLine
 10
347.4245396240526
 20
858.8642284848619
 30
-59.27160462252189
 11
408.7370396240531
 21
858.8642284848619
 31
-59.27160462252189
210
0.0000000000000005
220
0.9205048534524403
230
0.3907311284892737
  0
LINE
  5
B73
330
1A
100
AcDbEntity
  8
1
 62
     8
100
AcDbLine
 10
347.4245396240526
 20
862.3808086412656
 30
-67.55614830359403
 11
409.049539624053
 21
862.3808086412656
 31
-67.55614830359403
210
0.0000000000000005
220
0.9205048534524403
230
0.3907311284892737
  0
ARC
  5
B74
330
1A
100
AcDbEntity
  8
1
 62
     8
100
AcDbCircle
 10
-409.0495396240535
 20
-398.1447889419051
 30
767.4294298154737
 40
1.0
210
0.0000000000000005
220
0.9205048534524403
230
0.3907311284892737
100
AcDbArc
 50
90.0
 51
270.0
  0
ARC
  5
B75
330
1A
100
AcDbEntity
  8
1
 62
     8
100
AcDbCircle
 10
-408.7370396240535
 20
-391.1447889419053
 30
767.4294298154737
 40
1.0
210
0.0000000000000005
220
0.9205048534524403
230
0.3907311284892737
100
AcDbArc
 50
90.0
 51
270.0
  0
ARC
  5
B76
330
1A
100
AcDbEntity
  8
1
 62
     8
100
AcDbCircle
 10
-347.4245396240528
 20
-398.1447889419051
 30
767.4294298154737
 40
1.0
210
0.0000000000000005
220
0.9205048534524403
230
0.3907311284892737
100
AcDbArc
 50
270.0
 51
90.0
  0
ARC
  5
B77
330
1A
100
AcDbEntity
  8
1
 62
     8
100
AcDbCircle
 10
-347.4245396240528
 20
-391.1447889419053
 30
767.4294298154737
 40
1.0
210
0.0000000000000005
220
0.9205048534524403
230
0.3907311284892737
100
AcDbArc
 50
270.0
 51
90.0
  0
LINE
  5
B79
330
1A
100
AcDbEntity
  8
1
 62
     8
100
AcDbLine
 10
175.9245318215257
 20
870.1954312110512
 30
-85.96624537264302
 11
175.9245318215239
 21
859.1572768312294
 31
-59.96198326261215
210
0.0000000000000005
220
0.9205048534524403
230
0.3907311284892737
  0
LINE
  5
B7A
330
1A
100
AcDbEntity
  8
1
 62
     8
100
AcDbLine
 10
175.9245318215271
 20
870.2931139931736
 30
-86.19637158600566
 11
175.9245318215253
 21
859.1572768312293
 31
-59.96198326261084
210
0.0000000000000005
220
0.9205048534524403
230
0.3907311284892737
  0
LINE
  5
B7B
330
1A
100
AcDbEntity
  8
1
 62
     8
100
AcDbLine
 10
175.9245318215239
 20
872.5398179819869
 30
-91.4892744933577
 11
175.9245318215239
 21
876.8378603953689
 31
-101.6148278813343
210
0.0000000000000005
220
0.9205048534524403
230
0.3907311284892737
  0
ARC
  5
B7C
330
1A
100
AcDbEntity
  8
1
 62
     8
100
AcDbCircle
 10
-178.4870614423855
 20
-452.1447889419043
 30
767.4294298154737
 40
12.0
210
0.0000000000000005
220
0.9205048534524403
230
0.3907311284892737
100
AcDbArc
 50
19.61597913540471
 51
90.0
  0
ARC
  5
B7E
330
1A
100
AcDbEntity
  8
1
 62
     8
100
AcDbCircle
 10
-177.9245318215237
 20
-436.1447889419043
 30
767.4294298154737
 40
2.0
210
0.0000000000000005
220
0.9205048534524403
230
0.3907311284892737
100
AcDbArc
 50
270.0000000000005
 51
0.0
  0
ARC
  5
B7F
330
1A
100
AcDbEntity
  8
1
 62
     8
100
AcDbCircle
 10
-177.9245318215237
 20
-425.1447889419042
 30
767.4294298154737
 40
2.0
210
0.0000000000000005
220
0.9205048534524403
230
0.3907311284892737
100
AcDbArc
 50
0.0
 51
90.00000000000047
  0
ARC
  5
B80
330
1A
100
AcDbEntity
  8
1
 62
     8
100
AcDbCircle
 10
-177.9245318215255
 20
-419.1447889419043
 30
767.4294298154737
 40
2.0
210
0.0000000000000005
220
0.9205048534524403
230
0.3907311284892737
100
AcDbArc
 50
270.0000000000005
 51
359.9999999999987
  0
ARC
  5
B82
330
1A
100
AcDbEntity
  8
1
 62
     8
100
AcDbCircle
 10
-177.9245318215268
 20
-419.3947889419038
 30
767.4294298154737
 40
2.0
210
0.0000000000000005
220
0.9205048534524403
230
0.3907311284892737
100
AcDbArc
 50
270.0000000000005
 51
359.9999999999987
  0
LINE
  5
B83
330
1A
100
AcDbEntity
  8
1
 62
     8
100
AcDbLine
 10
168.3553419547074
 20
860.6220466717616
 30
-63.41276475681685
 11
168.1400596319713
 21
865.441135300318
 31
-74.76582610351603
210
0.0000000000000005
220
0.9205048534524403
230
0.3907311284892737
  0
LINE
  5
B84
330
1A
100
AcDbEntity
  8
1
 62
     8
100
AcDbLine
 10
164.4245318215257
 20
859.0595940491079
 30
-59.73185704924983
 11
164.1406688513457
 21
865.41385850647
 31
-74.70156600419615
210
0.0000000000000005
220
0.9205048534524403
230
0.3907311284892737
  0
LINE
  5
BF3
330
1A
100
AcDbEntity
  8
1
 62
     8
100
AcDbLine
 10
183.843030999566
 20
382.178895583097
 30
0.0
 11
234.3129978056444
 21
382.1788955831006
 31
0.0
  0
LINE
  5
BF4
330
1A
100
AcDbEntity
  8
1
 62
     8
100
AcDbLine
 10
182.8490033353941
 20
383.6788955831007
 30
0.0
 11
194.167519861176
 21
383.6788955831007
 31
0.0
  0
LINE
  5
BF8
330
1A
100
AcDbEntity
  8
1
100
AcDbLine
 10
191.5618012351874
 20
377.3392066379081
 30
0.0
 11
186.9017272067126
 21
378.1609034212351
 31
0.0
  0
LINE
  5
BF9
330
1A
100
AcDbEntity
  8
1
100
AcDbLine
 10
182.8490033353941
 20
387.6788955831007
 30
0.0
 11
402.8490033353941
 21
387.6788955831007
 31
0.0
  0
LINE
  5
BFA
330
1A
100
AcDbEntity
  8
1
100
AcDbLine
 10
138.3411926364701
 20
460.1788955831008
 30
0.0
 11
445.3411926364701
 21
460.1788955831008
 31
0.0
  0
LINE
  5
BFB
330
1A
100
AcDbEntity
  8
1
100
AcDbLine
 10
126.8411926364701
 20
405.1788955831007
 30
0.0
 11
456.8411926364701
 21
405.1788955831007
 31
0.0
  0
LINE
  5
BFC
330
1A
100
AcDbEntity
  8
1
 48
0.25
100
AcDbLine
 10
416.896824578931
 20
838.3540960089193
 30
-43.11698143494021
 11
414.4556794779418
 21
816.4336888178935
 31
-8.751149680899985
  0
LINE
  5
BFD
330
1A
100
AcDbEntity
  8
1
 62
     8
100
AcDbLine
 10
414.4848936260823
 20
816.5207363051571
 30
-24.12716443980396
 11
413.8340824083925
 21
836.2474025862651
 31
-39.81419751634565
  0
ARC
  5
C00
330
1A
100
AcDbEntity
  8
1
 62
     8
100
AcDbCircle
 10
-310.424531821525
 20
-372.8947889419067
 30
767.4294298154737
 40
2.0
210
0.0000000000000005
220
0.9205048534524403
230
0.3907311284892737
100
AcDbArc
 50
90.00000000000047
 51
179.9999999999988
  0
LINE
  5
C01
330
1A
100
AcDbEntity
  8
1
 62
     8
100
AcDbLine
 10
347.4245396240526
 20
856.1291105854371
 30
-52.82807064835494
 11
408.4245396240535
 21
856.1291105854371
 31
-52.82807064835494
210
0.0000000000000005
220
0.9205048534524403
230
0.3907311284892737
  0
LINE
  5
C02
330
1A
100
AcDbEntity
  8
1
 62
     8
100
AcDbLine
 10
347.4245396240526
 20
856.9105728424156
 30
-54.66908035525968
 11
408.4245396240535
 21
856.9105728424156
 31
-54.66908035525968
210
0.0000000000000005
220
0.9205048534524403
230
0.3907311284892737
  0
ARC
  5
C03
330
1A
100
AcDbEntity
  8
1
 62
     8
100
AcDbCircle
 10
-408.424539624054
 20
-384.1447889419061
 30
767.4294298154737
 40
1.0
210
0.0000000000000005
220
0.9205048534524403
230
0.3907311284892737
100
AcDbArc
 50
90.0
 51
270.0
  0
ARC
  5
C04
330
1A
100
AcDbEntity
  8
1
 62
     8
100
AcDbCircle
 10
-347.4245396240528
 20
-384.1447889419053
 30
767.4294298154737
 40
1.0
210
0.0000000000000005
220
0.9205048534524403
230
0.3907311284892737
100
AcDbArc
 50
270.0
 51
90.0
  0
LINE
  5
C06
330
1A
100
AcDbEntity
  8
1
 62
     8
100
AcDbLine
 10
194.4245318215252
 20
850.4635092223432
 30
-39.48075027329629
 11
321.9245318215253
 21
850.4635092223429
 31
-39.48075027329538
210
0.0000000000000005
220
0.9205048534524403
230
0.3907311284892737
  0
LINE
  5
C08
330
1A
100
AcDbEntity
  8
1
 62
     8
100
AcDbLine
 10
195.9245318215248
 20
851.3426542614437
 30
-41.55188619356295
 11
310.4245318215248
 21
851.3426542614444
 31
-41.55188619356386
210
0.0000000000000005
220
0.9205048534524403
230
0.3907311284892737
  0
LINE
  5
C09
330
1A
100
AcDbEntity
  8
1
 62
     8
100
AcDbLine
 10
322.4245396240539
 20
850.4635092223423
 30
-39.48075027329446
 11
389.2349887227706
 21
850.4635092223423
 31
-39.48075027329446
210
0.0000000000000005
220
0.9205048534524403
230
0.3907311284892737
  0
LINE
  5
C0A
330
1A
100
AcDbEntity
  8
1
 62
     8
100
AcDbLine
 10
194.4245318215252
 20
847.3376601944291
 30
-32.11671144567664
 11
321.9245318215253
 21
847.3376601944288
 31
-32.11671144567573
210
0.0000000000000005
220
0.9205048534524403
230
0.3907311284892737
  0
LINE
  5
C0B
330
1A
100
AcDbEntity
  8
1
 62
     8
100
AcDbLine
 10
351.0279421467812
 20
831.3375868490199
 30
-32.11671144567589
 11
194.2582912314792
 21
831.3377386688484
 31
-32.11671144567589
  0
LINE
  5
C0C
330
1A
100
AcDbEntity
  8
1
 62
     8
100
AcDbLine
 10
323.5257236637603
 20
844.3375233744797
 30
-32.11671144567589
 11
323.5257236637603
 21
847.3376287726557
 31
-32.11671144567589
  0
LINE
  5
C0D
330
1A
100
AcDbEntity
  8
1
 62
     8
100
AcDbLine
 10
351.0279421467812
 20
832.004321422973
 30
-32.11671144567589
 11
351.0279421467812
 21
824.8617031645922
 31
-32.11671144567589
  0
LINE
  5
C0E
330
1A
100
AcDbEntity
  8
1
 62
     8
100
AcDbLine
 10
358.0279421467812
 20
832.004321422973
 30
-32.11671144567589
 11
358.0279421467812
 21
824.8617031645931
 31
-32.11671144567589
  0
LINE
  5
C0F
330
1A
100
AcDbEntity
  8
1
 62
     8
100
AcDbLine
 10
358.0279421467812
 20
832.004321422973
 30
-32.11671144567589
 11
351.0279421467812
 21
832.004321422973
 31
-32.11671144567589
  0
LINE
  5
C10
330
1A
100
AcDbEntity
  8
1
 62
     8
100
AcDbLine
 10
321.9245318215253
 20
847.7283913229177
 30
-33.03721629912821
 11
322.4245318215253
 21
847.7283913229177
 31
-33.03721629912821
210
0.0000000000000005
220
0.9205048534524403
230
0.3907311284892737
  0
ELLIPSE
  5
C11
330
1A
100
AcDbEntity
  8
1
 62
     8
100
AcDbEllipse
 10
354.5279421467812
 20
824.8617031645931
 30
-32.11671144567589
 11
0.0
 21
-7.142618258379116
 31
0.0
210
0.0
220
0.0
230
1.0
 40
0.4900163880232709
 41
4.712388980384688
 42
7.853981633974482
  0
LINE
  5
C12
330
1A
100
AcDbEntity
  8
1
 62
     8
100
AcDbLine
 10
365.7544275892878
 20
833.5795612898571
 30
-32.11671144567589
 11
194.2583705961515
 21
833.5797273711229
 31
-32.11671144567589
  0
LINE
  5
C13
330
1A
100
AcDbEntity
  8
1
 62
     8
100
AcDbLine
 10
389.4198960655044
 20
844.3375603603666
 30
-32.11671144567589
 11
194.2628545145766
 21
844.3377403356166
 31
-32.11671144567589
  0
LINE
  5
C14
330
1A
100
AcDbEntity
  8
1
 62
     8
100
AcDbLine
 10
389.4198894621199
 20
831.3375486750466
 30
-32.11671144567589
 11
358.0279421467812
 21
831.3375798887634
 31
-32.11671144567589
  0
LINE
  5
C15
330
1A
100
AcDbEntity
  8
1
 62
     8
100
AcDbLine
 10
389.4198916333202
 20
833.5795375586689
 30
-32.11671144567589
 11
358.0279443179815
 21
833.5795687723859
 31
-32.11671144567589
  0
LINE
  5
C16
330
1A
100
AcDbEntity
  8
1
 62
     8
100
AcDbLine
 10
322.4245396240539
 20
847.3376601944288
 30
-32.11671144567505
 11
389.419969782733
 21
847.3376601944288
 31
-32.11671144567505
210
0.0000000000000005
220
0.9205048534524403
230
0.3907311284892737
  0
LINE
  5
C17
330
1A
100
AcDbEntity
  8
1
 62
     8
100
AcDbLine
 10
389.4198914507792
 20
845.3375632526073
 30
-32.11671144567589
 11
194.2564732199202
 21
845.3377573079658
 31
-32.11671144567589
  0
ARC
  5
C18
330
1A
100
AcDbEntity
  8
1
100
AcDbCircle
 10
431.3327647331373
 20
390.6788955831004
 30
0.0
 40
3.0
100
AcDbArc
 50
269.9999999999999
 51
341.9999999999999
  0
LINE
  5
C76
330
1A
100
AcDbEntity
  8
1
 62
     8
100
AcDbLine
 10
391.5304868096122
 20
383.6788955831007
 30
0.0
 11
403.3411926364628
 21
383.6788955831007
 31
0.0
  0
LINE
  5
C7D
330
1A
100
AcDbEntity
  8
1
100
AcDbLine
 10
402.8490033353941
 20
387.6788955831007
 30
0.0
 11
432.0156557358264
 21
387.6788955831007
 31
0.0
  0
ARC
  5
C7E
330
1A
100
AcDbEntity
  8
1
 62
     8
100
AcDbCircle
 10
420.8490033353939
 20
384.1788955831004
 30
0.0
 40
2.0
100
AcDbArc
 50
345.5224878141909
 51
0.0
  0
LINE
  5
C7F
330
1A
100
AcDbEntity
  8
1
 62
     8
100
AcDbLine
 10
422.8490033353941
 20
387.6788955831007
 30
0.0
 11
422.8490033353941
 21
384.1788955831007
 31
0.0
  0
LINE
  5
CA1
330
1A
100
AcDbEntity
  8
1
 62
     8
100
AcDbLine
 10
420.3411926364774
 20
383.678895583108
 30
0.0
 11
422.7854950085006
 21
383.6788955831043
 31
0.0
  0
LINE
  5
CC4
330
1A
100
AcDbEntity
  8
1
 62
     8
100
AcDbLine
 10
399.8393542733815
 20
382.1788955831043
 30
0.0
 11
349.2000396632052
 21
382.1788955831006
 31
0.0
  0
LINE
  5
CC5
330
1A
100
AcDbEntity
  8
1
 62
     8
100
AcDbLine
 10
391.3908037316419
 20
387.6788955831007
 30
0.0
 11
391.5304868096122
 21
383.6788955831007
 31
0.0
  0
ARC
  5
CC6
330
1A
100
AcDbEntity
  8
1
 62
     8
100
AcDbCircle
 10
349.3693874672956
 20
379.1788955831004
 30
0.0
 40
3.0
100
AcDbArc
 50
89.99999999999984
 51
176.9999999999983
  0
LINE
  5
CC7
330
1A
100
AcDbEntity
  8
1
 62
     8
100
AcDbLine
 10
346.3734988630299
 20
379.3359034518297
 30
0.0
 11
345.8411926364701
 21
369.1788955831006
 31
0.0
  0
ARC
  5
CC8
330
1A
100
AcDbEntity
  8
1
 62
     8
100
AcDbCircle
 10
338.3129978056444
 20
379.1788955831004
 30
0.0
 40
3.0
100
AcDbArc
 50
2.999999999997191
 51
90.0
  0
LINE
  5
CC9
330
1A
100
AcDbEntity
  8
1
 62
     8
100
AcDbLine
 10
341.3088864099104
 20
379.335903451826
 30
0.0
 11
341.8411926364701
 21
369.1788955831006
 31
0.0
  0
LINE
  5
CCA
330
1A
100
AcDbEntity
  8
1
 62
     8
100
AcDbLine
 10
341.3646550614632
 20
378.2717741885979
 30
0.0
 11
346.3177302114693
 21
378.2717741885979
 31
0.0
  0
LINE
  5
CCB
330
1A
100
AcDbEntity
  8
1
100
AcDbLine
 10
345.8411926364701
 20
369.1788955831006
 30
0.0
 11
389.3116001206217
 21
376.8439012849416
 31
0.0
  0
LINE
  5
CD5
330
1A
100
AcDbEntity
  8
1
100
AcDbLine
 10
400.3853096247608
 20
383.6788955830569
 30
0.0
 11
399.0787913955778
 21
380.0892662502527
 31
0.0
  0
ARC
  5
CD6
330
1A
100
AcDbEntity
  8
1
100
AcDbCircle
 10
396.2597135332164
 20
381.1153266802291
 30
0.0
 40
3.0
100
AcDbArc
 50
279.9999999999768
 51
339.9999999999772
  0
LINE
  5
CD7
330
1A
100
AcDbEntity
  8
1
100
AcDbLine
 10
389.3116001206217
 20
376.8439069848948
 30
0.0
 11
396.7806580662204
 21
378.1609034211915
 31
0.0
  0
LINE
  5
CD8
330
1A
100
AcDbEntity
  8
1
100
AcDbLine
 10
237.8411926364701
 20
369.1788955831006
 30
0.0
 11
292.8490033353941
 21
369.1788955831006
 31
0.0
  0
LINE
  5
CD9
330
1A
100
AcDbEntity
  8
1
 62
     8
100
AcDbLine
 10
194.307117847986
 20
387.6764588911764
 30
0.0
 11
194.167519861176
 21
383.6788955831007
 31
0.0
  0
ARC
  5
CDA
330
1A
100
AcDbEntity
  8
1
 62
     8
100
AcDbCircle
 10
317.8693874672956
 20
379.1788955831004
 30
0.0
 40
3.0
100
AcDbArc
 50
90.0
 51
176.9999999999983
  0
LINE
  5
CDB
330
1A
100
AcDbEntity
  8
1
 62
     8
100
AcDbLine
 10
314.8734988630299
 20
379.3359034518297
 30
0.0
 11
314.3411926364701
 21
369.1788955831006
 31
0.0
  0
ARC
  5
CDC
330
1A
100
AcDbEntity
  8
1
 62
     8
100
AcDbCircle
 10
306.8129978056442
 20
379.1788955831004
 30
0.0
 40
3.0
100
AcDbArc
 50
3.000000000001667
 51
90.0
  0
LINE
  5
CDD
330
1A
100
AcDbEntity
  8
1
 62
     8
100
AcDbLine
 10
309.8088864099104
 20
379.3359034518297
 30
0.0
 11
310.3411926364701
 21
369.1788955831006
 31
0.0
  0
LINE
  5
CDE
330
1A
100
AcDbEntity
  8
1
 62
     8
100
AcDbLine
 10
276.8693874672956
 20
382.1788955831006
 30
0.0
 11
306.8129978056445
 21
382.1788955831006
 31
0.0
  0
ARC
  5
CDF
330
1A
100
AcDbEntity
  8
1
 62
     8
100
AcDbCircle
 10
276.8693874672956
 20
379.1788955831004
 30
0.0
 40
3.0
100
AcDbArc
 50
90.0
 51
176.999999999998
  0
LINE
  5
CE0
330
1A
100
AcDbEntity
  8
1
 62
     8
100
AcDbLine
 10
273.8734988630298
 20
379.3359034518297
 30
0.0
 11
273.3411926364701
 21
369.1788955831006
 31
0.0
  0
ARC
  5
CE1
330
1A
100
AcDbEntity
  8
1
 62
     8
100
AcDbCircle
 10
265.8129978056444
 20
379.1788955831004
 30
0.0
 40
3.0
100
AcDbArc
 50
3.000000000001667
 51
90.0
  0
LINE
  5
CE2
330
1A
100
AcDbEntity
  8
1
 62
     8
100
AcDbLine
 10
268.8088864099104
 20
379.3359034518297
 30
0.0
 11
269.3411926364701
 21
369.1788955831006
 31
0.0
  0
LINE
  5
CE3
330
1A
100
AcDbEntity
  8
1
 62
     8
100
AcDbLine
 10
245.3693874672956
 20
382.1788955831006
 30
0.0
 11
265.8129978056444
 21
382.1788955831006
 31
0.0
  0
ARC
  5
CE4
330
1A
100
AcDbEntity
  8
1
 62
     8
100
AcDbCircle
 10
245.3693874672956
 20
379.1788955831004
 30
0.0
 40
3.0
100
AcDbArc
 50
90.0
 51
176.9999999999985
  0
LINE
  5
CE5
330
1A
100
AcDbEntity
  8
1
 62
     8
100
AcDbLine
 10
242.3734988630299
 20
379.3359034518297
 30
0.0
 11
241.8411926364701
 21
369.1788955831006
 31
0.0
  0
ARC
  5
CE6
330
1A
100
AcDbEntity
  8
1
 62
     8
100
AcDbCircle
 10
234.3129978056444
 20
379.1788955831004
 30
0.0
 40
3.0
100
AcDbArc
 50
3.000000000001667
 51
90.0
  0
LINE
  5
CE7
330
1A
100
AcDbEntity
  8
1
 62
     8
100
AcDbLine
 10
237.3088864099104
 20
379.3359034518297
 30
0.0
 11
237.8411926364701
 21
369.1788955831006
 31
0.0
  0
LINE
  5
CE8
330
1A
100
AcDbEntity
  8
1
100
AcDbLine
 10
237.8411926364701
 20
369.1788955831006
 30
0.0
 11
200.94606238618
 21
375.6845025029952
 31
0.0
  0
LINE
  5
CE9
330
1A
100
AcDbEntity
  8
1
 62
     8
100
AcDbLine
 10
237.3646550614635
 20
378.2717741885979
 30
0.0
 11
242.3177302114766
 21
378.2717741885979
 31
0.0
  0
LINE
  5
CEA
330
1A
100
AcDbEntity
  8
1
 62
     8
100
AcDbLine
 10
309.8646550614633
 20
378.2717741885979
 30
0.0
 11
314.8177302114766
 21
378.2717741885979
 31
0.0
  0
LINE
  5
CEB
330
1A
100
AcDbEntity
  8
1
 62
     8
100
AcDbLine
 10
268.8646550614635
 20
378.2717741885979
 30
0.0
 11
273.8177302114765
 21
378.2717741885979
 31
0.0
  0
LINE
  5
CF4
330
1A
100
AcDbEntity
  8
1
100
AcDbLine
 10
237.8411926364701
 20
369.1789012831039
 30
0.0
 11
191.5618012351871
 21
377.3392066379179
 31
0.0
  0
LINE
  5
CF5
330
1A
100
AcDbEntity
  8
1
100
AcDbLine
 10
292.8490033353941
 20
369.1788955831006
 30
0.0
 11
345.8411926364701
 21
369.1788955831006
 31
0.0
  0
LINE
  5
CF6
330
1A
100
AcDbEntity
  8
1
 62
     8
100
AcDbLine
 10
317.8693874672958
 20
382.1788955831006
 30
0.0
 11
338.3129978056444
 21
382.1788955831006
 31
0.0
  0
LINE
  5
CF7
330
1A
100
AcDbEntity
  8
1
 48
0.25
100
AcDbLine
 10
311.8411926364722
 20
660.7225625949776
 30
-0.0000000000000142
 11
311.8411926364728
 21
460.1788955831008
 31
0.0
  0
LINE
  5
CF8
330
1A
100
AcDbEntity
  8
1
 48
0.25
100
AcDbLine
 10
271.8411926364683
 20
659.7462379673508
 30
-0.0000000000000142
 11
271.8411926364676
 21
460.1788955831008
 31
0.0
  0
LINE
  5
CF9
330
1A
100
AcDbEntity
  8
1
100
AcDbLine
 10
439.1984870012224
 20
405.1788955831007
 30
0.0
 11
434.185934282023
 21
389.7518445999748
 31
0.0
  0
ARC
  5
CFA
330
1A
100
AcDbEntity
  8
1
100
AcDbCircle
 10
445.3411926364701
 20
448.6788955831041
 30
0.0
 40
11.5
100
AcDbArc
 50
0.0
 51
90.00000000000005
  0
LINE
  5
CFB
330
1A
100
AcDbEntity
  8
1
100
AcDbLine
 10
456.8411926364701
 20
448.6788955831006
 30
0.0
 11
456.8411926364701
 21
405.1788955831007
 31
0.0
  0
LINE
  5
CFC
330
1A
100
AcDbEntity
  8
1
 48
0.25
100
AcDbLine
 10
336.6804596017036
 20
799.2794529932177
 30
-0.0000000000000142
 11
331.8411926364697
 21
752.674502447767
 31
-0.0000000000000142
  0
LINE
  5
CFD
330
1A
100
AcDbEntity
  8
1
 62
     8
100
AcDbLine
 10
318.7804596017026
 20
799.2794529932177
 30
-0.0000000000000142
 11
313.9411926364691
 21
752.674502447767
 31
-0.0000000000000142
  0
LINE
  5
CFE
330
1A
100
AcDbEntity
  8
1
 62
     8
100
AcDbLine
 10
296.8411926364696
 20
739.6745024477674
 30
-0.0000000000000142
 11
296.8411926364719
 21
806.2794481280617
 31
-0.0000000000000142
  0
LINE
  5
CFF
330
1A
100
AcDbEntity
  8
1
 62
     8
100
AcDbLine
 10
295.3411926364697
 20
739.6745024477674
 30
-0.0000000000000142
 11
295.341192636472
 21
806.2794495876151
 31
-0.0000000000000142
  0
LINE
  5
D00
330
1A
100
AcDbEntity
  8
1
 62
     8
100
AcDbLine
 10
292.5911926364697
 20
739.6745024477674
 30
-0.0000000000000142
 11
292.5911926364719
 21
806.2794522634629
 31
-0.0000000000000142
  0
LINE
  5
D01
330
1A
100
AcDbEntity
  8
1
 62
     8
100
AcDbLine
 10
291.0911926364706
 20
739.6745024477674
 30
-0.0000000000000142
 11
291.0911926364706
 21
806.2794537230161
 31
-0.0000000000000142
  0
LINE
  5
D02
330
1A
100
AcDbEntity
  8
1
 62
     8
100
AcDbLine
 10
288.3411926364706
 20
739.6745024477674
 30
-0.0000000000000142
 11
288.3411926364706
 21
806.2794563988639
 31
-0.0000000000000142
  0
LINE
  5
D03
330
1A
100
AcDbEntity
  8
1
 62
     8
100
AcDbLine
 10
286.8411926364696
 20
739.6745024477674
 30
-0.0000000000000142
 11
286.8411926364715
 21
806.2794578584172
 31
-0.0000000000000142
  0
LINE
  5
D04
330
1A
100
AcDbEntity
  8
1
 62
     8
100
AcDbLine
 10
264.9019256712386
 20
799.2794529932177
 30
-0.0000000000000142
 11
269.7411926364702
 21
752.6745024477674
 31
-0.0000000000000142
  0
LINE
  5
D05
330
1A
100
AcDbEntity
  8
1
 48
0.25
100
AcDbLine
 10
247.0019256712403
 20
799.2794529932177
 30
-0.0000000000000142
 11
251.8411926364688
 21
752.6745024477674
 31
-0.0000000000000142
  0
LINE
  5
D06
330
1A
100
AcDbEntity
  8
1
 48
0.25
100
AcDbLine
 10
311.9411926364691
 20
739.6745024477674
 30
-0.0000000000000142
 11
271.7411926364702
 21
739.6745024477674
 31
-0.0000000000000142
  0
ARC
  5
D07
330
1A
100
AcDbEntity
  8
1
 48
0.25
100
AcDbCircle
 10
309.9411926364691
 20
711.6745024477672
 30
-0.0000000000000142
 40
2.0
100
AcDbArc
 50
341.8051276612386
 51
0.0
  0
LINE
  5
D08
330
1A
100
AcDbEntity
  8
1
 48
0.25
100
AcDbLine
 10
311.9411926364691
 20
752.674502447767
 30
-0.0000000000000142
 11
311.9411926364691
 21
711.674502447767
 31
-0.0000000000000142
  0
LINE
  5
D09
330
1A
100
AcDbEntity
  8
1
 48
0.25
100
AcDbLine
 10
314.3411926364697
 20
707.8745024477673
 30
-0.0000000000000142
 11
314.3411926364697
 21
752.6745024477661
 31
-0.0000000000000142
  0
LINE
  5
D0A
330
1A
100
AcDbEntity
  8
1
 48
0.25
100
AcDbLine
 10
333.3411926364687
 20
708.8615176532605
 30
-0.0000000000000142
 11
333.3411926364697
 21
756.8874872422742
 31
-0.0000000000000142
  0
LINE
  5
D0B
330
1A
100
AcDbEntity
  8
1
 62
     8
100
AcDbLine
 10
333.8411926364706
 20
710.3745024477668
 30
-0.0000000000000142
 11
333.8411926364697
 21
755.3745024477673
 31
-0.0000000000000142
  0
LINE
  5
D0C
330
1A
100
AcDbEntity
  8
1
 48
0.25
100
AcDbLine
 10
332.8543459775128
 20
708.3616906935843
 30
-0.0000000000000142
 11
314.3411926364697
 21
707.8745024477673
 31
-0.0000000000000142
  0
ARC
  5
D0D
330
1A
100
AcDbEntity
  8
1
 62
     8
100
AcDbCircle
 10
333.3411926364706
 20
710.3745024477665
 30
-0.0000000000000142
 40
0.5
100
AcDbArc
 50
270.0
 51
0.0
  0
ARC
  5
D0E
330
1A
100
AcDbEntity
  8
1
 48
0.25
100
AcDbCircle
 10
332.8411926364688
 20
708.8615176532603
 30
-0.0000000000000142
 40
0.5
100
AcDbArc
 50
271.5074357587749
 51
0.0
  0
LINE
  5
D0F
330
1A
100
AcDbEntity
  8
1
 48
0.25
100
AcDbLine
 10
331.8411926364697
 20
752.674502447767
 30
-0.0000000000000142
 11
311.9411926364691
 21
752.6745024477665
 31
-0.0000000000000142
  0
ARC
  5
D10
330
1A
100
AcDbEntity
  8
1
 48
0.25
100
AcDbCircle
 10
332.8411926364697
 20
756.8874872422739
 30
-0.0000000000000142
 40
0.5
100
AcDbArc
 50
0.0
 51
88.49256424122506
  0
ARC
  5
D11
330
1A
100
AcDbEntity
  8
1
 62
     8
100
AcDbCircle
 10
333.3411926364697
 20
755.3745024477672
 30
-0.0000000000000142
 40
0.5
100
AcDbArc
 50
0.0
 51
90.0
  0
LINE
  5
D12
330
1A
100
AcDbEntity
  8
1
 48
0.25
100
AcDbLine
 10
332.8543459775137
 20
757.3873142019504
 30
-0.0000000000000142
 11
332.33197906452
 21
757.4010606996607
 31
-0.0000000000000142
  0
LINE
  5
D13
330
1A
100
AcDbEntity
  8
1
 48
0.25
100
AcDbLine
 10
311.8411926364715
 20
739.6745024477674
 30
-0.0000000000000142
 11
311.8411926364722
 21
665.7225625949779
 31
-0.0000000000000142
  0
LINE
  5
D14
330
1A
100
AcDbEntity
  8
1
 48
0.25
100
AcDbLine
 10
271.8411926364688
 20
739.6745024477674
 30
-0.0000000000000142
 11
271.8411926364683
 21
664.7462379673509
 31
-0.0000000000000142
  0
LINE
  5
D15
330
1A
100
AcDbEntity
  8
1
 48
0.25
100
AcDbLine
 10
271.7411926364702
 20
752.674502447767
 30
-0.0000000000000142
 11
271.7411926364702
 21
711.6745024477673
 31
-0.0000000000000142
  0
LINE
  5
D16
330
1A
100
AcDbEntity
  8
1
 62
     8
100
AcDbLine
 10
249.8411926364688
 20
710.3745024477668
 30
-0.0000000000000142
 11
249.8411926364697
 21
755.3745024477673
 31
-0.0000000000000142
  0
LINE
  5
D17
330
1A
100
AcDbEntity
  8
1
 48
0.25
100
AcDbLine
 10
250.3411926364706
 20
708.8615176532605
 30
-0.0000000000000142
 11
250.3411926364697
 21
756.8874872422742
 31
-0.0000000000000142
  0
LINE
  5
D18
330
1A
100
AcDbEntity
  8
1
 48
0.25
100
AcDbLine
 10
269.3411926364697
 20
707.8745024477673
 30
-0.0000000000000142
 11
269.3411926364697
 21
752.6745024477674
 31
-0.0000000000000142
  0
ARC
  5
D19
330
1A
100
AcDbEntity
  8
1
 48
0.25
100
AcDbCircle
 10
273.7411926364702
 20
711.6745024477678
 30
-0.0000000000000142
 40
2.0
100
AcDbArc
 50
180.0
 51
198.1948723388024
  0
ARC
  5
D1A
330
1A
100
AcDbEntity
  8
1
 48
0.25
100
AcDbCircle
 10
250.8411926364706
 20
708.8615176532603
 30
-0.0000000000000142
 40
0.5
100
AcDbArc
 50
180.0
 51
268.492564241225
  0
LINE
  5
D1B
330
1A
100
AcDbEntity
  8
1
 48
0.25
100
AcDbLine
 10
250.8280392954266
 20
708.3616906935843
 30
-0.0000000000000142
 11
269.3411926364697
 21
707.8745024477673
 31
-0.0000000000000142
  0
ARC
  5
D1C
330
1A
100
AcDbEntity
  8
1
 62
     8
100
AcDbCircle
 10
250.3411926364687
 20
710.3745024477665
 30
-0.0000000000000142
 40
0.5
100
AcDbArc
 50
180.0
 51
270.0
  0
LINE
  5
D1D
330
1A
100
AcDbEntity
  8
1
 48
0.25
100
AcDbLine
 10
271.7411926364702
 20
752.6745024477674
 30
-0.0000000000000142
 11
251.8411926364688
 21
752.6745024477674
 31
-0.0000000000000142
  0
ARC
  5
D1E
330
1A
100
AcDbEntity
  8
1
 62
     8
100
AcDbCircle
 10
250.3411926364697
 20
755.3745024477672
 30
-0.0000000000000142
 40
0.5
100
AcDbArc
 50
90.0
 51
180.0
  0
ARC
  5
D1F
330
1A
100
AcDbEntity
  8
1
 48
0.25
100
AcDbCircle
 10
250.8411926364697
 20
756.8874872422739
 30
-0.0000000000000142
 40
0.5
100
AcDbArc
 50
91.50743575877495
 51
180.0
  0
LINE
  5
D20
330
1A
100
AcDbEntity
  8
1
 48
0.25
100
AcDbLine
 10
250.8280392954257
 20
757.3873142019504
 30
-0.0000000000000142
 11
251.3504062084202
 21
757.4010606996607
 31
-0.0000000000000142
  0
SPLINE
  5
D21
330
1A
100
AcDbEntity
  8
1
 62
     8
100
AcDbSpline
210
0.0
220
0.0
230
1.0
 70
     8
 71
     3
 72
    11
 73
     7
 74
     5
 42
0.0000000001
 43
0.0000000001
 44
0.0000000001
 40
0.0
 40
0.0
 40
0.0
 40
0.0
 40
11.1861869112246
 40
23.22700273253214
 40
31.36093216241002
 40
43.09610963621335
 40
43.09610963621335
 40
43.09610963621335
 40
43.09610963621335
 10
271.8411926364678
 20
659.7462379673507
 30
-0.0000000000000142
 10
274.881298153679
 20
661.8190607572279
 30
-0.0000000000000142
 10
281.1937743992349
 20
666.1230707819688
 30
-0.0000000000000142
 10
293.2207680616838
 20
667.9412952437046
 30
-0.0000000000000142
 10
300.488501212012
 20
658.4079921734837
 30
-0.0000000000000142
 10
307.6257563025848
 20
659.8631254899506
 30
-0.0000000000000142
 10
311.8411926364726
 20
660.7225625949779
 30
-0.0000000000000142
 11
271.8411926364678
 21
659.7462379673507
 31
-0.0000000000000142
 11
281.5634279454475
 21
665.2787706793806
 31
-0.0000000000000142
 11
293.5998447709312
 21
665.6042175196834
 31
-0.0000000000000142
 11
300.1060151626692
 21
660.7225625949776
 31
-0.0000000000000142
 11
311.8411926364726
 21
660.7225625949779
 31
-0.0000000000000142
  0
SPLINE
  5
D22
330
1A
100
AcDbEntity
  8
1
 62
     8
100
AcDbSpline
210
0.0
220
0.0
230
1.0
 70
     8
 71
     3
 72
    11
 73
     7
 74
     5
 42
0.0000000001
 43
0.0000000001
 44
0.0000000001
 40
0.0
 40
0.0
 40
0.0
 40
0.0
 40
11.1861869112246
 40
23.22700273253214
 40
31.36093216241002
 40
43.09610963621335
 40
43.09610963621335
 40
43.09610963621335
 40
43.09610963621335
 10
271.8411926364678
 20
664.7462379673506
 30
-0.0000000000000142
 10
274.881298153679
 20
666.8190607572279
 30
-0.0000000000000142
 10
281.1937743992349
 20
671.1230707819687
 30
-0.0000000000000142
 10
293.2207680616838
 20
672.9412952437049
 30
-0.0000000000000142
 10
300.488501212012
 20
663.4079921734838
 30
-0.0000000000000142
 10
307.6257563025848
 20
664.8631254899505
 30
-0.0000000000000142
 10
311.8411926364726
 20
665.7225625949779
 30
-0.0000000000000142
 11
271.8411926364678
 21
664.7462379673506
 31
-0.0000000000000142
 11
281.5634279454475
 21
670.2787706793806
 31
-0.0000000000000142
 11
293.5998447709312
 21
670.6042175196834
 31
-0.0000000000000142
 11
300.1060151626692
 21
665.7225625949777
 31
-0.0000000000000142
 11
311.8411926364726
 21
665.7225625949779
 31
-0.0000000000000142
  0
LINE
  5
D23
330
1A
100
AcDbEntity
  8
1
 48
0.25
100
AcDbLine
 10
356.3411926364706
 20
799.2794529932177
 30
-0.0000000000000142
 11
336.6804596017037
 21
799.2794529932177
 31
-0.0000000000000142
  0
LINE
  5
D24
330
1A
100
AcDbEntity
  8
1
 48
0.25
100
AcDbLine
 10
357.8411926364706
 20
800.7794529932178
 30
-0.0000000000000142
 11
357.8411926364706
 21
803.2793887728923
 31
-0.0000000000000142
  0
ARC
  5
D25
330
1A
100
AcDbEntity
  8
1
 48
0.25
100
AcDbCircle
 10
356.3411926364706
 20
800.7794529932175
 30
-0.0000000000000142
 40
1.5
100
AcDbArc
 50
270.0
 51
0.0
  0
LINE
  5
D26
330
1A
100
AcDbEntity
  8
1
 48
0.25
100
AcDbLine
 10
249.4245318215312
 20
803.279494266159
 30
0.0000000000000426
 11
214.4245318215257
 21
803.2795283224041
 31
0.0000000000000995
  0
LINE
  5
D27
330
1A
100
AcDbEntity
  8
1
 62
     8
100
AcDbLine
 10
281.8411926364706
 20
799.2794529932177
 30
-0.0000000000000142
 11
247.0019256712402
 21
799.2794529932179
 31
-0.0000000000000142
  0
LINE
  5
D28
330
1A
100
AcDbEntity
  8
1
 48
0.25
100
AcDbLine
 10
225.8411926364706
 20
800.7794529932178
 30
-0.0000000000000142
 11
225.8411926364706
 21
803.2795172135871
 31
-0.0000000000000142
  0
ARC
  5
D29
330
1A
100
AcDbEntity
  8
1
 48
0.25
100
AcDbCircle
 10
227.3411926364708
 20
800.7794529932175
 30
-0.0000000000000142
 40
1.5
100
AcDbArc
 50
180.0
 51
270.0
  0
ARC
  5
D2A
330
1A
100
AcDbEntity
  8
1
 62
     8
100
AcDbCircle
 10
281.8411926364706
 20
801.2794529932174
 30
-0.0000000000000142
 40
2.0
100
AcDbArc
 50
270.0
 51
0.0
  0
ARC
  5
D2B
330
1A
100
AcDbEntity
  8
1
 62
     8
100
AcDbCircle
 10
301.8411926364708
 20
801.2794529932174
 30
-0.0000000000000142
 40
2.0
100
AcDbArc
 50
180.0
 51
270.0
  0
LINE
  5
D2C
330
1A
100
AcDbEntity
  8
1
 48
0.25
100
AcDbLine
 10
384.7250822079963
 20
806.2793626139111
 30
-0.0000000000001279
 11
198.9573030649448
 21
806.2795433725678
 31
0.0000000000001279
  0
LINE
  5
D2D
330
1A
100
AcDbEntity
  8
1
 48
0.25
100
AcDbLine
 10
369.4245318215271
 20
803.2793775018911
 30
-0.0000000000000995
 11
334.4245318215212
 21
803.2794115581358
 31
-0.0000000000000426
  0
LINE
  5
D2E
330
1A
100
AcDbEntity
  8
1
 48
0.25
100
AcDbLine
 10
166.95223906412
 20
838.3540960089188
 30
-43.11698143494021
 11
169.3933841651096
 21
816.4336888178921
 31
-8.751149680898732
  0
LINE
  5
D2F
330
1A
100
AcDbEntity
  8
1
 62
     8
100
AcDbLine
 10
169.3641700169687
 20
816.5207363051573
 30
-24.12716443980393
 11
170.0149812346585
 21
836.2474025862644
 31
-39.81419751634565
  0
ARC
  5
D30
330
1A
100
AcDbEntity
  8
1
100
AcDbCircle
 10
152.3496205398028
 20
390.6788955831006
 30
0.0
 40
3.0
100
AcDbArc
 50
198.0000000000001
 51
270.0
  0
LINE
  5
D31
330
1A
100
AcDbEntity
  8
1
100
AcDbLine
 10
171.8411926364701
 20
357.9289728060729
 30
0.0
 11
171.8411926364701
 21
390.9472567543862
 31
0.0
  0
LINE
  5
D36
330
1A
100
AcDbEntity
  8
1
100
AcDbLine
 10
152.3496205398028
 20
387.6788955831007
 30
0.0
 11
182.8490033353941
 21
387.6788955831007
 31
0.0
  0
LINE
  5
D37
330
1A
100
AcDbEntity
  8
1
100
AcDbLine
 10
180.3411926364701
 20
383.678895583097
 30
0.0
 11
182.8490033353941
 21
383.6788955831007
 31
0.0
  0
LINE
  5
D5A
330
1A
100
AcDbEntity
  8
1
 62
     8
100
AcDbLine
 10
163.3411926364628
 20
383.678895583108
 30
0.0
 11
160.8968902644396
 21
383.6788955831043
 31
0.0
  0
ARC
  5
D5B
330
1A
100
AcDbEntity
  8
1
 62
     8
100
AcDbCircle
 10
162.8333819375461
 20
384.1788955831007
 30
0.0
 40
2.0
100
AcDbArc
 50
180.0
 51
194.4775121858089
  0
LINE
  5
D5C
330
1A
100
AcDbEntity
  8
1
 62
     8
100
AcDbLine
 10
160.8333819375461
 20
387.6788955831007
 30
0.0
 11
160.8333819375461
 21
384.1788955831007
 31
0.0
  0
LINE
  5
D5D
330
1A
100
AcDbEntity
  8
1
100
AcDbLine
 10
152.3496205398028
 20
387.6789012831039
 30
0.0
 11
181.8411926364701
 21
387.6789012831039
 31
0.0
  0
LINE
  5
D5E
330
1A
100
AcDbEntity
  8
1
100
AcDbLine
 10
183.2970756481722
 20
383.6788955831007
 30
0.0
 11
184.603593877355
 21
380.0892662502964
 31
0.0
  0
ARC
  5
D5F
330
1A
100
AcDbEntity
  8
1
100
AcDbCircle
 10
187.4226717397164
 20
381.1153266802729
 30
0.0
 40
3.0
100
AcDbArc
 50
199.9999999999995
 51
260.0
  0
LINE
  5
D60
330
1A
100
AcDbEntity
  8
1
100
AcDbLine
 10
144.4838982717105
 20
405.1788955831007
 30
0.0
 11
149.4964509909173
 21
389.7518445999748
 31
0.0
  0
LINE
  5
D61
330
1A
100
AcDbEntity
  8
1
100
AcDbLine
 10
126.8411926364701
 20
448.6788955831006
 30
0.0
 11
126.8411926364701
 21
405.1788955831007
 31
0.0
  0
ARC
  5
D62
330
1A
100
AcDbEntity
  8
1
100
AcDbCircle
 10
138.3411926364701
 20
448.6788955831043
 30
0.0
 40
11.5
100
AcDbArc
 50
90.00000000000005
 51
179.9999999999999
  0
DIMENSION
  5
10F3
330
1A
100
AcDbEntity
  8
MEASURE
100
AcDbDimension
  2
*D5
 10
411.8411926364701
 20
280.5841310719578
 30
0.0
 11
291.8411926364701
 21
290.0841310719578
 31
0.0
 70
    32
  3
AD-STANDARD
100
AcDbAlignedDimension
 13
171.8411926364701
 23
357.9289728060729
 33
0.0
 14
411.8411926364701
 24
357.9289728060729
 34
0.0
100
AcDbRotatedDimension
1001
ACAD
1000
DSTYLE
1002
{
1070
   287
1070
     1
1070
   287
1070
     1
1070
    40
1040
5.0
1070
   140
1040
2.799999999999998
1070
   271
1070
     8
1070
   272
1070
     8
1070
   289
1070
     1
1002
}
  0
DIMENSION
  5
1100
330
1A
100
AcDbEntity
  8
MEASURE
100
AcDbDimension
  2
*D6
 10
1179.64747010673
 20
547.4850142728509
 30
0.0
 11
967.6474701067311
 21
556.9850142728508
 31
0.0
 70
    32
  3
AD-STANDARD
100
AcDbAlignedDimension
 13
755.6474701067314
 23
448.678895583097
 33
0.0
 14
1179.64747010673
 24
448.678895583097
 34
0.0
100
AcDbRotatedDimension
1001
ACAD
1000
DSTYLE
1002
{
1070
   287
1070
     1
1070
   287
1070
     1
1070
    40
1040
5.0
1070
   140
1040
2.799999999999998
1070
   271
1070
     8
1070
   272
1070
     8
1070
   289
1070
     1
1002
}
  0
DIMENSION
  5
11A6
330
1A
100
AcDbEntity
  8
MEASURE
100
AcDbDimension
  2
*D7
 10
755.6474701067387
 20
280.5841310719579
 30
0.0
 11
778.1474701067386
 21
290.0841310719579
 31
0.0
 70
    32
  3
AD-STANDARD
100
AcDbAlignedDimension
 13
800.6474701067386
 23
360.6788955830912
 33
0.0
 14
755.6474701067387
 24
405.1788955831007
 34
0.0
100
AcDbRotatedDimension
1001
ACAD
1000
DSTYLE
1002
{
1070
   287
1070
     1
1070
   287
1070
     1
1070
    40
1040
5.0
1070
   140
1040
2.799999999999998
1070
   271
1070
     8
1070
   272
1070
     8
1070
   289
1070
     1
1002
}
  0
DIMENSION
  5
11B3
330
1A
100
AcDbEntity
  8
MEASURE
100
AcDbDimension
  2
*D8
 10
1134.647470106745
 20
280.5841310719579
 30
0.0
 11
967.6474701067418
 21
290.0841310719579
 31
0.0
 70
    32
  3
AD-STANDARD
100
AcDbAlignedDimension
 13
800.6474701067386
 23
355.6788955830912
 33
0.0
 14
1134.647470106745
 24
360.6788955830912
 34
0.0
100
AcDbRotatedDimension
1001
ACAD
1000
DSTYLE
1002
{
1070
   287
1070
     1
1070
   287
1070
     1
1070
    40
1040
5.0
1070
   140
1040
2.799999999999998
1070
   271
1070
     8
1070
   272
1070
     8
1070
   289
1070
     1
1002
}
  0
DIMENSION
  5
11CD
330
1A
100
AcDbEntity
  8
MEASURE
100
AcDbDimension
  2
*D9
 10
1325.647470106745
 20
280.5841310719579
 30
0.0
 11
1230.147470106745
 21
290.0841310719579
 31
0.0
 70
    32
  3
AD-STANDARD
100
AcDbAlignedDimension
 13
1134.647470106745
 23
360.6788955830912
 33
0.0
 14
1325.647470106745
 24
360.6788955830912
 34
0.0
100
AcDbRotatedDimension
1001
ACAD
1000
DSTYLE
1002
{
1070
   287
1070
     1
1070
   287
1070
     1
1070
    40
1040
5.0
1070
   140
1040
2.799999999999998
1070
   271
1070
     8
1070
   272
1070
     8
1070
   289
1070
     1
1002
}
  0
DIMENSION
  5
11F2
330
1A
100
AcDbEntity
  8
MEASURE
100
AcDbDimension
  2
*D10
 10
456.8411926364701
 20
250.3404445202913
 30
0.0
 11
291.84119263647
 21
259.8404445202914
 31
0.0
 70
    32
  3
AD-STANDARD
100
AcDbAlignedDimension
 13
126.84119263647
 23
405.1788955831007
 33
0.0
 14
456.8411926364701
 24
405.1788955831007
 34
0.0
100
AcDbRotatedDimension
1001
ACAD
1000
DSTYLE
1002
{
1070
   287
1070
     1
1070
   287
1070
     1
1070
    40
1040
5.0
1070
   140
1040
2.799999999999998
1070
   271
1070
     8
1070
   272
1070
     8
1070
   289
1070
     1
1002
}
  0
LINE
  5
1681
330
1A
100
AcDbEntity
  8
1
 62
     8
100
AcDbLine
 10
1260.488044624699
 20
868.0056945527315
 30
0.0
 11
1258.65070624954
 21
867.2156390514096
 31
0.0
  0
ARC
  5
1682
330
1A
100
AcDbEntity
  8
1
 62
     8
100
AcDbCircle
 10
1259.56937543712
 20
867.6106668020704
 30
0.0
 40
1.0
100
AcDbArc
 50
23.26770481015198
 51
203.267704810152
  0
LINE
  5
1684
330
1A
100
AcDbEntity
  8
1
 62
     8
100
AcDbLine
 10
1233.954627207469
 20
833.7371715358948
 30
0.0
 11
1303.90840986228
 21
863.8172980774761
 31
0.0
  0
LINE
  5
1685
330
1A
100
AcDbEntity
  8
1
100
AcDbLine
 10
1238.866581942278
 20
831.4951875904077
 30
0.0
 11
1308.095614645373
 21
861.2636716527518
 31
0.0
  0
LINE
  5
1686
330
1A
100
AcDbEntity
  8
1
100
AcDbLine
 10
1346.475619705462
 20
904.9803518376259
 30
0.0
 11
1246.028360086005
 21
861.7880302010613
 31
0.0
  0
ARC
  5
1688
330
1A
100
AcDbEntity
  8
1
100
AcDbCircle
 10
1266.758483098203
 20
816.2794529932645
 30
0.0
 40
10.0
100
AcDbArc
 50
212.1483639605936
 51
270.0
  0
LINE
  5
1689
330
1A
100
AcDbEntity
  8
1
 62
     8
100
AcDbLine
 10
1376.663089209339
 20
904.8985902799831
 30
0.0
 11
1229.676019196539
 21
841.6941501744663
 31
0.0
  0
LINE
  5
168B
330
1A
100
AcDbEntity
  8
1
100
AcDbLine
 10
1336.646422968374
 20
374.1788836764522
 30
0.0
 11
1165.875612493686
 21
374.1788836764522
 31
0.0
  0
LINE
  5
168C
330
1A
100
AcDbEntity
  8
1
100
AcDbLine
 10
1210.632827323104
 20
392.5396120740503
 30
0.0
 11
1297.001525468375
 21
408.2428790764521
 31
0.0
  0
LINE
  5
168D
330
1A
100
AcDbEntity
  8
1
 62
     8
100
AcDbLine
 10
1254.057360311644
 20
865.2405002981051
 30
0.0
 11
1252.220021936484
 21
864.4504447967829
 31
0.0
  0
ARC
  5
168E
330
1A
100
AcDbEntity
  8
1
 62
     8
100
AcDbCircle
 10
1253.138691124063
 20
864.845472547444
 30
0.0
 40
1.0
100
AcDbArc
 50
23.26770481015198
 51
203.267704810152
  0
LINE
  5
168F
330
1A
100
AcDbEntity
  8
1
 62
     8
100
AcDbLine
 10
1247.626675998587
 20
862.475306043478
 30
0.0
 11
1245.789337623428
 21
861.6852505421563
 31
0.0
  0
ARC
  5
1690
330
1A
100
AcDbEntity
  8
1
 62
     8
100
AcDbCircle
 10
1246.708006811008
 20
862.0802782928169
 30
0.0
 40
1.0
100
AcDbArc
 50
23.26770481015198
 51
203.267704810152
  0
ARC
  5
1691
330
1A
100
AcDbEntity
  8
1
100
AcDbCircle
 10
1238.471554191617
 20
832.4138567779883
 30
0.0
 40
1.0
100
AcDbArc
 50
248.2677048101243
 51
293.2677048100719
  0
ARC
  5
1692
330
1A
100
AcDbEntity
  8
1
100
AcDbCircle
 10
1235.073217537912
 20
833.7684385210689
 30
0.0
 40
1.0
100
AcDbArc
 50
208.2677048100713
 51
248.2677048101231
  0
LINE
  5
1693
330
1A
100
AcDbEntity
  8
1
100
AcDbLine
 10
1238.101283780662
 20
831.4849327645339
 30
0.0
 11
1234.702947126955
 21
832.8395145076143
 31
0.0
  0
LINE
  5
1695
330
1A
100
AcDbEntity
  8
1
100
AcDbLine
 10
1229.67601919654
 20
841.6941501744654
 30
0.0
 11
1234.192473100959
 21
833.2948466748792
 31
0.0
  0
ARC
  5
1696
330
1A
100
AcDbEntity
  8
1
100
AcDbCircle
 10
1233.060592676834
 20
855.1233590947328
 30
0.0
 40
1.0
100
AcDbArc
 50
113.2677048101579
 51
158.2677048101781
  0
LINE
  5
1697
330
1A
100
AcDbEntity
  8
1
100
AcDbLine
 10
1246.028360086003
 20
861.7880302010648
 30
0.0
 11
1232.665564926175
 21
856.0420282823114
 31
0.0
  0
LINE
  5
1699
330
1A
100
AcDbEntity
  8
1
 62
     8
100
AcDbLine
 10
1230.38339447107
 20
843.0868526626204
 30
0.0
 11
1230.778422221641
 21
842.1681834752604
 31
0.0
  0
LINE
  5
169A
330
1A
100
AcDbEntity
  8
1
 62
     8
100
AcDbLine
 10
1376.268061454142
 20
905.8172594759982
 30
0.0
 11
1351.923327984685
 21
895.3490240823532
 31
0.0
  0
ARC
  5
169B
330
1A
100
AcDbEntity
  8
1
100
AcDbCircle
 10
1229.310214805809
 20
845.7145163656139
 30
0.0
 40
1.0
100
AcDbArc
 50
158.2677048101811
 51
198.2677048101145
  0
LINE
  5
169C
330
1A
100
AcDbEntity
  8
1
100
AcDbLine
 10
1229.280991446001
 20
842.6128193617591
 30
0.0
 11
1228.360612494826
 21
845.4010591101894
 31
0.0
  0
LINE
  5
169D
330
1A
100
AcDbEntity
  8
1
 62
     8
100
AcDbLine
 10
1230.388879262345
 20
843.0702367751944
 30
0.0
 11
1230.383394471076
 21
843.0868526626088
 31
0.0
  0
LINE
  5
169E
330
1A
100
AcDbEntity
  8
1
100
AcDbLine
 10
1232.13166866338
 20
855.4936295056872
 30
0.0
 11
1228.381290792355
 21
846.0847867765684
 31
0.0
  0
LINE
  5
16A0
330
1A
100
AcDbEntity
  8
1
100
AcDbLine
 10
1243.998071830909
 20
833.7017282425199
 30
0.0
 11
1258.291752492231
 21
810.9583184482673
 31
0.0
  0
LINE
  5
16A1
330
1A
100
AcDbEntity
  8
1
100
AcDbLine
 10
1287.647475768375
 20
611.2401382349677
 30
0.0
 11
1287.647475768375
 21
457.1788836764522
 31
0.0
  0
LINE
  5
16A2
330
1A
100
AcDbEntity
  8
1
100
AcDbLine
 10
1327.647475768375
 20
622.127438722943
 30
0.0
 11
1327.647475768375
 21
457.1788836764526
 31
0.0
  0
ARC
  5
16A5
330
1A
100
AcDbEntity
  8
1
100
AcDbCircle
 10
1331.925536668374
 20
454.1788836764522
 30
0.0
 40
3.0
100
AcDbArc
 50
1.999511700001109
 51
90.0
  0
LINE
  5
16A6
330
1A
100
AcDbEntity
  8
1
100
AcDbLine
 10
1339.447417768374
 20
410.1788836764522
 30
0.0
 11
1318.467406868375
 21
410.1788836764522
 31
0.0
  0
LINE
  5
16A7
330
1A
100
AcDbEntity
  8
1
100
AcDbLine
 10
1336.463409068375
 20
410.1788836764522
 30
0.0
 11
1334.923522568374
 21
454.2838946764524
 31
0.0
  0
ARC
  5
16A8
330
1A
100
AcDbEntity
  8
1
100
AcDbCircle
 10
1283.369414868375
 20
454.1788836764522
 30
0.0
 40
3.0
100
AcDbArc
 50
90.0
 51
178.0004882999989
  0
ARC
  5
16A9
330
1A
100
AcDbEntity
  8
1
100
AcDbCircle
 10
1318.467406868375
 20
290.1788836764523
 30
0.0
 40
120.0
100
AcDbArc
 50
90.0
 51
100.3048096000032
  0
LINE
  5
16AA
330
1A
100
AcDbEntity
  8
1
100
AcDbLine
 10
1331.925536668374
 20
457.1788836764522
 30
0.0
 11
1283.369414868375
 21
457.1788836764522
 31
0.0
  0
ARC
  5
16AB
330
1A
100
AcDbEntity
  8
1
100
AcDbCircle
 10
1347.307433668375
 20
374.1788836764522
 30
0.0
 40
10.66046999999999
100
AcDbArc
 50
130.5495911000029
 51
180.0
  0
LINE
  5
16AC
330
1A
100
AcDbEntity
  8
1
100
AcDbLine
 10
1339.447417768374
 20
410.1788836764522
 30
0.0
 11
1340.380431768374
 21
382.1788836764522
 31
0.0
  0
LINE
  5
16AD
330
1A
100
AcDbEntity
  8
1
100
AcDbLine
 10
1278.647521568375
 20
404.9059955764524
 30
0.0
 11
1280.371520568374
 21
454.2838946764524
 31
0.0
  0
LINE
  5
16AE
330
1A
100
AcDbEntity
  8
1
 62
     8
100
AcDbLine
 10
1339.628921989974
 20
801.1747810807532
 30
0.0
 11
1335.599008607667
 21
724.2794529932393
 31
0.0
  0
LINE
  5
16AF
330
1A
100
AcDbEntity
  8
1
100
AcDbLine
 10
1340.490252430525
 20
803.2794529932454
 30
0.0
 11
1336.389343701628
 21
725.0294529932392
 31
0.0
  0
CIRCLE
  5
16B0
330
1A
100
AcDbEntity
  8
1
 62
     8
100
AcDbCircle
 10
1307.647475768375
 20
741.2794772559805
 30
0.0
 40
23.0
  0
CIRCLE
  5
16B1
330
1A
100
AcDbEntity
  8
1
 62
     8
100
AcDbCircle
 10
1307.647475768375
 20
741.2794772559805
 30
0.0
 40
24.5
  0
CIRCLE
  5
16B2
330
1A
100
AcDbEntity
  8
1
100
AcDbCircle
 10
1307.647475768375
 20
741.2794772559805
 30
0.0
 40
25.0
  0
SPLINE
  5
16B3
330
1A
100
AcDbEntity
  8
1
 62
     8
100
AcDbSpline
210
0.0
220
0.0
230
1.0
 70
     8
 71
     3
 72
    11
 73
     7
 74
     5
 42
0.0000000001
 43
0.0000000001
 44
0.0000000001
 40
0.0
 40
0.0
 40
0.0
 40
0.0
 40
13.43216614429899
 40
28.73723501832199
 40
42.04537364079054
 40
57.14867580187379
 40
57.14867580187379
 40
57.14867580187379
 40
57.14867580187379
 10
1287.647475768375
 20
616.2401382349685
 30
0.0
 10
1288.813556382092
 20
621.4084497301814
 30
0.0
 10
1291.308309074004
 20
632.4657118642467
 30
0.0
 10
1308.740324930986
 20
626.7059519300803
 30
0.0
 10
1318.329929155994
 20
610.0980810803057
 30
0.0
 10
1324.413497756237
 20
621.2168089758449
 30
0.0
 10
1327.647475768375
 20
627.1274387229437
 30
0.0
 11
1287.647475768375
 21
616.2401382349685
 31
0.0
 11
1293.203690144399
 21
628.4692661325623
 31
0.0
 11
1307.969888912659
 21
624.4437839037051
 31
0.0
 11
1317.903511226828
 21
615.587729403292
 31
0.0
 11
1327.647475768375
 21
627.1274387229437
 31
0.0
  0
SPLINE
  5
16B4
330
1A
100
AcDbEntity
  8
1
 62
     8
100
AcDbSpline
210
0.0
220
0.0
230
1.0
 70
     8
 71
     3
 72
    11
 73
     7
 74
     5
 42
0.0000000001
 43
0.0000000001
 44
0.0000000001
 40
0.0
 40
0.0
 40
0.0
 40
0.0
 40
13.43216614429889
 40
28.73723501832191
 40
42.04537364079039
 40
57.14867580187364
 40
57.14867580187364
 40
57.14867580187364
 40
57.14867580187364
 10
1287.647475768375
 20
611.2401382349686
 30
0.0
 10
1288.813556382092
 20
616.4084497301815
 30
0.0
 10
1291.308309074004
 20
627.4657118642468
 30
0.0
 10
1308.740324930986
 20
621.7059519300801
 30
0.0
 10
1318.329929155994
 20
605.0980810803057
 30
0.0
 10
1324.413497756237
 20
616.216808975845
 30
0.0
 10
1327.647475768375
 20
622.1274387229438
 30
0.0
 11
1287.647475768375
 21
611.2401382349686
 31
0.0
 11
1293.203690144399
 21
623.4692661325623
 31
0.0
 11
1307.969888912659
 21
619.443783903705
 31
0.0
 11
1317.903511226828
 21
610.5877294032921
 31
0.0
 11
1327.647475768375
 21
622.1274387229438
 31
0.0
  0
LINE
  5
16B5
330
1A
100
AcDbEntity
  8
1
100
AcDbLine
 10
1336.389343701628
 20
725.029452993239
 30
0.0
 11
1335.599008607666
 21
724.2794529932393
 31
0.0
  0
LINE
  5
16B6
330
1A
100
AcDbEntity
  8
1
100
AcDbLine
 10
1335.599008607666
 20
724.2794529932393
 30
0.0
 11
1325.97775604627
 21
724.2794529932393
 31
0.0
  0
LINE
  5
16B7
330
1A
100
AcDbEntity
  8
1
100
AcDbLine
 10
1287.647475768375
 20
726.2794772559804
 30
0.0
 11
1287.647475768375
 21
616.2401382349677
 31
0.0
  0
LINE
  5
16B8
330
1A
100
AcDbEntity
  8
1
100
AcDbLine
 10
1327.647475768375
 20
724.2794529932393
 30
0.0
 11
1327.647475768375
 21
627.1274387229431
 31
0.0
  0
LINE
  5
16B9
330
1A
100
AcDbEntity
  8
1
100
AcDbLine
 10
1372.821058408251
 20
889.095612470791
 30
0.0
 11
1377.172460125517
 21
890.9667152092163
 31
0.0
  0
LINE
  5
16BA
330
1A
100
AcDbEntity
  8
1
100
AcDbLine
 10
1377.205104030011
 20
890.98075208815
 30
0.0
 11
1371.625732824155
 21
824.6042327100319
 31
0.0
  0
LINE
  5
16BB
330
1A
100
AcDbEntity
  8
1
 62
     8
100
AcDbLine
 10
1373.848041186072
 20
893.8913395467197
 30
0.0
 11
1379.494980710276
 21
896.3195235421279
 31
0.0
  0
ARC
  5
16BD
330
1A
100
AcDbEntity
  8
1
100
AcDbCircle
 10
1329.397559508349
 20
900.9023793140103
 30
0.0
 40
45.0
100
AcDbArc
 50
235.498657445557
 51
351.0367521745756
  0
ARC
  5
16BE
330
1A
100
AcDbEntity
  8
1
 62
     8
100
AcDbCircle
 10
1298.153481315454
 20
884.2018323298292
 30
0.0
 40
1.0
100
AcDbArc
 50
23.26770481015198
 51
203.267704810152
  0
LINE
  5
16BF
330
1A
100
AcDbEntity
  8
1
 62
     8
100
AcDbLine
 10
1299.072150503033
 20
884.5968600804903
 30
0.0
 11
1297.234812127874
 21
883.8068045791688
 31
0.0
  0
LINE
  5
16C0
330
1A
100
AcDbEntity
  8
1
 62
     8
100
AcDbLine
 10
1292.641466189978
 20
881.8316658258639
 30
0.0
 11
1290.804127814819
 21
881.0416103245419
 31
0.0
  0
ARC
  5
16C1
330
1A
100
AcDbEntity
  8
1
 62
     8
100
AcDbCircle
 10
1291.722797002398
 20
881.4366380752028
 30
0.0
 40
1.0
100
AcDbArc
 50
23.26770481015198
 51
203.267704810152
  0
LINE
  5
16C2
330
1A
100
AcDbEntity
  8
1
 62
     8
100
AcDbLine
 10
1286.210781876921
 20
879.0664715712374
 30
0.0
 11
1284.373443501763
 21
878.2764160699155
 31
0.0
  0
ARC
  5
16C3
330
1A
100
AcDbEntity
  8
1
 62
     8
100
AcDbCircle
 10
1285.292112689342
 20
878.6714438205763
 30
0.0
 40
1.0
100
AcDbArc
 50
23.26770481015198
 51
203.267704810152
  0
LINE
  5
16C4
330
1A
100
AcDbEntity
  8
1
 62
     8
100
AcDbLine
 10
1279.780097563867
 20
876.3012773166112
 30
0.0
 11
1277.942759188708
 21
875.5112218152893
 31
0.0
  0
LINE
  5
16C5
330
1A
100
AcDbEntity
  8
1
 62
     8
100
AcDbLine
 10
1266.918728937755
 20
870.7708888073581
 30
0.0
 11
1265.081390562595
 21
869.9808333060358
 31
0.0
  0
ARC
  5
16C6
330
1A
100
AcDbEntity
  8
1
 62
     8
100
AcDbCircle
 10
1266.000059750176
 20
870.3758610566969
 30
0.0
 40
1.0
100
AcDbArc
 50
23.26770481015198
 51
203.267704810152
  0
LINE
  5
16C7
330
1A
100
AcDbEntity
  8
1
 62
     8
100
AcDbLine
 10
1273.34941325081
 20
873.5360830619844
 30
0.0
 11
1271.512074875652
 21
872.7460275606626
 31
0.0
  0
ARC
  5
16C8
330
1A
100
AcDbEntity
  8
1
 62
     8
100
AcDbCircle
 10
1272.430744063232
 20
873.1410553113233
 30
0.0
 40
1.0
100
AcDbArc
 50
23.26770481015198
 51
203.267704810152
  0
ARC
  5
16C9
330
1A
100
AcDbEntity
  8
1
 62
     8
100
AcDbCircle
 10
1278.861428376287
 20
875.9062495659499
 30
0.0
 40
1.0
100
AcDbArc
 50
23.26770481015198
 51
203.267704810152
  0
LINE
  5
16CA
330
1A
100
AcDbEntity
  8
1
 62
     8
100
AcDbLine
 10
1274.950965145933
 20
842.2794529932627
 30
-0.0000000000000002
 11
1274.950965145933
 21
811.2794529932633
 31
0.0000000000000107
  0
LINE
  5
16CB
330
1A
100
AcDbEntity
  8
1
 62
     8
100
AcDbLine
 10
1274.804737326748
 20
811.2794529932632
 30
0.0
 11
1356.950965145931
 21
811.2794529932624
 31
0.0
  0
LINE
  5
16CC
330
1A
100
AcDbEntity
  8
1
 62
     8
100
AcDbLine
 10
1356.950965145931
 20
811.2794529932624
 30
0.0000000000000107
 11
1356.950965145933
 21
842.2794529932621
 31
0.0000000000000105
  0
LINE
  5
16CD
330
1A
100
AcDbEntity
  8
1
 62
     8
100
AcDbLine
 10
1274.950965145933
 20
842.2794529932627
 30
0.0
 11
1356.950965145933
 21
842.2794529932621
 31
0.0
  0
LINE
  5
16CE
330
1A
100
AcDbEntity
  8
1
100
AcDbLine
 10
1372.793569163051
 20
912.2788144652316
 30
0.0
 11
1376.268061458677
 21
905.8172594675637
 31
0.0
  0
LINE
  5
16CF
330
1A
100
AcDbEntity
  8
1
 62
     8
100
AcDbLine
 10
1375.624993027373
 20
905.5407400421014
 30
0.0
 11
1376.020020778033
 21
904.6220708545218
 31
0.0
  0
ARC
  5
16D1
330
1A
100
AcDbEntity
  8
1
100
AcDbCircle
 10
1371.912824726098
 20
911.8052226190416
 30
0.0
 40
1.0
100
AcDbArc
 50
28.26770481015868
 51
68.26770481015222
  0
ARC
  5
16D2
330
1A
100
AcDbEntity
  8
1
100
AcDbCircle
 10
1368.262581964923
 20
913.2602144888739
 30
0.0
 40
1.0
100
AcDbArc
 50
68.26770481015222
 51
113.2677048101579
  0
LINE
  5
16D3
330
1A
100
AcDbEntity
  8
1
100
AcDbLine
 10
1368.632852375878
 20
914.1891385023269
 30
0.0
 11
1372.283095137053
 21
912.7341466324947
 31
0.0
  0
LINE
  5
16D4
330
1A
100
AcDbEntity
  8
1
 62
     8
100
AcDbLine
 10
1282.555728365722
 20
803.2794529932573
 30
0.0
 11
1285.12370955059
 21
754.2794529932399
 31
0.0
  0
LINE
  5
16D5
330
1A
100
AcDbEntity
  8
1
 62
     8
100
AcDbLine
 10
1293.970426831317
 20
799.2794529932394
 30
0.0
 11
1295.647475768375
 21
767.2794529932399
 31
0.0
  0
LINE
  5
16D6
330
1A
100
AcDbEntity
  8
1
 62
     8
100
AcDbLine
 10
1321.324524705431
 20
799.2794529932394
 30
0.0
 11
1319.647475768375
 21
767.2794529932399
 31
0.0
  0
LINE
  5
16D7
330
1A
100
AcDbEntity
  8
1
100
AcDbLine
 10
1281.804699106223
 20
803.2794529932573
 30
0.0
 11
1284.33337445663
 21
755.0294529932403
 31
0.0
  0
LINE
  5
16D8
330
1A
100
AcDbEntity
  8
1
100
AcDbLine
 10
1286.716531633163
 20
754.2794529932392
 30
0.0
 11
1285.123709550592
 21
754.2794529932392
 31
0.0
  0
LINE
  5
16D9
330
1A
100
AcDbEntity
  8
1
100
AcDbLine
 10
1285.123709550591
 20
754.2794529932392
 30
0.0
 11
1284.333374456631
 21
755.0294529932393
 31
0.0
  0
LINE
  5
16DA
330
1A
100
AcDbEntity
  8
1
 62
     8
100
AcDbLine
 10
1319.647475768375
 20
767.2794529932399
 30
0.0
 11
1295.647475768375
 21
767.2794529932399
 31
0.0
  0
LINE
  5
16DB
330
1A
100
AcDbEntity
  8
1
 62
     8
100
AcDbLine
 10
1337.631662920464
 20
799.2794529932394
 30
0.0
 11
1284.663288616283
 21
799.2794529932394
 31
0.0
  0
LINE
  5
16DC
330
1A
100
AcDbEntity
  8
1
100
AcDbLine
 10
1274.804737326756
 20
803.2794529932566
 30
0.0
 11
1301.544173011568
 21
803.2794529932594
 31
0.0
  0
LINE
  5
16DD
330
1A
100
AcDbEntity
  8
1
100
AcDbLine
 10
1274.804737326752
 20
806.2794529932613
 30
0.0
 11
1351.696015390068
 21
806.2794529932622
 31
0.0
  0
ARC
  5
16DF
330
1A
100
AcDbEntity
  8
1
 62
     8
100
AcDbCircle
 10
1284.663288616283
 20
801.2794529932394
 30
0.0
 40
2.0
100
AcDbArc
 50
182.9999999999989
 51
270.0
  0
LINE
  5
16E0
330
1A
100
AcDbEntity
  8
1
100
AcDbLine
 10
1274.804737326756
 20
803.2794529932566
 30
0.0
 11
1273.514737326748
 21
806.2794529932613
 31
0.0
  0
LINE
  5
16E1
330
1A
100
AcDbEntity
  8
1
100
AcDbLine
 10
1266.758483098203
 20
806.2794529932613
 30
0.0
 11
1274.804737326751
 21
806.2794529932617
 31
0.0
  0
LINE
  5
16E2
330
1A
100
AcDbEntity
  8
1
 62
     8
100
AcDbLine
 10
1319.647475768375
 20
790.2794529932399
 30
0.0
 11
1295.647475768375
 21
790.2794529932399
 31
0.0
  0
LINE
  5
16E4
330
1A
100
AcDbEntity
  8
1
 62
     8
100
AcDbLine
 10
1347.973050481218
 20
904.5357159508416
 30
0.0
 11
1346.870647456121
 21
904.0616826500476
 31
0.0
  0
LINE
  5
16EC
330
1A
100
AcDbEntity
  8
1
 62
     8
100
AcDbLine
 10
1347.578022730558
 20
905.4543851384192
 30
0.0
 11
1352.31835573847
 21
894.4303548875074
 31
0.0
  0
LINE
  5
16ED
330
1A
100
AcDbEntity
  8
1
 62
     8
100
AcDbLine
 10
1346.475619705462
 20
904.9803518376259
 30
0.0
 11
1350.820924962716
 21
894.8749907742501
 31
0.0
  0
LINE
  5
16F0
330
1A
100
AcDbEntity
  8
1
100
AcDbLine
 10
1329.822975768378
 20
803.2794529932276
 30
0.0
 11
1328.532975768357
 21
806.2794529932622
 31
0.0
  0
LINE
  5
16F1
330
1A
100
AcDbEntity
  8
1
100
AcDbLine
 10
1301.544173011568
 20
803.2794529931798
 30
0.0
 11
1301.544173011563
 21
806.279452993256
 31
0.0
  0
LINE
  5
16F2
330
1A
100
AcDbEntity
  8
1
100
AcDbLine
 10
1348.822975768374
 20
806.2794529932668
 30
0.0
 11
1348.822975768379
 21
803.2794529932594
 31
0.0
  0
LINE
  5
16F3
330
1A
100
AcDbEntity
  8
1
100
AcDbLine
 10
1329.822975768378
 20
803.2794529932276
 30
0.0
 11
1348.822975768379
 21
803.2794529932594
 31
0.0
  0
ARC
  5
16F4
330
1A
100
AcDbEntity
  8
1
 62
     8
100
AcDbCircle
 10
1337.631662920464
 20
801.2794529932394
 30
0.0
 40
2.0
100
AcDbArc
 50
270.0
 51
357.0000000000009
  0
LINE
  5
16F5
330
1A
100
AcDbEntity
  8
1
 62
     8
100
AcDbLine
 10
1339.739223171026
 20
803.2794529932441
 30
0.0
 11
1339.628921989974
 21
801.1747810807532
 31
0.0
  0
LINE
  5
16F6
330
1A
100
AcDbEntity
  8
1
100
AcDbLine
 10
1367.867554214263
 20
914.178883676452
 30
0.0
 11
1347.578022730558
 21
905.4543851384192
 31
0.0
  0
ARC
  5
16F8
330
1A
100
AcDbEntity
  8
1
100
AcDbCircle
 10
1351.696015390067
 20
826.2794529932653
 30
0.0
 40
20.0
100
AcDbArc
 50
270.0
 51
355.1952178742094
  0
LINE
  5
16F9
330
1A
100
AcDbEntity
  8
1
100
AcDbLine
 10
1379.631725986635
 20
895.1588894172777
 30
0.0
 11
1378.277144243556
 21
891.7605527635956
 31
0.0
  0
ARC
  5
16FA
330
1A
100
AcDbEntity
  8
1
100
AcDbCircle
 10
1377.348220230105
 20
892.1308231745523
 30
0.0
 40
1.0
100
AcDbArc
 50
293.2677048100586
 51
338.2677048100378
  0
LINE
  5
16FB
330
1A
100
AcDbEntity
  8
1
100
AcDbLine
 10
1377.205104030011
 20
890.98075208815
 30
0.0
 11
1377.743247980763
 21
891.21215398697
 31
0.0
  0
ARC
  5
16FC
330
1A
100
AcDbEntity
  8
1
100
AcDbCircle
 10
1378.702801973181
 20
895.5291598282359
 30
0.0
 40
1.0
100
AcDbArc
 50
338.2677048100239
 51
18.26770481006109
  0
LINE
  5
16FD
330
1A
100
AcDbEntity
  8
1
100
AcDbLine
 10
1376.663089209339
 20
904.8985902799845
 30
0.0
 11
1379.652404284162
 21
895.8426170836577
 31
0.0
  0
ARC
  5
16FE
330
1A
100
AcDbEntity
  8
1
100
AcDbCircle
 10
1335.366745161969
 20
373.1499835764598
 30
0.0
 40
1.0
100
AcDbArc
 50
14.03624346792647
 51
29.99813292536635
  0
LINE
  5
16FF
330
1A
100
AcDbEntity
  8
1
 62
     8
100
AcDbLine
 10
1333.897521568367
 20
366.1499835764562
 30
0.0
 11
1333.897521568367
 21
362.1499835764562
 31
0.0
  0
LINE
  5
1700
330
1A
100
AcDbEntity
  8
1
 62
     8
100
AcDbLine
 10
1334.770241021317
 20
366.1499835764562
 30
0.0
 11
1334.770241021317
 21
362.1499835764562
 31
0.0
  0
LINE
  5
1701
330
1A
100
AcDbEntity
  8
1
 62
     8
100
AcDbLine
 10
1336.349915360574
 20
366.1499835764562
 30
0.0
 11
1336.349915360574
 21
362.1499835764562
 31
0.0
  0
LINE
  5
1702
330
1A
100
AcDbEntity
  8
1
 62
     8
100
AcDbLine
 10
1336.980677398773
 20
366.1499835764562
 30
0.0
 11
1336.980677398773
 21
362.1499835764562
 31
0.0
  0
LINE
  5
1703
330
1A
100
AcDbEntity
  8
1
 62
     8
100
AcDbLine
 10
1338.378267986809
 20
366.1499835764562
 30
0.0
 11
1338.378267986809
 21
362.1499835764489
 31
0.0
  0
LINE
  5
1704
330
1A
100
AcDbEntity
  8
1
 62
     8
100
AcDbLine
 10
1340.830661779015
 20
366.1499835764489
 30
0.0
 11
1340.830661779015
 21
362.1499835764489
 31
0.0
  0
LINE
  5
1705
330
1A
100
AcDbEntity
  8
1
 62
     8
100
AcDbLine
 10
1339.893930704195
 20
366.1499835764489
 30
0.0
 11
1339.893930704195
 21
362.1499835764562
 31
0.0
  0
ARC
  5
1706
330
1A
100
AcDbEntity
  8
1
100
AcDbCircle
 10
1341.147521568368
 20
365.6499835764598
 30
0.0
 40
0.5
100
AcDbArc
 50
0.0
 51
90.0
  0
ARC
  5
1707
330
1A
100
AcDbEntity
  8
1
100
AcDbCircle
 10
1339.647521568368
 20
361.1499835764598
 30
0.0
 40
1.0
100
AcDbArc
 50
270.0
 51
0.0
  0
LINE
  5
1708
330
1A
100
AcDbEntity
  8
1
100
AcDbLine
 10
1340.647521568375
 20
362.1499835764562
 30
0.0
 11
1340.647521568381
 21
361.1499835764488
 31
0.0
  0
LINE
  5
1709
330
1A
100
AcDbEntity
  8
1
100
AcDbLine
 10
1337.37838473139
 20
369.9447718759994
 30
0.0
 11
1340.647521568375
 21
366.1499835764562
 31
0.0
  0
LINE
  5
170A
330
1A
100
AcDbEntity
  8
1
100
AcDbLine
 10
1341.647521568368
 20
365.6499835764562
 30
0.0
 11
1341.647521568368
 21
362.1499835764562
 31
0.0
  0
LINE
  5
170B
330
1A
100
AcDbEntity
  8
1
100
AcDbLine
 10
1336.336887662117
 20
373.3925192014804
 30
0.0
 11
1337.072606070084
 21
370.4496455696435
 31
0.0
  0
ARC
  5
170C
330
1A
100
AcDbEntity
  8
1
100
AcDbCircle
 10
1315.92829797478
 20
373.1499835764598
 30
0.0
 40
1.0
100
AcDbArc
 50
150.0016971302569
 51
165.9637565320734
  0
ARC
  5
170D
330
1A
100
AcDbEntity
  8
1
100
AcDbCircle
 10
1313.252294566519
 20
370.6921811946787
 30
0.0
 40
1.0
100
AcDbArc
 50
311.6335393365766
 51
345.9637565320766
  0
LINE
  5
170E
330
1A
100
AcDbEntity
  8
1
100
AcDbLine
 10
1313.91665840536
 20
369.9447718759921
 30
0.0
 11
1310.647521568375
 21
366.1499835764562
 31
0.0
  0
ARC
  5
170F
330
1A
100
AcDbEntity
  8
1
100
AcDbCircle
 10
1311.647521568367
 20
361.1499835764526
 30
0.0
 40
1.0
100
AcDbArc
 50
180.0
 51
270.0
  0
LINE
  5
1710
330
1A
100
AcDbEntity
  8
1
 62
     8
100
AcDbLine
 10
1326.215262113539
 20
366.1499835764489
 30
0.0
 11
1326.215262113539
 21
362.1499835764489
 31
0.0
  0
LINE
  5
1711
330
1A
100
AcDbEntity
  8
1
 62
     8
100
AcDbLine
 10
1328.15661238379
 20
366.1499835764562
 30
0.0
 11
1328.15661238379
 21
362.1499835764562
 31
0.0
  0
LINE
  5
1712
330
1A
100
AcDbEntity
  8
1
 62
     8
100
AcDbLine
 10
1331.128267986815
 20
366.1499835764562
 30
0.0
 11
1331.128267986809
 21
362.1499835764562
 31
0.0
  0
LINE
  5
1713
330
1A
100
AcDbEntity
  8
1
 62
     8
100
AcDbLine
 10
1332.161098028089
 20
366.1499835764489
 30
0.0
 11
1332.161098028089
 21
362.1499835764562
 31
0.0
  0
LINE
  5
1714
330
1A
100
AcDbEntity
  8
1
 62
     8
100
AcDbLine
 10
1329.267280487969
 20
366.1499835764636
 30
0.0
 11
1329.267280487969
 21
362.1499835764489
 31
0.0
  0
LINE
  5
1715
330
1A
100
AcDbEntity
  8
1
 62
     8
100
AcDbLine
 10
1311.401112432555
 20
366.1499835764489
 30
0.0
 11
1311.401112432555
 21
362.1499835764489
 31
0.0
  0
LINE
  5
1716
330
1A
100
AcDbEntity
  8
1
 62
     8
100
AcDbLine
 10
1310.464381357735
 20
366.1499835764489
 30
0.0
 11
1310.464381357735
 21
362.1499835764489
 31
0.0
  0
LINE
  5
1717
330
1A
100
AcDbEntity
  8
1
 62
     8
100
AcDbLine
 10
1312.916775149941
 20
366.1499835764489
 30
0.0
 11
1312.916775149941
 21
362.1499835764489
 31
0.0
  0
LINE
  5
1718
330
1A
100
AcDbEntity
  8
1
 62
     8
100
AcDbLine
 10
1314.314365737977
 20
366.1499835764489
 30
0.0
 11
1314.314365737977
 21
362.1499835764489
 31
0.0
  0
LINE
  5
1719
330
1A
100
AcDbEntity
  8
1
 62
     8
100
AcDbLine
 10
1314.945127776169
 20
366.1499835764489
 30
0.0
 11
1314.945127776176
 21
362.1499835764489
 31
0.0
  0
LINE
  5
171A
330
1A
100
AcDbEntity
  8
1
 62
     8
100
AcDbLine
 10
1316.524802115432
 20
366.1499835764489
 30
0.0
 11
1316.524802115432
 21
362.1499835764489
 31
0.0
  0
LINE
  5
171B
330
1A
100
AcDbEntity
  8
1
 62
     8
100
AcDbLine
 10
1317.397521568375
 20
366.1499835764636
 30
0.0
 11
1317.397521568375
 21
362.1499835764562
 31
0.0
  0
LINE
  5
171C
330
1A
100
AcDbEntity
  8
1
 62
     8
100
AcDbLine
 10
1319.133945108661
 20
366.1499835764489
 30
0.0
 11
1319.133945108661
 21
362.1499835764489
 31
0.0
  0
LINE
  5
171D
330
1A
100
AcDbEntity
  8
1
 62
     8
100
AcDbLine
 10
1320.166775149941
 20
366.1499835764562
 30
0.0
 11
1320.166775149941
 21
362.1499835764562
 31
0.0
  0
LINE
  5
171E
330
1A
100
AcDbEntity
  8
1
 62
     8
100
AcDbLine
 10
1322.027762648773
 20
366.1499835764562
 30
0.0
 11
1322.027762648773
 21
362.1499835764562
 31
0.0
  0
LINE
  5
171F
330
1A
100
AcDbEntity
  8
1
 62
     8
100
AcDbLine
 10
1325.079781023211
 20
366.1499835764562
 30
0.0
 11
1325.079781023211
 21
362.1499835764489
 31
0.0
  0
LINE
  5
1720
330
1A
100
AcDbEntity
  8
1
 62
     8
100
AcDbLine
 10
1323.138430752952
 20
366.1499835764562
 30
0.0
 11
1323.138430752952
 21
362.1499835764562
 31
0.0
  0
ARC
  5
1721
330
1A
100
AcDbEntity
  8
1
100
AcDbCircle
 10
1310.147521568368
 20
365.6499835764598
 30
0.0
 40
0.5
100
AcDbArc
 50
90.0
 51
180.0
  0
LINE
  5
1722
330
1A
100
AcDbEntity
  8
1
100
AcDbLine
 10
1310.647521568375
 20
362.1499835764562
 30
0.0
 11
1310.647521568375
 21
361.1499835764634
 31
0.0
  0
LINE
  5
1723
330
1A
100
AcDbEntity
  8
1
100
AcDbLine
 10
1309.647521568375
 20
365.6499835764634
 30
0.0
 11
1309.647521568375
 21
362.1499835764489
 31
0.0
  0
LINE
  5
1724
330
1A
100
AcDbEntity
  8
1
100
AcDbLine
 10
1314.958155474633
 20
373.3925192014948
 30
0.0
 11
1314.222437066674
 21
370.449645569629
 31
0.0
  0
LINE
  5
1725
330
1A
100
AcDbEntity
  8
1
 62
     8
100
AcDbLine
 10
1314.147521568368
 20
370.1499835764562
 30
0.0
 11
1337.147521568375
 21
370.1499835764634
 31
0.0
  0
LINE
  5
1726
330
1A
100
AcDbEntity
  8
1
100
AcDbLine
 10
1310.147521568368
 20
366.1499835764562
 30
0.0
 11
1341.147521568382
 21
366.1499835764489
 31
0.0
  0
LINE
  5
1727
330
1A
100
AcDbEntity
  8
1
100
AcDbLine
 10
1309.647521568375
 20
362.1499835764489
 30
0.0
 11
1341.647521568368
 21
362.1499835764562
 31
0.0
  0
LINE
  5
1728
330
1A
100
AcDbEntity
  8
1
100
AcDbLine
 10
1311.647521568367
 20
360.1499835764562
 30
0.0
 11
1339.647521568382
 21
360.1499835764489
 31
0.0
  0
POLYLINE
  5
17E0
330
1A
100
AcDbEntity
  8
DEFPOINTS
100
AcDb2dPolyline
 66
     1
 10
0.0
 20
0.0
 30
0.0
 70
     1
  0
VERTEX
  5
1CC8
330
17E0
100
AcDbEntity
  8
DEFPOINTS
100
AcDbVertex
100
AcDb2dVertex
 10
0.0
 20
0.0
 30
0.0
  0
VERTEX
  5
1CC9
330
17E0
100
AcDbEntity
  8
DEFPOINTS
100
AcDbVertex
100
AcDb2dVertex
 10
1680.0
 20
0.0
 30
0.0
  0
VERTEX
  5
1CCA
330
17E0
100
AcDbEntity
  8
DEFPOINTS
100
AcDbVertex
100
AcDb2dVertex
 10
1680.0
 20
1188.0
 30
0.0
  0
VERTEX
  5
1CCB
330
17E0
100
AcDbEntity
  8
DEFPOINTS
100
AcDbVertex
100
AcDb2dVertex
 10
0.0
 20
1188.0
 30
0.0
  0
SEQEND
  5
1CCC
330
17E0
100
AcDbEntity
  8
DEFPOINTS
  0
LINE
  5
1A66
330
1A
100
AcDbEntity
  8
1
100
AcDbLine
 10
163.34119263647
 20
387.6788955831008
 30
0.0
 11
163.34119263647
 21
379.6788955831007
 31
0.0
  0
ARC
  5
1A67
330
1A
100
AcDbEntity
  8
1
 62
     8
100
AcDbCircle
 10
176.09119263647
 20
375.4033889446992
 30
0.0
 40
12.27550663840317
100
AcDbArc
 50
69.7438419996073
 51
110.2561580003927
  0
LINE
  5
1A68
330
1A
100
AcDbEntity
  8
1
100
AcDbLine
 10
163.34119263647
 20
387.6788955831008
 30
0.0
 11
180.34119263647
 21
387.6788955831008
 31
0.0
  0
ARC
  5
1A69
330
1A
100
AcDbEntity
  8
1
 62
     8
100
AcDbCircle
 10
167.59119263647
 20
375.4033889446992
 30
0.0
 40
12.27550663840317
100
AcDbArc
 50
69.7438419996073
 51
110.2561580003927
  0
LINE
  5
1A6A
330
1A
100
AcDbEntity
  8
1
100
AcDbLine
 10
163.34119263647
 20
379.6788955831007
 30
0.0
 11
180.34119263647
 21
379.6788955831007
 31
0.0
  0
ARC
  5
1A6B
330
1A
100
AcDbEntity
  8
1
 62
     8
100
AcDbCircle
 10
176.0911926364627
 20
391.9544022215023
 30
0.0
 40
12.27550663840317
100
AcDbArc
 50
249.7438419996072
 51
290.2561580003927
  0
LINE
  5
1A6C
330
1A
100
AcDbEntity
  8
1
100
AcDbLine
 10
163.3411926364627
 20
379.6788955831007
 30
0.0
 11
180.3411926364627
 21
379.6788955831007
 31
0.0
  0
ARC
  5
1A6D
330
1A
100
AcDbEntity
  8
1
 62
     8
100
AcDbCircle
 10
167.5911926364627
 20
391.9544022215023
 30
0.0
 40
12.27550663840317
100
AcDbArc
 50
249.7438419996072
 51
290.2561580003927
  0
LINE
  5
1A6E
330
1A
100
AcDbEntity
  8
1
100
AcDbLine
 10
180.34119263647
 20
387.6788955831008
 30
0.0
 11
180.34119263647
 21
379.6788955831007
 31
0.0
  0
LINE
  5
1A6F
330
1A
100
AcDbEntity
  8
1
 62
     8
100
AcDbLine
 10
171.84119263647
 20
386.9197062045469
 30
0.0
 11
171.8411926364773
 21
380.4380849616474
 31
0.0
  0
LINE
  5
1A70
330
1A
100
AcDbEntity
  8
1
100
AcDbLine
 10
163.84119263647
 20
379.6788955831007
 30
0.0
 11
179.84119263647
 21
379.6788955831007
 31
0.0
  0
LINE
  5
1A71
330
1A
100
AcDbEntity
  8
1
100
AcDbLine
 10
160.8411926364627
 20
379.6788955831007
 30
0.0
 11
182.8411926364627
 21
379.6788955831007
 31
0.0
  0
ARC
  5
1A72
330
1A
100
AcDbEntity
  8
1
100
AcDbCircle
 10
159.8411926364627
 20
360.6788955831007
 30
0.0
 40
2.0
100
AcDbArc
 50
180.0
 51
270.0
  0
LINE
  5
1A73
330
1A
100
AcDbEntity
  8
1
100
AcDbLine
 10
160.8411926364627
 20
379.6788955831007
 30
0.0
 11
157.8411926364627
 21
375.6788955831008
 31
0.0
  0
LINE
  5
1A74
330
1A
100
AcDbEntity
  8
1
100
AcDbLine
 10
143.8298361641627
 20
375.6788955831008
 30
0.0
 11
135.2518084821627
 21
371.6788955831008
 31
0.0
  0
LINE
  5
1A75
330
1A
100
AcDbEntity
  8
1
100
AcDbLine
 10
157.8411926364627
 20
363.6788955831007
 30
0.0
 11
157.8411926364627
 21
360.6788955831007
 31
0.0
  0
LINE
  5
1A76
330
1A
100
AcDbEntity
  8
1
 62
     8
100
AcDbLine
 10
157.8411926364627
 20
360.6788955831007
 30
0.0
 11
185.8411926364627
 21
360.6788955831007
 31
0.0
  0
ARC
  5
1A77
330
1A
100
AcDbEntity
  8
1
100
AcDbCircle
 10
183.8411926364628
 20
360.6788955831007
 30
0.0
 40
2.0
100
AcDbArc
 50
270.0
 51
0.0
  0
LINE
  5
1A78
330
1A
100
AcDbEntity
  8
1
100
AcDbLine
 10
185.8411926364627
 20
375.6788955831008
 30
0.0
 11
182.8411926364627
 21
379.6788955831007
 31
0.0
  0
LINE
  5
1A79
330
1A
100
AcDbEntity
  8
1
100
AcDbLine
 10
208.4305767907627
 20
371.6788955831008
 30
0.0
 11
199.8525491087628
 21
375.6788955831008
 31
0.0
  0
LINE
  5
1A7A
330
1A
100
AcDbEntity
  8
1
100
AcDbLine
 10
135.2518084821627
 20
371.6788955831008
 30
0.0
 11
133.8411926364627
 21
363.6788955831007
 31
0.0
  0
LINE
  5
1A7B
330
1A
100
AcDbEntity
  8
1
100
AcDbLine
 10
209.8411926364627
 20
363.6788955831007
 30
0.0
 11
208.4305767907627
 21
371.6788955831008
 31
0.0
  0
LINE
  5
1A7C
330
1A
100
AcDbEntity
  8
1
100
AcDbLine
 10
185.8411926364627
 20
360.6788955831007
 30
0.0
 11
185.8411926364627
 21
363.6788955831007
 31
0.0
  0
LINE
  5
1A7D
330
1A
100
AcDbEntity
  8
1
 62
     8
100
AcDbLine
 10
135.2518084821627
 20
371.6788955831008
 30
0.0
 11
135.5654525796627
 21
371.6788955831008
 31
0.0
  0
LINE
  5
1A7E
330
1A
100
AcDbEntity
  8
1
 62
     8
100
AcDbLine
 10
208.4305767907627
 20
371.6788955831008
 30
0.0
 11
208.1169326932627
 21
371.6788955831008
 31
0.0
  0
LINE
  5
1A7F
330
1A
100
AcDbEntity
  8
1
100
AcDbLine
 10
141.4075727634627
 20
363.6788955831007
 30
0.0
 11
134.2310849400627
 21
363.6788955831007
 31
0.0
  0
LINE
  5
1A80
330
1A
100
AcDbEntity
  8
1
100
AcDbLine
 10
209.4513003328627
 20
363.6788955831007
 30
0.0
 11
209.8411926364627
 21
363.6788955831007
 31
0.0
  0
LINE
  5
1A81
330
1A
100
AcDbEntity
  8
1
100
AcDbLine
 10
194.5962971500627
 20
363.6788955831007
 30
0.0
 11
202.2748125094627
 21
363.6788955831007
 31
0.0
  0
ARC
  5
1A82
330
1A
100
AcDbEntity
  8
1
 62
     8
100
AcDbCircle
 10
158.3156855188627
 20
347.4294271408008
 30
0.0
 40
25.7781087156
100
AcDbArc
 50
70.16945679559973
 51
109.8305432044002
  0
SPLINE
  5
1A83
330
1A
100
AcDbEntity
  8
1
 62
     8
100
AcDbSpline
210
0.0
220
0.0
230
1.0
 70
     8
 71
     3
 72
    14
 73
    10
 74
     0
 42
0.0000000001
 43
0.0000000001
 40
0.0
 40
0.0
 40
0.0
 40
0.0
 40
0.25
 40
0.25
 40
0.5
 40
0.5
 40
0.75
 40
0.75
 40
1.0
 40
1.0
 40
1.0
 40
1.0
 10
142.8100072507353
 20
371.6788955831503
 30
0.0
 10
142.8508359016954
 20
372.1470817523472
 30
0.0
 10
142.7335568225136
 20
372.5278052669966
 30
0.0
 10
142.1545273876514
 20
373.0588690453048
 30
0.0
 10
141.6846722930831
 20
373.2030771396862
 30
0.0
 10
140.4301831473615
 20
373.2032157291825
 30
0.0
 10
139.6275010745569
 20
373.0596166282056
 30
0.0
 10
137.7701621422137
 20
372.5281780050845
 30
0.0
 10
136.7232442949063
 20
372.1471345375683
 30
0.0
 10
135.5654525796301
 20
371.6788955831503
 30
0.0
  0
LINE
  5
1A84
330
1A
100
AcDbEntity
  8
1
100
AcDbLine
 10
209.4513003328627
 20
363.6788955831007
 30
0.0
 11
202.2748125094627
 21
363.6788955831007
 31
0.0
  0
SPLINE
  5
1A85
330
1A
100
AcDbEntity
  8
1
 62
     8
100
AcDbSpline
210
0.0
220
0.0
230
1.0
 70
     8
 71
     3
 72
    14
 73
    10
 74
     0
 42
0.0000000001
 43
0.0000000001
 40
0.0
 40
0.0
 40
0.0
 40
0.0
 40
0.2500000000000001
 40
0.2500000000000001
 40
0.5000000000000001
 40
0.5000000000000001
 40
0.75
 40
0.75
 40
1.0
 40
1.0
 40
1.0
 40
1.0
 10
208.1169326932898
 20
371.6788955831503
 30
0.0
 10
206.9592714974652
 20
372.1470817523472
 30
0.0
 10
205.9131222821006
 20
372.5278052669966
 30
0.0
 10
204.0578996357882
 20
373.0588690453048
 30
0.0
 10
203.2533081021252
 20
373.2030771396862
 30
0.0
 10
201.9984939030075
 20
373.2032157291825
 30
0.0
 10
201.5290977751199
 20
373.0596166282056
 30
0.0
 10
200.9488109631294
 20
372.5281780050845
 30
0.0
 10
200.8315447680355
 20
372.1471345375683
 30
0.0
 10
200.8723780221845
 20
371.6788955831503
 30
0.0
  0
ARC
  5
1A86
330
1A
100
AcDbEntity
  8
1
 62
     8
100
AcDbCircle
 10
185.3666997540628
 20
347.4300112236008
 30
0.0
 40
25.7775592697
100
AcDbArc
 50
70.1690163812013
 51
109.8309836187987
  0
ARC
  5
1A87
330
1A
100
AcDbEntity
  8
1
 62
     8
100
AcDbCircle
 10
-2897.195319597437
 20
180.3903948020011
 30
0.0
 40
3097.219733229899
100
AcDbArc
 50
3.392654614601371
 51
3.540918781501474
  0
LINE
  5
1A88
330
1A
100
AcDbEntity
  8
1
100
AcDbLine
 10
194.5962971500627
 20
363.6788955831007
 30
0.0
 11
177.2707229165627
 21
363.6788955831007
 31
0.0
  0
ARC
  5
1A89
330
1A
100
AcDbEntity
  8
1
 62
     8
100
AcDbCircle
 10
-7522.796446077238
 20
1711.3698262004
 30
0.0
 40
7781.792472617199
100
AcDbArc
 50
350.0269374223015
 51
350.086738056502
  0
LINE
  5
1A8A
330
1A
100
AcDbEntity
  8
1
 62
     8
100
AcDbLine
 10
134.2310849400627
 20
363.6788955831007
 30
0.0
 11
135.5654525796627
 21
371.6788955831008
 31
0.0
  0
ARC
  5
1A8B
330
1A
100
AcDbEntity
  8
1
 62
     8
100
AcDbCircle
 10
-7434.472604838738
 20
-907.1854081885984
 30
0.0
 40
7748.8495111633
100
AcDbArc
 50
9.439544516698372
 51
9.499514528300293
  0
LINE
  5
1A8C
330
1A
100
AcDbEntity
  8
1
 62
     8
100
AcDbLine
 10
149.0860881228627
 20
363.6788955831007
 30
0.0
 11
149.5707344486627
 21
371.6788955831008
 31
0.0
  0
LINE
  5
1A8D
330
1A
100
AcDbEntity
  8
1
 62
     8
100
AcDbLine
 10
202.2748125094627
 20
363.6788955831007
 30
0.0
 11
200.8723780221627
 21
371.6788955831008
 31
0.0
  0
LINE
  5
1A8E
330
1A
100
AcDbEntity
  8
1
 62
     8
100
AcDbLine
 10
200.8723780221627
 20
371.6788955831008
 30
0.0
 11
194.1116508242627
 21
371.6788955831008
 31
0.0
  0
LINE
  5
1A8F
330
1A
100
AcDbEntity
  8
1
 62
     8
100
AcDbLine
 10
176.6217486838627
 20
371.6788955831008
 30
0.0
 11
167.0606365890627
 21
371.6788955831008
 31
0.0
  0
LINE
  5
1A90
330
1A
100
AcDbEntity
  8
1
 62
     8
100
AcDbLine
 10
149.5707344486627
 20
371.6788955831008
 30
0.0
 11
142.8100072507627
 21
371.6788955831008
 31
0.0
  0
ARC
  5
1A91
330
1A
100
AcDbEntity
  8
1
 62
     8
100
AcDbCircle
 10
-2933.780018176838
 20
619.198283179701
 30
0.0
 40
3110.7038774987
100
AcDbArc
 50
355.288302297197
 51
355.4361376759024
  0
LINE
  5
1A92
330
1A
100
AcDbEntity
  8
1
100
AcDbLine
 10
166.4116623563627
 20
363.6788955831007
 30
0.0
 11
177.2707229165627
 21
363.6788955831007
 31
0.0
  0
LINE
  5
1A93
330
1A
100
AcDbEntity
  8
1
100
AcDbLine
 10
166.4116623563627
 20
363.6788955831007
 30
0.0
 11
149.0860881228627
 21
363.6788955831007
 31
0.0
  0
LINE
  5
1A94
330
1A
100
AcDbEntity
  8
1
100
AcDbLine
 10
141.4075727634627
 20
363.6788955831007
 30
0.0
 11
149.0860881228627
 21
363.6788955831007
 31
0.0
  0
LINE
  5
1A95
330
1A
100
AcDbEntity
  8
1
100
AcDbLine
 10
133.8411926364627
 20
363.6788955831007
 30
0.0
 11
134.2310849400627
 21
363.6788955831007
 31
0.0
  0
LINE
  5
1A96
330
1A
100
AcDbEntity
  8
1
100
AcDbLine
 10
143.8298361641627
 20
375.6788955831008
 30
0.0
 11
199.8525491087628
 21
375.6788955831008
 31
0.0
  0
LINE
  5
1A97
330
1A
100
AcDbEntity
  8
1
100
AcDbLine
 10
159.8411926364627
 20
358.6788955831007
 30
0.0
 11
183.8411926364628
 21
358.6788955831007
 31
0.0
  0
LINE
  5
1A98
330
1A
100
AcDbEntity
  8
1
 62
     8
100
AcDbLine
 10
177.2707229165627
 20
363.6788955831007
 30
0.0
 11
176.6217486838627
 21
371.6788955831008
 31
0.0
  0
LINE
  5
1A99
330
1A
100
AcDbEntity
  8
1
100
AcDbLine
 10
403.34119263647
 20
387.6788955831008
 30
0.0
 11
403.34119263647
 21
379.6788955831007
 31
0.0
  0
ARC
  5
1A9A
330
1A
100
AcDbEntity
  8
1
 62
     8
100
AcDbCircle
 10
416.09119263647
 20
375.4033889446992
 30
0.0
 40
12.27550663840317
100
AcDbArc
 50
69.7438419996073
 51
110.2561580003927
  0
LINE
  5
1A9B
330
1A
100
AcDbEntity
  8
1
100
AcDbLine
 10
403.34119263647
 20
387.6788955831008
 30
0.0
 11
420.34119263647
 21
387.6788955831008
 31
0.0
  0
ARC
  5
1A9C
330
1A
100
AcDbEntity
  8
1
 62
     8
100
AcDbCircle
 10
407.5911926364701
 20
375.4033889446992
 30
0.0
 40
12.27550663840317
100
AcDbArc
 50
69.7438419996073
 51
110.2561580003927
  0
LINE
  5
1A9D
330
1A
100
AcDbEntity
  8
1
100
AcDbLine
 10
403.34119263647
 20
379.6788955831007
 30
0.0
 11
420.34119263647
 21
379.6788955831007
 31
0.0
  0
ARC
  5
1A9E
330
1A
100
AcDbEntity
  8
1
 62
     8
100
AcDbCircle
 10
416.0911926364628
 20
391.9544022215023
 30
0.0
 40
12.27550663840317
100
AcDbArc
 50
249.7438419996072
 51
290.2561580003927
  0
LINE
  5
1A9F
330
1A
100
AcDbEntity
  8
1
100
AcDbLine
 10
403.3411926364627
 20
379.6788955831007
 30
0.0
 11
420.3411926364627
 21
379.6788955831007
 31
0.0
  0
ARC
  5
1AA0
330
1A
100
AcDbEntity
  8
1
 62
     8
100
AcDbCircle
 10
407.5911926364628
 20
391.9544022215023
 30
0.0
 40
12.27550663840317
100
AcDbArc
 50
249.7438419996072
 51
290.2561580003927
  0
LINE
  5
1AA1
330
1A
100
AcDbEntity
  8
1
100
AcDbLine
 10
420.34119263647
 20
387.6788955831008
 30
0.0
 11
420.34119263647
 21
379.6788955831007
 31
0.0
  0
LINE
  5
1AA2
330
1A
100
AcDbEntity
  8
1
 62
     8
100
AcDbLine
 10
411.84119263647
 20
386.9197062045469
 30
0.0
 11
411.8411926364773
 21
380.4380849616474
 31
0.0
  0
LINE
  5
1AA3
330
1A
100
AcDbEntity
  8
1
100
AcDbLine
 10
403.84119263647
 20
379.6788955831007
 30
0.0
 11
419.84119263647
 21
379.6788955831007
 31
0.0
  0
LINE
  5
1AA4
330
1A
100
AcDbEntity
  8
1
100
AcDbLine
 10
400.8411926364628
 20
379.6788955831007
 30
0.0
 11
422.8411926364628
 21
379.6788955831007
 31
0.0
  0
ARC
  5
1AA5
330
1A
100
AcDbEntity
  8
1
100
AcDbCircle
 10
399.8411926364628
 20
360.6788955831007
 30
0.0
 40
2.0
100
AcDbArc
 50
180.0
 51
270.0
  0
LINE
  5
1AA6
330
1A
100
AcDbEntity
  8
1
100
AcDbLine
 10
400.8411926364628
 20
379.6788955831007
 30
0.0
 11
397.8411926364628
 21
375.6788955831008
 31
0.0
  0
LINE
  5
1AA7
330
1A
100
AcDbEntity
  8
1
100
AcDbLine
 10
383.8298361641627
 20
375.6788955831008
 30
0.0
 11
375.2518084821627
 21
371.6788955831008
 31
0.0
  0
LINE
  5
1AA8
330
1A
100
AcDbEntity
  8
1
100
AcDbLine
 10
397.8411926364628
 20
363.6788955831007
 30
0.0
 11
397.8411926364628
 21
360.6788955831007
 31
0.0
  0
LINE
  5
1AA9
330
1A
100
AcDbEntity
  8
1
 62
     8
100
AcDbLine
 10
397.8411926364628
 20
360.6788955831007
 30
0.0
 11
425.8411926364628
 21
360.6788955831007
 31
0.0
  0
ARC
  5
1AAA
330
1A
100
AcDbEntity
  8
1
100
AcDbCircle
 10
423.8411926364627
 20
360.6788955831007
 30
0.0
 40
2.0
100
AcDbArc
 50
270.0
 51
0.0
  0
LINE
  5
1AAB
330
1A
100
AcDbEntity
  8
1
100
AcDbLine
 10
425.8411926364628
 20
375.6788955831008
 30
0.0
 11
422.8411926364628
 21
379.6788955831007
 31
0.0
  0
LINE
  5
1AAC
330
1A
100
AcDbEntity
  8
1
100
AcDbLine
 10
448.4305767907627
 20
371.6788955831008
 30
0.0
 11
439.8525491087627
 21
375.6788955831008
 31
0.0
  0
LINE
  5
1AAD
330
1A
100
AcDbEntity
  8
1
100
AcDbLine
 10
375.2518084821627
 20
371.6788955831008
 30
0.0
 11
373.8411926364627
 21
363.6788955831007
 31
0.0
  0
LINE
  5
1AAE
330
1A
100
AcDbEntity
  8
1
100
AcDbLine
 10
449.8411926364627
 20
363.6788955831007
 30
0.0
 11
448.4305767907627
 21
371.6788955831008
 31
0.0
  0
LINE
  5
1AAF
330
1A
100
AcDbEntity
  8
1
100
AcDbLine
 10
425.8411926364628
 20
360.6788955831007
 30
0.0
 11
425.8411926364628
 21
363.6788955831007
 31
0.0
  0
LINE
  5
1AB0
330
1A
100
AcDbEntity
  8
1
 62
     8
100
AcDbLine
 10
375.2518084821627
 20
371.6788955831008
 30
0.0
 11
375.5654525796627
 21
371.6788955831008
 31
0.0
  0
LINE
  5
1AB1
330
1A
100
AcDbEntity
  8
1
 62
     8
100
AcDbLine
 10
448.4305767907627
 20
371.6788955831008
 30
0.0
 11
448.1169326932628
 21
371.6788955831008
 31
0.0
  0
LINE
  5
1AB2
330
1A
100
AcDbEntity
  8
1
100
AcDbLine
 10
381.4075727634627
 20
363.6788955831007
 30
0.0
 11
374.2310849400627
 21
363.6788955831007
 31
0.0
  0
LINE
  5
1AB3
330
1A
100
AcDbEntity
  8
1
100
AcDbLine
 10
449.4513003328627
 20
363.6788955831007
 30
0.0
 11
449.8411926364627
 21
363.6788955831007
 31
0.0
  0
LINE
  5
1AB4
330
1A
100
AcDbEntity
  8
1
100
AcDbLine
 10
434.5962971500627
 20
363.6788955831007
 30
0.0
 11
442.2748125094627
 21
363.6788955831007
 31
0.0
  0
ARC
  5
1AB5
330
1A
100
AcDbEntity
  8
1
 62
     8
100
AcDbCircle
 10
398.3156855188628
 20
347.4294271408008
 30
0.0
 40
25.7781087156
100
AcDbArc
 50
70.16945679559973
 51
109.8305432044002
  0
SPLINE
  5
1AB6
330
1A
100
AcDbEntity
  8
1
 62
     8
100
AcDbSpline
210
0.0
220
0.0
230
1.0
 70
     8
 71
     3
 72
    14
 73
    10
 74
     0
 42
0.0000000001
 43
0.0000000001
 40
0.0
 40
0.0
 40
0.0
 40
0.0
 40
0.25
 40
0.25
 40
0.5
 40
0.5
 40
0.75
 40
0.75
 40
1.0
 40
1.0
 40
1.0
 40
1.0
 10
382.8100072507353
 20
371.6788955831503
 30
0.0
 10
382.8508359016955
 20
372.1470817523472
 30
0.0
 10
382.7335568225136
 20
372.5278052669966
 30
0.0
 10
382.1545273876514
 20
373.0588690453048
 30
0.0
 10
381.6846722930831
 20
373.2030771396862
 30
0.0
 10
380.4301831473615
 20
373.2032157291825
 30
0.0
 10
379.6275010745569
 20
373.0596166282056
 30
0.0
 10
377.7701621422137
 20
372.5281780050845
 30
0.0
 10
376.7232442949063
 20
372.1471345375683
 30
0.0
 10
375.5654525796301
 20
371.6788955831503
 30
0.0
  0
LINE
  5
1AB7
330
1A
100
AcDbEntity
  8
1
100
AcDbLine
 10
449.4513003328627
 20
363.6788955831007
 30
0.0
 11
442.2748125094627
 21
363.6788955831007
 31
0.0
  0
SPLINE
  5
1AB8
330
1A
100
AcDbEntity
  8
1
 62
     8
100
AcDbSpline
210
0.0
220
0.0
230
1.0
 70
     8
 71
     3
 72
    14
 73
    10
 74
     0
 42
0.0000000001
 43
0.0000000001
 40
0.0
 40
0.0
 40
0.0
 40
0.0
 40
0.2500000000000001
 40
0.2500000000000001
 40
0.5000000000000001
 40
0.5000000000000001
 40
0.75
 40
0.75
 40
1.0
 40
1.0
 40
1.0
 40
1.0
 10
448.1169326932898
 20
371.6788955831503
 30
0.0
 10
446.9592714974652
 20
372.1470817523472
 30
0.0
 10
445.9131222821007
 20
372.5278052669966
 30
0.0
 10
444.0578996357882
 20
373.0588690453048
 30
0.0
 10
443.2533081021253
 20
373.2030771396862
 30
0.0
 10
441.9984939030075
 20
373.2032157291825
 30
0.0
 10
441.5290977751199
 20
373.0596166282056
 30
0.0
 10
440.9488109631295
 20
372.5281780050845
 30
0.0
 10
440.8315447680355
 20
372.1471345375683
 30
0.0
 10
440.8723780221845
 20
371.6788955831503
 30
0.0
  0
ARC
  5
1AB9
330
1A
100
AcDbEntity
  8
1
 62
     8
100
AcDbCircle
 10
425.3666997540627
 20
347.4300112236008
 30
0.0
 40
25.7775592697
100
AcDbArc
 50
70.1690163812013
 51
109.8309836187987
  0
ARC
  5
1ABA
330
1A
100
AcDbEntity
  8
1
 62
     8
100
AcDbCircle
 10
-2657.195319597437
 20
180.3903948020011
 30
0.0
 40
3097.219733229899
100
AcDbArc
 50
3.392654614601467
 51
3.540918781501374
  0
LINE
  5
1ABB
330
1A
100
AcDbEntity
  8
1
100
AcDbLine
 10
434.5962971500627
 20
363.6788955831007
 30
0.0
 11
417.2707229165627
 21
363.6788955831007
 31
0.0
  0
ARC
  5
1ABC
330
1A
100
AcDbEntity
  8
1
 62
     8
100
AcDbCircle
 10
-7282.796446077238
 20
1711.3698262004
 30
0.0
 40
7781.792472617199
100
AcDbArc
 50
350.0269374223015
 51
350.086738056502
  0
LINE
  5
1ABD
330
1A
100
AcDbEntity
  8
1
 62
     8
100
AcDbLine
 10
374.2310849400627
 20
363.6788955831007
 30
0.0
 11
375.5654525796627
 21
371.6788955831008
 31
0.0
  0
ARC
  5
1ABE
330
1A
100
AcDbEntity
  8
1
 62
     8
100
AcDbCircle
 10
-7194.472604838738
 20
-907.1854081885984
 30
0.0
 40
7748.8495111633
100
AcDbArc
 50
9.439544516698639
 51
9.499514528300293
  0
LINE
  5
1ABF
330
1A
100
AcDbEntity
  8
1
 62
     8
100
AcDbLine
 10
389.0860881228627
 20
363.6788955831007
 30
0.0
 11
389.5707344486627
 21
371.6788955831008
 31
0.0
  0
LINE
  5
1AC0
330
1A
100
AcDbEntity
  8
1
 62
     8
100
AcDbLine
 10
442.2748125094627
 20
363.6788955831007
 30
0.0
 11
440.8723780221627
 21
371.6788955831008
 31
0.0
  0
LINE
  5
1AC1
330
1A
100
AcDbEntity
  8
1
 62
     8
100
AcDbLine
 10
440.8723780221627
 20
371.6788955831008
 30
0.0
 11
434.1116508242627
 21
371.6788955831008
 31
0.0
  0
LINE
  5
1AC2
330
1A
100
AcDbEntity
  8
1
 62
     8
100
AcDbLine
 10
416.6217486838627
 20
371.6788955831008
 30
0.0
 11
407.0606365890627
 21
371.6788955831008
 31
0.0
  0
LINE
  5
1AC3
330
1A
100
AcDbEntity
  8
1
 62
     8
100
AcDbLine
 10
389.5707344486627
 20
371.6788955831008
 30
0.0
 11
382.8100072507627
 21
371.6788955831008
 31
0.0
  0
ARC
  5
1AC4
330
1A
100
AcDbEntity
  8
1
 62
     8
100
AcDbCircle
 10
-2693.780018176838
 20
619.198283179701
 30
0.0
 40
3110.7038774987
100
AcDbArc
 50
355.288302297197
 51
355.4361376759024
  0
LINE
  5
1AC5
330
1A
100
AcDbEntity
  8
1
100
AcDbLine
 10
406.4116623563627
 20
363.6788955831007
 30
0.0
 11
417.2707229165627
 21
363.6788955831007
 31
0.0
  0
LINE
  5
1AC6
330
1A
100
AcDbEntity
  8
1
100
AcDbLine
 10
406.4116623563627
 20
363.6788955831007
 30
0.0
 11
389.0860881228627
 21
363.6788955831007
 31
0.0
  0
LINE
  5
1AC7
330
1A
100
AcDbEntity
  8
1
100
AcDbLine
 10
381.4075727634627
 20
363.6788955831007
 30
0.0
 11
389.0860881228627
 21
363.6788955831007
 31
0.0
  0
LINE
  5
1AC8
330
1A
100
AcDbEntity
  8
1
100
AcDbLine
 10
373.8411926364627
 20
363.6788955831007
 30
0.0
 11
374.2310849400627
 21
363.6788955831007
 31
0.0
  0
LINE
  5
1AC9
330
1A
100
AcDbEntity
  8
1
100
AcDbLine
 10
383.8298361641627
 20
375.6788955831008
 30
0.0
 11
439.8525491087627
 21
375.6788955831008
 31
0.0
  0
LINE
  5
1ACA
330
1A
100
AcDbEntity
  8
1
100
AcDbLine
 10
399.8411926364628
 20
358.6788955831007
 30
0.0
 11
423.8411926364627
 21
358.6788955831007
 31
0.0
  0
LINE
  5
1ACB
330
1A
100
AcDbEntity
  8
1
 62
     8
100
AcDbLine
 10
417.2707229165627
 20
363.6788955831007
 30
0.0
 11
416.6217486838627
 21
371.6788955831008
 31
0.0
  0
LINE
  5
1ACC
330
1A
100
AcDbEntity
  8
1
 62
     8
100
AcDbLine
 10
336.6804596017037
 20
799.2794529932177
 30
-0.0000000000000142
 11
301.8411926364706
 21
799.2794529932177
 31
-0.0000000000000142
  0
LINE
  5
1ACD
330
1A
100
AcDbEntity
  8
1
 48
0.25
100
AcDbLine
 10
247.0019256712403
 20
799.2794529932178
 30
-0.0000000000000142
 11
227.3411926364706
 21
799.2794529932177
 31
-0.0000000000000142
  0
LINE
  5
1B9D
330
1A
100
AcDbEntity
  8
1
100
AcDbLine
 10
792.1474701067388
 20
387.6788955831031
 30
0.0
 11
792.1474701067388
 21
379.6788955831032
 31
0.0
  0
ARC
  5
1B9E
330
1A
100
AcDbEntity
  8
1
 62
     8
100
AcDbCircle
 10
804.8974701067388
 20
375.4033889447016
 30
0.0
 40
12.27550663840317
100
AcDbArc
 50
69.74384199960424
 51
110.2561580003957
  0
LINE
  5
1B9F
330
1A
100
AcDbEntity
  8
1
100
AcDbLine
 10
792.1474701067388
 20
387.6788955831031
 30
0.0
 11
809.1474701067387
 21
387.6788955831031
 31
0.0
  0
ARC
  5
1BA0
330
1A
100
AcDbEntity
  8
1
 62
     8
100
AcDbCircle
 10
796.3974701067387
 20
375.4033889447016
 30
0.0
 40
12.27550663840317
100
AcDbArc
 50
69.74384199960424
 51
110.2561580003957
  0
LINE
  5
1BA1
330
1A
100
AcDbEntity
  8
1
100
AcDbLine
 10
792.1474701067388
 20
379.6788955831032
 30
0.0
 11
809.1474701067387
 21
379.6788955831032
 31
0.0
  0
ARC
  5
1BA2
330
1A
100
AcDbEntity
  8
1
 62
     8
100
AcDbCircle
 10
804.8974701067315
 20
391.9544022215047
 30
0.0
 40
12.27550663840317
100
AcDbArc
 50
249.7438419996042
 51
290.2561580003957
  0
LINE
  5
1BA3
330
1A
100
AcDbEntity
  8
1
100
AcDbLine
 10
792.1474701067315
 20
379.6788955831032
 30
0.0
 11
809.1474701067314
 21
379.6788955831032
 31
0.0
  0
ARC
  5
1BA4
330
1A
100
AcDbEntity
  8
1
 62
     8
100
AcDbCircle
 10
796.3974701067314
 20
391.9544022215047
 30
0.0
 40
12.27550663840317
100
AcDbArc
 50
249.7438419996042
 51
290.2561580003957
  0
LINE
  5
1BA5
330
1A
100
AcDbEntity
  8
1
100
AcDbLine
 10
809.1474701067387
 20
387.6788955831031
 30
0.0
 11
809.1474701067387
 21
379.6788955831032
 31
0.0
  0
LINE
  5
1BA6
330
1A
100
AcDbEntity
  8
1
 62
     8
100
AcDbLine
 10
800.6474701067388
 20
386.9197062045493
 30
0.0
 11
800.647470106746
 21
380.4380849616498
 31
0.0
  0
LINE
  5
1BA7
330
1A
100
AcDbEntity
  8
1
100
AcDbLine
 10
792.6474701067387
 20
379.6788955831032
 30
0.0
 11
808.6474701067388
 21
379.6788955831032
 31
0.0
  0
LINE
  5
1BA8
330
1A
100
AcDbEntity
  8
1
100
AcDbLine
 10
789.6474701067314
 20
379.6788955831032
 30
0.0
 11
811.6474701067314
 21
379.6788955831032
 31
0.0
  0
ARC
  5
1BA9
330
1A
100
AcDbEntity
  8
1
100
AcDbCircle
 10
788.6474701067315
 20
360.6788955831031
 30
0.0
 40
2.0
100
AcDbArc
 50
180.0
 51
270.0
  0
LINE
  5
1BAA
330
1A
100
AcDbEntity
  8
1
100
AcDbLine
 10
789.6474701067314
 20
379.6788955831032
 30
0.0
 11
786.6474701067314
 21
375.6788955831032
 31
0.0
  0
LINE
  5
1BAB
330
1A
100
AcDbEntity
  8
1
100
AcDbLine
 10
772.6361136344315
 20
375.6788955831032
 30
0.0
 11
764.0580859524314
 21
371.6788955831032
 31
0.0
  0
LINE
  5
1BAC
330
1A
100
AcDbEntity
  8
1
100
AcDbLine
 10
786.6474701067314
 20
363.6788955831032
 30
0.0
 11
786.6474701067314
 21
360.6788955831031
 31
0.0
  0
LINE
  5
1BAD
330
1A
100
AcDbEntity
  8
1
 62
     8
100
AcDbLine
 10
786.6474701067314
 20
360.6788955831031
 30
0.0
 11
814.6474701067315
 21
360.6788955831031
 31
0.0
  0
ARC
  5
1BAE
330
1A
100
AcDbEntity
  8
1
100
AcDbCircle
 10
812.6474701067314
 20
360.6788955831031
 30
0.0
 40
2.0
100
AcDbArc
 50
270.0
 51
0.0
  0
LINE
  5
1BAF
330
1A
100
AcDbEntity
  8
1
100
AcDbLine
 10
814.6474701067315
 20
375.6788955831032
 30
0.0
 11
811.6474701067314
 21
379.6788955831032
 31
0.0
  0
LINE
  5
1BB0
330
1A
100
AcDbEntity
  8
1
100
AcDbLine
 10
837.2368542610313
 20
371.6788955831032
 30
0.0
 11
828.6588265790314
 21
375.6788955831032
 31
0.0
  0
LINE
  5
1BB1
330
1A
100
AcDbEntity
  8
1
100
AcDbLine
 10
764.0580859524314
 20
371.6788955831032
 30
0.0
 11
762.6474701067315
 21
363.6788955831032
 31
0.0
  0
LINE
  5
1BB2
330
1A
100
AcDbEntity
  8
1
100
AcDbLine
 10
838.6474701067314
 20
363.6788955831032
 30
0.0
 11
837.2368542610313
 21
371.6788955831032
 31
0.0
  0
LINE
  5
1BB3
330
1A
100
AcDbEntity
  8
1
100
AcDbLine
 10
814.6474701067315
 20
360.6788955831031
 30
0.0
 11
814.6474701067315
 21
363.6788955831032
 31
0.0
  0
LINE
  5
1BB4
330
1A
100
AcDbEntity
  8
1
 62
     8
100
AcDbLine
 10
764.0580859524314
 20
371.6788955831032
 30
0.0
 11
764.3717300499314
 21
371.6788955831032
 31
0.0
  0
LINE
  5
1BB5
330
1A
100
AcDbEntity
  8
1
 62
     8
100
AcDbLine
 10
837.2368542610313
 20
371.6788955831032
 30
0.0
 11
836.9232101635315
 21
371.6788955831032
 31
0.0
  0
LINE
  5
1BB6
330
1A
100
AcDbEntity
  8
1
100
AcDbLine
 10
770.2138502337314
 20
363.6788955831032
 30
0.0
 11
763.0373624103314
 21
363.6788955831032
 31
0.0
  0
LINE
  5
1BB7
330
1A
100
AcDbEntity
  8
1
100
AcDbLine
 10
838.2575778031315
 20
363.6788955831032
 30
0.0
 11
838.6474701067314
 21
363.6788955831032
 31
0.0
  0
LINE
  5
1BB8
330
1A
100
AcDbEntity
  8
1
100
AcDbLine
 10
823.4025746203315
 20
363.6788955831032
 30
0.0
 11
831.0810899797314
 21
363.6788955831032
 31
0.0
  0
ARC
  5
1BB9
330
1A
100
AcDbEntity
  8
1
 62
     8
100
AcDbCircle
 10
787.1219629891315
 20
347.4294271408032
 30
0.0
 40
25.7781087156
100
AcDbArc
 50
70.16945679560278
 51
109.8305432043972
  0
SPLINE
  5
1BBA
330
1A
100
AcDbEntity
  8
1
 62
     8
100
AcDbSpline
210
0.0
220
0.0
230
1.0
 70
     8
 71
     3
 72
    14
 73
    10
 74
     0
 42
0.0000000001
 43
0.0000000001
 40
0.0
 40
0.0
 40
0.0
 40
0.0
 40
0.25
 40
0.25
 40
0.5
 40
0.5
 40
0.75
 40
0.75
 40
1.0
 40
1.0
 40
1.0
 40
1.0
 10
771.616284721004
 20
371.6788955831527
 30
0.0
 10
771.6571133719642
 20
372.1470817523497
 30
0.0
 10
771.5398342927824
 20
372.527805266999
 30
0.0
 10
770.9608048579201
 20
373.0588690453072
 30
0.0
 10
770.4909497633519
 20
373.2030771396887
 30
0.0
 10
769.2364606176302
 20
373.203215729185
 30
0.0
 10
768.4337785448255
 20
373.0596166282081
 30
0.0
 10
766.5764396124824
 20
372.5281780050869
 30
0.0
 10
765.5295217651749
 20
372.1471345375707
 30
0.0
 10
764.3717300498988
 20
371.6788955831527
 30
0.0
  0
LINE
  5
1BBB
330
1A
100
AcDbEntity
  8
1
100
AcDbLine
 10
838.2575778031315
 20
363.6788955831032
 30
0.0
 11
831.0810899797314
 21
363.6788955831032
 31
0.0
  0
SPLINE
  5
1BBC
330
1A
100
AcDbEntity
  8
1
 62
     8
100
AcDbSpline
210
0.0
220
0.0
230
1.0
 70
     8
 71
     3
 72
    14
 73
    10
 74
     0
 42
0.0000000001
 43
0.0000000001
 40
0.0
 40
0.0
 40
0.0
 40
0.0
 40
0.2500000000000001
 40
0.2500000000000001
 40
0.5000000000000001
 40
0.5000000000000001
 40
0.75
 40
0.75
 40
1.0
 40
1.0
 40
1.0
 40
1.0
 10
836.9232101635585
 20
371.6788955831527
 30
0.0
 10
835.7655489677339
 20
372.1470817523497
 30
0.0
 10
834.7193997523692
 20
372.527805266999
 30
0.0
 10
832.8641771060569
 20
373.0588690453072
 30
0.0
 10
832.059585572394
 20
373.2030771396887
 30
0.0
 10
830.8047713732761
 20
373.203215729185
 30
0.0
 10
830.3353752453885
 20
373.0596166282081
 30
0.0
 10
829.7550884333983
 20
372.5281780050869
 30
0.0
 10
829.6378222383042
 20
372.1471345375707
 30
0.0
 10
829.6786554924532
 20
371.6788955831527
 30
0.0
  0
ARC
  5
1BBD
330
1A
100
AcDbEntity
  8
1
 62
     8
100
AcDbCircle
 10
814.1729772243314
 20
347.4300112236033
 30
0.0
 40
25.7775592697
100
AcDbArc
 50
70.16901638119825
 51
109.8309836188017
  0
ARC
  5
1BBE
330
1A
100
AcDbEntity
  8
1
 62
     8
100
AcDbCircle
 10
-2268.389042127169
 20
180.3903948020035
 30
0.0
 40
3097.219733229899
100
AcDbArc
 50
3.392654614601274
 51
3.540918781501575
  0
LINE
  5
1BBF
330
1A
100
AcDbEntity
  8
1
100
AcDbLine
 10
823.4025746203315
 20
363.6788955831032
 30
0.0
 11
806.0770003868313
 21
363.6788955831032
 31
0.0
  0
ARC
  5
1BC0
330
1A
100
AcDbEntity
  8
1
 62
     8
100
AcDbCircle
 10
-6893.99016860697
 20
1711.369826200403
 30
0.0
 40
7781.792472617199
100
AcDbArc
 50
350.0269374223015
 51
350.0867380565026
  0
LINE
  5
1BC1
330
1A
100
AcDbEntity
  8
1
 62
     8
100
AcDbLine
 10
763.0373624103314
 20
363.6788955831032
 30
0.0
 11
764.3717300499314
 21
371.6788955831032
 31
0.0
  0
ARC
  5
1BC2
330
1A
100
AcDbEntity
  8
1
 62
     8
100
AcDbCircle
 10
-6805.66632736847
 20
-907.1854081885957
 30
0.0
 40
7748.8495111633
100
AcDbArc
 50
9.439544516698639
 51
9.499514528300293
  0
LINE
  5
1BC3
330
1A
100
AcDbEntity
  8
1
 62
     8
100
AcDbLine
 10
777.8923655931314
 20
363.6788955831032
 30
0.0
 11
778.3770119189314
 21
371.6788955831032
 31
0.0
  0
LINE
  5
1BC4
330
1A
100
AcDbEntity
  8
1
 62
     8
100
AcDbLine
 10
831.0810899797314
 20
363.6788955831032
 30
0.0
 11
829.6786554924315
 21
371.6788955831032
 31
0.0
  0
LINE
  5
1BC5
330
1A
100
AcDbEntity
  8
1
 62
     8
100
AcDbLine
 10
829.6786554924315
 20
371.6788955831032
 30
0.0
 11
822.9179282945315
 21
371.6788955831032
 31
0.0
  0
LINE
  5
1BC6
330
1A
100
AcDbEntity
  8
1
 62
     8
100
AcDbLine
 10
805.4280261541315
 20
371.6788955831032
 30
0.0
 11
795.8669140593314
 21
371.6788955831032
 31
0.0
  0
LINE
  5
1BC7
330
1A
100
AcDbEntity
  8
1
 62
     8
100
AcDbLine
 10
778.3770119189314
 20
371.6788955831032
 30
0.0
 11
771.6162847210314
 21
371.6788955831032
 31
0.0
  0
ARC
  5
1BC8
330
1A
100
AcDbEntity
  8
1
 62
     8
100
AcDbCircle
 10
-2304.973740706569
 20
619.1982831797034
 30
0.0
 40
3110.7038774987
100
AcDbArc
 50
355.2883022971967
 51
355.4361376759022
  0
LINE
  5
1BC9
330
1A
100
AcDbEntity
  8
1
100
AcDbLine
 10
795.2179398266314
 20
363.6788955831032
 30
0.0
 11
806.0770003868313
 21
363.6788955831032
 31
0.0
  0
LINE
  5
1BCA
330
1A
100
AcDbEntity
  8
1
100
AcDbLine
 10
795.2179398266314
 20
363.6788955831032
 30
0.0
 11
777.8923655931314
 21
363.6788955831032
 31
0.0
  0
LINE
  5
1BCB
330
1A
100
AcDbEntity
  8
1
100
AcDbLine
 10
770.2138502337314
 20
363.6788955831032
 30
0.0
 11
777.8923655931314
 21
363.6788955831032
 31
0.0
  0
LINE
  5
1BCC
330
1A
100
AcDbEntity
  8
1
100
AcDbLine
 10
762.6474701067315
 20
363.6788955831032
 30
0.0
 11
763.0373624103314
 21
363.6788955831032
 31
0.0
  0
LINE
  5
1BCD
330
1A
100
AcDbEntity
  8
1
100
AcDbLine
 10
772.6361136344315
 20
375.6788955831032
 30
0.0
 11
828.6588265790314
 21
375.6788955831032
 31
0.0
  0
LINE
  5
1BCE
330
1A
100
AcDbEntity
  8
1
100
AcDbLine
 10
788.6474701067315
 20
358.6788955831032
 30
0.0
 11
812.6474701067314
 21
358.6788955831032
 31
0.0
  0
LINE
  5
1BCF
330
1A
100
AcDbEntity
  8
1
 62
     8
100
AcDbLine
 10
806.0770003868313
 20
363.6788955831032
 30
0.0
 11
805.4280261541315
 21
371.6788955831032
 31
0.0
  0
LINE
  5
1BD0
330
1A
100
AcDbEntity
  8
1
100
AcDbLine
 10
1126.147470106745
 20
387.6788955831042
 30
0.0
 11
1126.147470106745
 21
379.6788955831042
 31
0.0
  0
ARC
  5
1BD1
330
1A
100
AcDbEntity
  8
1
 62
     8
100
AcDbCircle
 10
1138.897470106745
 20
375.4033889447026
 30
0.0
 40
12.27550663840317
100
AcDbArc
 50
69.74384199961034
 51
110.2561580003896
  0
LINE
  5
1BD2
330
1A
100
AcDbEntity
  8
1
100
AcDbLine
 10
1126.147470106745
 20
387.6788955831042
 30
0.0
 11
1143.147470106745
 21
387.6788955831042
 31
0.0
  0
ARC
  5
1BD3
330
1A
100
AcDbEntity
  8
1
 62
     8
100
AcDbCircle
 10
1130.397470106745
 20
375.4033889447026
 30
0.0
 40
12.27550663840317
100
AcDbArc
 50
69.74384199961034
 51
110.2561580003896
  0
LINE
  5
1BD4
330
1A
100
AcDbEntity
  8
1
100
AcDbLine
 10
1126.147470106745
 20
379.6788955831042
 30
0.0
 11
1143.147470106745
 21
379.6788955831042
 31
0.0
  0
ARC
  5
1BD5
330
1A
100
AcDbEntity
  8
1
 62
     8
100
AcDbCircle
 10
1138.897470106738
 20
391.9544022215058
 30
0.0
 40
12.27550663840317
100
AcDbArc
 50
249.7438419996103
 51
290.2561580003896
  0
LINE
  5
1BD6
330
1A
100
AcDbEntity
  8
1
100
AcDbLine
 10
1126.147470106738
 20
379.6788955831042
 30
0.0
 11
1143.147470106738
 21
379.6788955831042
 31
0.0
  0
ARC
  5
1BD7
330
1A
100
AcDbEntity
  8
1
 62
     8
100
AcDbCircle
 10
1130.397470106738
 20
391.9544022215058
 30
0.0
 40
12.27550663840317
100
AcDbArc
 50
249.7438419996103
 51
290.2561580003896
  0
LINE
  5
1BD8
330
1A
100
AcDbEntity
  8
1
100
AcDbLine
 10
1143.147470106745
 20
387.6788955831042
 30
0.0
 11
1143.147470106745
 21
379.6788955831042
 31
0.0
  0
LINE
  5
1BD9
330
1A
100
AcDbEntity
  8
1
 62
     8
100
AcDbLine
 10
1134.647470106745
 20
386.9197062045504
 30
0.0
 11
1134.647470106752
 21
380.4380849616508
 31
0.0
  0
LINE
  5
1BDA
330
1A
100
AcDbEntity
  8
1
100
AcDbLine
 10
1126.647470106745
 20
379.6788955831042
 30
0.0
 11
1142.647470106745
 21
379.6788955831042
 31
0.0
  0
LINE
  5
1BDB
330
1A
100
AcDbEntity
  8
1
100
AcDbLine
 10
1123.647470106738
 20
379.6788955831042
 30
0.0
 11
1145.647470106738
 21
379.6788955831042
 31
0.0
  0
ARC
  5
1BDC
330
1A
100
AcDbEntity
  8
1
100
AcDbCircle
 10
1122.647470106738
 20
360.6788955831042
 30
0.0
 40
2.0
100
AcDbArc
 50
180.0
 51
270.0
  0
LINE
  5
1BDD
330
1A
100
AcDbEntity
  8
1
100
AcDbLine
 10
1123.647470106738
 20
379.6788955831042
 30
0.0
 11
1120.647470106738
 21
375.6788955831042
 31
0.0
  0
LINE
  5
1BDE
330
1A
100
AcDbEntity
  8
1
100
AcDbLine
 10
1106.636113634438
 20
375.6788955831042
 30
0.0
 11
1098.058085952438
 21
371.6788955831042
 31
0.0
  0
LINE
  5
1BDF
330
1A
100
AcDbEntity
  8
1
100
AcDbLine
 10
1120.647470106738
 20
363.6788955831042
 30
0.0
 11
1120.647470106738
 21
360.6788955831042
 31
0.0
  0
LINE
  5
1BE0
330
1A
100
AcDbEntity
  8
1
 62
     8
100
AcDbLine
 10
1120.647470106738
 20
360.6788955831042
 30
0.0
 11
1148.647470106738
 21
360.6788955831042
 31
0.0
  0
ARC
  5
1BE1
330
1A
100
AcDbEntity
  8
1
100
AcDbCircle
 10
1146.647470106738
 20
360.6788955831042
 30
0.0
 40
2.0
100
AcDbArc
 50
270.0
 51
0.0
  0
LINE
  5
1BE2
330
1A
100
AcDbEntity
  8
1
100
AcDbLine
 10
1148.647470106738
 20
375.6788955831042
 30
0.0
 11
1145.647470106738
 21
379.6788955831042
 31
0.0
  0
LINE
  5
1BE3
330
1A
100
AcDbEntity
  8
1
100
AcDbLine
 10
1171.236854261038
 20
371.6788955831042
 30
0.0
 11
1162.658826579038
 21
375.6788955831042
 31
0.0
  0
LINE
  5
1BE4
330
1A
100
AcDbEntity
  8
1
100
AcDbLine
 10
1098.058085952438
 20
371.6788955831042
 30
0.0
 11
1096.647470106738
 21
363.6788955831042
 31
0.0
  0
LINE
  5
1BE5
330
1A
100
AcDbEntity
  8
1
100
AcDbLine
 10
1172.647470106738
 20
363.6788955831042
 30
0.0
 11
1171.236854261038
 21
371.6788955831042
 31
0.0
  0
LINE
  5
1BE6
330
1A
100
AcDbEntity
  8
1
100
AcDbLine
 10
1148.647470106738
 20
360.6788955831042
 30
0.0
 11
1148.647470106738
 21
363.6788955831042
 31
0.0
  0
LINE
  5
1BE7
330
1A
100
AcDbEntity
  8
1
 62
     8
100
AcDbLine
 10
1098.058085952438
 20
371.6788955831042
 30
0.0
 11
1098.371730049938
 21
371.6788955831042
 31
0.0
  0
LINE
  5
1BE8
330
1A
100
AcDbEntity
  8
1
 62
     8
100
AcDbLine
 10
1171.236854261038
 20
371.6788955831042
 30
0.0
 11
1170.923210163538
 21
371.6788955831042
 31
0.0
  0
LINE
  5
1BE9
330
1A
100
AcDbEntity
  8
1
100
AcDbLine
 10
1104.213850233738
 20
363.6788955831042
 30
0.0
 11
1097.037362410338
 21
363.6788955831042
 31
0.0
  0
LINE
  5
1BEA
330
1A
100
AcDbEntity
  8
1
100
AcDbLine
 10
1172.257577803138
 20
363.6788955831042
 30
0.0
 11
1172.647470106738
 21
363.6788955831042
 31
0.0
  0
LINE
  5
1BEB
330
1A
100
AcDbEntity
  8
1
100
AcDbLine
 10
1157.402574620338
 20
363.6788955831042
 30
0.0
 11
1165.081089979738
 21
363.6788955831042
 31
0.0
  0
ARC
  5
1BEC
330
1A
100
AcDbEntity
  8
1
 62
     8
100
AcDbCircle
 10
1121.121962989138
 20
347.4294271408043
 30
0.0
 40
25.7781087156
100
AcDbArc
 50
70.16945679560278
 51
109.8305432043972
  0
SPLINE
  5
1BED
330
1A
100
AcDbEntity
  8
1
 62
     8
100
AcDbSpline
210
0.0
220
0.0
230
1.0
 70
     8
 71
     3
 72
    14
 73
    10
 74
     0
 42
0.0000000001
 43
0.0000000001
 40
0.0
 40
0.0
 40
0.0
 40
0.0
 40
0.25
 40
0.25
 40
0.5
 40
0.5
 40
0.75
 40
0.75
 40
1.0
 40
1.0
 40
1.0
 40
1.0
 10
1105.61628472101
 20
371.6788955831538
 30
0.0
 10
1105.657113371971
 20
372.1470817523507
 30
0.0
 10
1105.539834292789
 20
372.527805267
 30
0.0
 10
1104.960804857927
 20
373.0588690453082
 30
0.0
 10
1104.490949763358
 20
373.2030771396897
 30
0.0
 10
1103.236460617637
 20
373.203215729186
 30
0.0
 10
1102.433778544832
 20
373.0596166282091
 30
0.0
 10
1100.576439612489
 20
372.5281780050879
 30
0.0
 10
1099.529521765181
 20
372.1471345375717
 30
0.0
 10
1098.371730049905
 20
371.6788955831538
 30
0.0
  0
LINE
  5
1BEE
330
1A
100
AcDbEntity
  8
1
100
AcDbLine
 10
1172.257577803138
 20
363.6788955831042
 30
0.0
 11
1165.081089979738
 21
363.6788955831042
 31
0.0
  0
SPLINE
  5
1BEF
330
1A
100
AcDbEntity
  8
1
 62
     8
100
AcDbSpline
210
0.0
220
0.0
230
1.0
 70
     8
 71
     3
 72
    14
 73
    10
 74
     0
 42
0.0000000001
 43
0.0000000001
 40
0.0
 40
0.0
 40
0.0
 40
0.0
 40
0.2500000000000001
 40
0.2500000000000001
 40
0.5000000000000001
 40
0.5000000000000001
 40
0.75
 40
0.75
 40
1.0
 40
1.0
 40
1.0
 40
1.0
 10
1170.923210163565
 20
371.6788955831538
 30
0.0
 10
1169.76554896774
 20
372.1470817523507
 30
0.0
 10
1168.719399752376
 20
372.527805267
 30
0.0
 10
1166.864177106063
 20
373.0588690453082
 30
0.0
 10
1166.0595855724
 20
373.2030771396897
 30
0.0
 10
1164.804771373283
 20
373.203215729186
 30
0.0
 10
1164.335375245395
 20
373.0596166282091
 30
0.0
 10
1163.755088433405
 20
372.5281780050879
 30
0.0
 10
1163.637822238311
 20
372.1471345375717
 30
0.0
 10
1163.67865549246
 20
371.6788955831538
 30
0.0
  0
ARC
  5
1BF0
330
1A
100
AcDbEntity
  8
1
 62
     8
100
AcDbCircle
 10
1148.172977224338
 20
347.4300112236043
 30
0.0
 40
25.7775592697
100
AcDbArc
 50
70.16901638119825
 51
109.8309836188017
  0
ARC
  5
1BF1
330
1A
100
AcDbEntity
  8
1
 62
     8
100
AcDbCircle
 10
-1934.389042127162
 20
180.3903948020045
 30
0.0
 40
3097.219733229899
100
AcDbArc
 50
3.392654614601274
 51
3.540918781501575
  0
LINE
  5
1BF2
330
1A
100
AcDbEntity
  8
1
100
AcDbLine
 10
1157.402574620338
 20
363.6788955831042
 30
0.0
 11
1140.077000386838
 21
363.6788955831042
 31
0.0
  0
ARC
  5
1BF3
330
1A
100
AcDbEntity
  8
1
 62
     8
100
AcDbCircle
 10
-6559.990168606963
 20
1711.369826200404
 30
0.0
 40
7781.792472617199
100
AcDbArc
 50
350.0269374223026
 51
350.0867380565015
  0
LINE
  5
1BF4
330
1A
100
AcDbEntity
  8
1
 62
     8
100
AcDbLine
 10
1097.037362410338
 20
363.6788955831042
 30
0.0
 11
1098.371730049938
 21
371.6788955831042
 31
0.0
  0
ARC
  5
1BF5
330
1A
100
AcDbEntity
  8
1
 62
     8
100
AcDbCircle
 10
-6471.666327368463
 20
-907.1854081885948
 30
0.0
 40
7748.8495111633
100
AcDbArc
 50
9.439544516697571
 51
9.499514528300293
  0
LINE
  5
1BF6
330
1A
100
AcDbEntity
  8
1
 62
     8
100
AcDbLine
 10
1111.892365593138
 20
363.6788955831042
 30
0.0
 11
1112.377011918938
 21
371.6788955831042
 31
0.0
  0
LINE
  5
1BF7
330
1A
100
AcDbEntity
  8
1
 62
     8
100
AcDbLine
 10
1165.081089979738
 20
363.6788955831042
 30
0.0
 11
1163.678655492438
 21
371.6788955831042
 31
0.0
  0
LINE
  5
1BF8
330
1A
100
AcDbEntity
  8
1
 62
     8
100
AcDbLine
 10
1163.678655492438
 20
371.6788955831042
 30
0.0
 11
1156.917928294538
 21
371.6788955831042
 31
0.0
  0
LINE
  5
1BF9
330
1A
100
AcDbEntity
  8
1
 62
     8
100
AcDbLine
 10
1139.428026154138
 20
371.6788955831042
 30
0.0
 11
1129.866914059338
 21
371.6788955831042
 31
0.0
  0
LINE
  5
1BFA
330
1A
100
AcDbEntity
  8
1
 62
     8
100
AcDbLine
 10
1112.377011918938
 20
371.6788955831042
 30
0.0
 11
1105.616284721038
 21
371.6788955831042
 31
0.0
  0
ARC
  5
1BFB
330
1A
100
AcDbEntity
  8
1
 62
     8
100
AcDbCircle
 10
-1970.973740706562
 20
619.1982831797044
 30
0.0
 40
3110.7038774987
100
AcDbArc
 50
355.2883022971972
 51
355.4361376759022
  0
LINE
  5
1BFC
330
1A
100
AcDbEntity
  8
1
100
AcDbLine
 10
1129.217939826638
 20
363.6788955831042
 30
0.0
 11
1140.077000386838
 21
363.6788955831042
 31
0.0
  0
LINE
  5
1BFD
330
1A
100
AcDbEntity
  8
1
100
AcDbLine
 10
1129.217939826638
 20
363.6788955831042
 30
0.0
 11
1111.892365593138
 21
363.6788955831042
 31
0.0
  0
LINE
  5
1BFE
330
1A
100
AcDbEntity
  8
1
100
AcDbLine
 10
1104.213850233738
 20
363.6788955831042
 30
0.0
 11
1111.892365593138
 21
363.6788955831042
 31
0.0
  0
LINE
  5
1BFF
330
1A
100
AcDbEntity
  8
1
100
AcDbLine
 10
1096.647470106738
 20
363.6788955831042
 30
0.0
 11
1097.037362410338
 21
363.6788955831042
 31
0.0
  0
LINE
  5
1C00
330
1A
100
AcDbEntity
  8
1
100
AcDbLine
 10
1106.636113634438
 20
375.6788955831042
 30
0.0
 11
1162.658826579038
 21
375.6788955831042
 31
0.0
  0
LINE
  5
1C01
330
1A
100
AcDbEntity
  8
1
100
AcDbLine
 10
1122.647470106738
 20
358.6788955831042
 30
0.0
 11
1146.647470106738
 21
358.6788955831042
 31
0.0
  0
LINE
  5
1C02
330
1A
100
AcDbEntity
  8
1
 62
     8
100
AcDbLine
 10
1140.077000386838
 20
363.6788955831042
 30
0.0
 11
1139.428026154138
 21
371.6788955831042
 31
0.0
  0
LINE
  5
1C03
330
1A
100
AcDbEntity
  8
1
 62
     8
100
AcDbLine
 10
1350.820924959604
 20
894.8749907814878
 30
0.0
 11
1229.280991446001
 21
842.6128193617591
 31
0.0
  0
VIEWPORT
  5
1844
330
183D
100
AcDbEntity
 67
     1
  8
0
100
AcDbViewport
 10
196.5094840905114
 20
144.7807022248783
 30
0.0
 40
448.4498272223027
 41
368.0062499679927
 68
     1
 69
     1
1001
ACAD
1000
MVIEW
1002
{
1070
    16
1010
0.0
1020
0.0
1030
0.0
1010
0.0
1020
0.0
1030
1.0
1040
0.0
1040
368.0062499679927
1040
196.5094840905114
1040
144.7807022248783
1040
50.0
1040
0.0
1040
0.0
1070
     0
1070
   100
1070
     1
1070
     1
1070
     0
1070
     0
1070
     0
1070
     0
1040
0.0
1040
0.0
1040
0.0
1040
10.0
1040
10.0
1040
10.0
1040
10.0
1070
     0
1002
{
1002
}
1002
}
  0
VIEWPORT
  5
1846
330
183D
100
AcDbEntity
 67
     1
  8
DEFPOINTS
100
AcDbViewport
 10
191.6718718216383
 20
141.505843472925
 30
0.0
 40
378.1105154671311
 41
280.5534846600835
 68
     2
 69
     2
1001
ACAD
1000
MVIEW
1002
{
1070
    16
1010
0.0
1020
0.0
1030
0.0
1010
0.0
1020
0.0
1030
1.0
1040
0.0
1040
1122.213941073275
1040
826.7499419693843
1040
600.4498523306189
1040
50.0
1040
0.0
1040
0.0
1070
     0
1070
   100
1070
     1
1070
     0
1070
     0
1070
     0
1070
     0
1070
     1
1040
0.0
1040
0.0
1040
0.0
1040
1.0
1040
1.0
1040
0.0
1040
0.0
1070
     0
1002
{
1002
}
1002
}
  0
MTEXT
  5
1847
330
183D
100
AcDbEntity
 67
     1
  8
NOTE
100
AcDbMText
 10
342.1818431423237
 20
25.89483118542489
 30
0.0
 40
3.5
 41
57.1274
 71
     1
 72
     1
  1
HV/W-G
  7
AD-STANDARD
1001
ACAD
1000
MTEXTBEGIN
1070
    73
1070
     1
1070
    44
1040
1.0
1070
    74
1070
     0
1000
MTEXTEND
1000
MTEXTBEGIN
1070
    73
1070
     1
1070
    44
1040
1.0
1070
    74
1070
     0
1000
MTEXTEND
  0
ENDSEC
  0
SECTION
  2
OBJECTS
  0
DICTIONARY
  5
C
330
0
100
AcDbDictionary
  3
ACAD_COLOR
350
129D
  3
ACAD_GROUP
350
D
  3
ACAD_LAYOUT
350
12A0
  3
ACAD_MATERIAL
350
129C
  3
ACAD_MLINESTYLE
350
E
  3
ACAD_PLOTSETTINGS
350
12A1
  3
ACAD_TABLESTYLE
350
129E
  3
CONTENTDICTIONARY
350
234
1001
ACAD
1000
TREAT_AS_HARD
1070
     0
  0
DICTIONARY
  5
12B7
330
2
100
AcDbDictionary
  3
ACAD_LAYERSTATES
350
12B8
1001
ACAD
1000
TREAT_AS_HARD
1070
     1
  0
DICTIONARY
  5
131A
330
1A
100
AcDbDictionary
  3
ACAD_LAYOUTSELFREF
350
1C05
  3
ACAD_SORTENTS
350
131B
1001
ACAD
1000
TREAT_AS_HARD
1070
     1
  0
DICTIONARY
  5
18C5
330
183D
100
AcDbDictionary
  3
ACAD_LAYOUTSELFREF
350
1CCD
1001
ACAD
1000
TREAT_AS_HARD
1070
     1
  0
DICTIONARY
  5
129D
102
{ACAD_REACTORS
330
C
102
}
330
C
100
AcDbDictionary
1001
ACAD
1000
TREAT_AS_HARD
1070
     0
  0
DICTIONARY
  5
D
102
{ACAD_REACTORS
330
C
102
}
330
C
100
AcDbDictionary
  3
*A1
350
131F
  3
*A2
350
167C
1001
ACAD
1000
TREAT_AS_HARD
1070
     0
  0
DICTIONARY
  5
12A0
102
{ACAD_REACTORS
330
C
102
}
330
C
100
AcDbDictionary
1001
ACAD
1000
TREAT_AS_HARD
1070
     0
  0
DICTIONARY
  5
129C
102
{ACAD_REACTORS
330
C
102
}
330
C
100
AcDbDictionary
1001
ACAD
1000
TREAT_AS_HARD
1070
     0
  0
DICTIONARY
  5
E
102
{ACAD_REACTORS
330
C
102
}
330
C
100
AcDbDictionary
  3
STANDARD
350
13
1001
ACAD
1000
TREAT_AS_HARD
1070
     0
  0
DICTIONARY
  5
12A1
102
{ACAD_REACTORS
330
C
102
}
330
C
100
AcDbDictionary
  3
_A3用紙_RICOH_IPSIO_CX8200_RPCS
350
134F
1001
ACAD
1000
TREAT_AS_HARD
1070
     0
  0
DICTIONARY
  5
129E
102
{ACAD_REACTORS
330
C
102
}
330
C
100
AcDbDictionary
  3
STANDARD
350
129F
1001
ACAD
1000
TREAT_AS_HARD
1070
     0
  0
DICTIONARY
  5
234
102
{ACAD_REACTORS
330
C
102
}
330
C
100
AcDbDictionary
1001
ACAD
1000
TREAT_AS_HARD
1070
     0
  0
DICTIONARY
  5
12B8
102
{ACAD_REACTORS
330
12B7
102
}
330
12B7
100
AcDbDictionary
1001
ACAD
1000
TREAT_AS_HARD
1070
     0
  0
XRECORD
  5
1C05
102
{ACAD_REACTORS
330
131A
102
}
330
131A
100
AcDbXrecord
340
1A
  0
SORTENTSTABLE
  5
131B
102
{ACAD_REACTORS
330
131A
102
}
330
131A
100
AcDbSortentsTable
330
1A
331
1713
  5
1713
331
D2E
  5
D2E
331
1695
  5
1695
331
16D4
  5
16D4
331
9E5
  5
9E5
331
B4A
  5
B4A
331
16DC
  5
16DC
331
171B
  5
171B
331
B81
  5
B81
331
CF7
  5
CF7
331
D36
  5
D36
331
169D
  5
169D
331
ADB
  5
ADB
331
B52
  5
B52
331
9ED
  5
9ED
331
16A5
  5
16A5
331
16E4
  5
16E4
331
CFF
  5
CFF
331
D5E
  5
D5E
331
1723
  5
1723
331
A74
  5
A74
331
BF9
  5
BF9
331
A7C
  5
A7C
331
16AD
  5
16AD
331
D07
  5
D07
331
9F5
  5
9F5
331
B5A
  5
B5A
331
16EE
  5
16EE
331
C01
  5
C01
331
11B3
  5
11B3
331
B23
  5
B23
331
9FD
  5
9FD
331
CC8
  5
CC8
331
16B5
  5
16B5
331
D0F
  5
D0F
331
16F4
  5
16F4
331
B62
  5
B62
331
C09
  5
C09
331
16FC
  5
16FC
331
A05
  5
A05
331
D17
  5
D17
331
CD8
  5
CD8
331
16BD
  5
16BD
331
B2B
  5
B2B
331
B6A
  5
B6A
331
16C5
  5
16C5
331
1704
  5
1704
331
A0D
  5
A0D
331
D1F
  5
D1F
331
1686
  5
1686
331
A8C
  5
A8C
331
C11
  5
C11
331
CE0
  5
CE0
331
9D6
  5
9D6
331
16CD
  5
16CD
331
170C
  5
170C
331
A15
  5
A15
331
A24
  5
A24
331
B72
  5
B72
331
D27
  5
D27
331
168E
  5
168E
331
A9C
  5
A9C
331
9DE
  5
9DE
331
B43
  5
B43
331
B7A
  5
B7A
331
CE8
  5
CE8
331
1696
  5
1696
331
16D5
  5
16D5
331
D2F
  5
D2F
331
1714
  5
1714
331
B82
  5
B82
331
171C
  5
171C
331
D37
  5
D37
331
169E
  5
169E
331
CF8
  5
CF8
331
16DD
  5
16DD
331
9E6
  5
9E6
331
B4B
  5
B4B
331
B53
  5
B53
331
A2C
  5
A2C
331
9EE
  5
9EE
331
1724
  5
1724
331
A75
  5
A75
331
ADC
  5
ADC
331
CA1
  5
CA1
331
D5F
  5
D5F
331
16A6
  5
16A6
331
D00
  5
D00
331
16E5
  5
16E5
331
B5B
  5
B5B
331
9F6
  5
9F6
331
A7D
  5
A7D
331
BFA
  5
BFA
331
16AE
  5
16AE
331
16EF
  5
16EF
331
B24
  5
B24
331
9FE
  5
9FE
331
C02
  5
C02
331
D08
  5
D08
331
CC9
  5
CC9
331
16B6
  5
16B6
331
D10
  5
D10
331
16F5
  5
16F5
331
C0A
  5
C0A
331
A85
  5
A85
331
B2C
  5
B2C
331
9C7
  5
9C7
331
16BE
  5
16BE
331
CD9
  5
CD9
331
D18
  5
D18
331
16FD
  5
16FD
331
A06
  5
A06
331
B63
  5
B63
331
B6B
  5
B6B
331
A8D
  5
A8D
331
C12
  5
C12
331
1687
  5
1687
331
16C6
  5
16C6
331
CE1
  5
CE1
331
D20
  5
D20
331
1705
  5
1705
331
A0E
  5
A0E
331
B73
  5
B73
331
A16
  5
A16
331
A25
  5
A25
331
131C
  5
1317
331
170D
  5
170D
331
168F
  5
168F
331
16CE
  5
16CE
331
9D7
  5
9D7
331
B44
  5
B44
331
B7B
  5
B7B
331
9DF
  5
9DF
331
A9D
  5
A9D
331
D28
  5
D28
331
CE9
  5
CE9
331
16D6
  5
16D6
331
1715
  5
1715
331
133A
  5
133A
331
D30
  5
D30
331
1697
  5
1697
331
9E7
  5
9E7
331
B4C
  5
B4C
331
16DE
  5
16DE
331
171D
  5
171D
331
B83
  5
B83
331
CF9
  5
CF9
331
169F
  5
169F
331
ADD
  5
ADD
331
B54
  5
B54
331
A2D
  5
A2D
331
9EF
  5
9EF
331
16A7
  5
16A7
331
D01
  5
D01
331
16E6
  5
16E6
331
1725
  5
1725
331
A76
  5
A76
331
BF3
  5
BF3
331
BFB
  5
BFB
331
A7E
  5
A7E
331
16AF
  5
16AF
331
9F7
  5
9F7
331
B5C
  5
B5C
331
16E8
  5
16E8
331
C03
  5
C03
331
9FF
  5
9FF
331
B25
  5
B25
331
D60
  5
D60
331
CCA
  5
CCA
331
D09
  5
D09
331
1320
  5
1320
331
16B7
  5
16B7
331
D11
  5
D11
331
16F6
  5
16F6
331
B64
  5
B64
331
C0B
  5
C0B
331
11CD
  5
11CD
331
16FE
  5
16FE
331
D19
  5
D19
331
CDA
  5
CDA
331
16BF
  5
16BF
331
9C8
  5
9C8
331
B2D
  5
B2D
331
B6C
  5
B6C
331
16C7
  5
16C7
331
1706
  5
1706
331
A0F
  5
A0F
331
CE2
  5
CE2
331
D21
  5
D21
331
1688
  5
1688
331
A8E
  5
A8E
331
C13
  5
C13
331
A96
  5
A96
331
B3D
  5
B3D
331
9D8
  5
9D8
331
16CF
  5
16CF
331
170E
  5
170E
331
A17
  5
A17
331
A26
  5
A26
331
B74
  5
B74
331
B7C
  5
B7C
331
A9E
  5
A9E
331
B45
  5
B45
331
CEA
  5
CEA
331
D29
  5
D29
331
1690
  5
1690
331
9E0
  5
9E0
331
1698
  5
1698
331
16D7
  5
16D7
331
D31
  5
D31
331
1716
  5
1716
331
B84
  5
B84
331
171E
  5
171E
331
16A0
  5
16A0
331
CFA
  5
CFA
331
16DF
  5
16DF
331
9E8
  5
9E8
331
B4D
  5
B4D
331
B55
  5
B55
331
BF4
  5
BF4
331
9F0
  5
9F0
331
16E7
  5
16E7
331
1726
  5
1726
331
A77
  5
A77
331
A2E
  5
A2E
331
16A8
  5
16A8
331
ADE
  5
ADE
331
D02
  5
D02
331
16E9
  5
16E9
331
B1E
  5
B1E
331
B5D
  5
B5D
331
11A6
  5
11A6
331
9F8
  5
9F8
331
A7F
  5
A7F
331
BFC
  5
BFC
331
B26
  5
B26
331
C04
  5
C04
331
D0A
  5
D0A
331
D61
  5
D61
331
CCB
  5
CCB
331
16B0
  5
16B0
331
16B8
  5
16B8
331
16F7
  5
16F7
331
A00
  5
A00
331
D12
  5
D12
331
1321
  5
1321
331
C0C
  5
C0C
331
B2E
  5
B2E
331
1681
  5
1681
331
16C0
  5
16C0
331
CDB
  5
CDB
331
D1A
  5
D1A
331
16FF
  5
16FF
331
B65
  5
B65
331
B6D
  5
B6D
331
A1F
  5
A1F
331
A10
  5
A10
331
A8F
  5
A8F
331
C14
  5
C14
331
1689
  5
1689
331
16C8
  5
16C8
331
CE3
  5
CE3
331
D22
  5
D22
331
1707
  5
1707
331
B75
  5
B75
331
A27
  5
A27
331
A30
  5
A30
331
A97
  5
A97
331
170F
  5
170F
331
9D9
  5
9D9
331
B3E
  5
B3E
331
B46
  5
B46
331
B7D
  5
B7D
331
A9F
  5
A9F
331
D2A
  5
D2A
331
1691
  5
1691
331
CEB
  5
CEB
331
16D0
  5
16D0
331
9E1
  5
9E1
331
16D8
  5
16D8
331
1717
  5
1717
331
A60
  5
A60
331
1699
  5
1699
331
9E9
  5
9E9
331
B4E
  5
B4E
331
16E0
  5
16E0
331
171F
  5
171F
331
CFB
  5
CFB
331
D5A
  5
D5A
331
16A1
  5
16A1
331
B56
  5
B56
331
9F1
  5
9F1
331
16A9
  5
16A9
331
D03
  5
D03
331
1727
  5
1727
331
A78
  5
A78
331
A2F
  5
A2F
331
BFD
  5
BFD
331
CC4
  5
CC4
331
B1F
  5
B1F
331
9F9
  5
9F9
331
B5E
  5
B5E
331
16EA
  5
16EA
331
C05
  5
C05
331
B27
  5
B27
331
D62
  5
D62
331
16B1
  5
16B1
331
D0B
  5
D0B
331
16F0
  5
16F0
331
16F8
  5
16F8
331
A01
  5
A01
331
A80
  5
A80
331
1322
  5
1322
331
16B9
  5
16B9
331
D13
  5
D13
331
B2F
  5
B2F
331
1700
  5
1700
331
A09
  5
A09
331
A18
  5
A18
331
B66
  5
B66
331
C0D
  5
C0D
331
D1B
  5
D1B
331
1682
  5
1682
331
CDC
  5
CDC
331
16C1
  5
16C1
331
B6E
  5
B6E
331
A20
  5
A20
331
16C9
  5
16C9
331
1708
  5
1708
331
A11
  5
A11
331
CE4
  5
CE4
331
D23
  5
D23
331
168A
  5
168A
331
A90
  5
A90
331
C15
  5
C15
331
A98
  5
A98
331
B3F
  5
B3F
331
9DA
  5
9DA
331
A31
  5
A31
331
B76
  5
B76
331
B7E
  5
B7E
331
B47
  5
B47
331
1692
  5
1692
331
16D1
  5
16D1
331
D2B
  5
D2B
331
1710
  5
1710
331
1100
  5
1100
331
A61
  5
A61
331
AA0
  5
AA0
331
9E2
  5
9E2
331
169A
  5
169A
331
CF4
  5
CF4
331
16D9
  5
16D9
331
1718
  5
1718
331
C7D
  5
C7D
331
A28
  5
A28
331
1720
  5
1720
331
D5B
  5
D5B
331
16A2
  5
16A2
331
CFC
  5
CFC
331
16E1
  5
16E1
331
9EA
  5
9EA
331
B4F
  5
B4F
331
B57
  5
B57
331
9F2
  5
9F2
331
1728
  5
1728
331
A79
  5
A79
331
D04
  5
D04
331
16AA
  5
16AA
331
CC5
  5
CC5
331
16EB
  5
16EB
331
B20
  5
B20
331
9FA
  5
9FA
331
B5F
  5
B5F
331
BFE
  5
BFE
331
C06
  5
C06
331
16F1
  5
16F1
331
D0C
  5
D0C
331
16B2
  5
16B2
331
B28
  5
B28
331
16BA
  5
16BA
331
16F9
  5
16F9
331
A02
  5
A02
331
CD5
  5
CD5
331
D14
  5
D14
331
1323
  5
1323
331
A81
  5
A81
331
C0E
  5
C0E
331
A89
  5
A89
331
B30
  5
B30
331
1683
  5
1683
331
16C2
  5
16C2
331
CDD
  5
CDD
331
D1C
  5
D1C
331
1701
  5
1701
331
A0A
  5
A0A
331
A19
  5
A19
331
B67
  5
B67
331
B6F
  5
B6F
331
A21
  5
A21
331
1709
  5
1709
331
A12
  5
A12
331
A91
  5
A91
331
C16
  5
C16
331
168B
  5
168B
331
16CA
  5
16CA
331
CE5
  5
CE5
331
D24
  5
D24
331
B40
  5
B40
331
B77
  5
B77
331
A32
  5
A32
331
A99
  5
A99
331
9DB
  5
9DB
331
B7F
  5
B7F
331
C76
  5
C76
331
1711
  5
1711
331
D2C
  5
D2C
331
1693
  5
1693
331
16D2
  5
16D2
331
B48
  5
B48
331
9E3
  5
9E3
331
16DA
  5
16DA
331
1719
  5
1719
331
CF5
  5
CF5
331
169B
  5
169B
331
AA1
  5
AA1
331
C7E
  5
C7E
331
B50
  5
B50
331
9EB
  5
9EB
331
16E2
  5
16E2
331
CFD
  5
CFD
331
D5C
  5
D5C
331
1721
  5
1721
331
A29
  5
A29
331
A7A
  5
A7A
331
16AB
  5
16AB
331
D05
  5
D05
331
9F3
  5
9F3
331
B58
  5
B58
331
16EC
  5
16EC
331
BFF
  5
BFF
331
B21
  5
B21
331
CC6
  5
CC6
331
9FB
  5
9FB
331
C07
  5
C07
331
16B3
  5
16B3
331
D0D
  5
D0D
331
16F2
  5
16F2
331
B60
  5
B60
331
16FA
  5
16FA
331
A03
  5
A03
331
A82
  5
A82
331
D15
  5
D15
331
CD6
  5
CD6
331
16BB
  5
16BB
331
B29
  5
B29
331
B31
  5
B31
331
B68
  5
B68
331
1702
  5
1702
331
A0B
  5
A0B
331
A1A
  5
A1A
331
A8A
  5
A8A
331
C0F
  5
C0F
331
D1D
  5
D1D
331
1684
  5
1684
331
CDE
  5
CDE
331
16C3
  5
16C3
331
C17
  5
C17
331
9D4
  5
9D4
331
16CB
  5
16CB
331
170A
  5
170A
331
A13
  5
A13
331
B70
  5
B70
331
CE6
  5
CE6
331
D25
  5
D25
331
168C
  5
168C
331
A9A
  5
A9A
331
B41
  5
B41
331
9DC
  5
9DC
331
1317
  5
131C
331
A33
  5
A33
331
B78
  5
B78
331
1694
  5
1694
331
16D3
  5
16D3
331
D2D
  5
D2D
331
1712
  5
1712
331
B80
  5
B80
331
AA2
  5
AA2
331
171A
  5
171A
331
169C
  5
169C
331
CF6
  5
CF6
331
16DB
  5
16DB
331
9E4
  5
9E4
331
B49
  5
B49
331
B51
  5
B51
331
C7F
  5
C7F
331
1722
  5
1722
331
D5D
  5
D5D
331
CFE
  5
CFE
331
16E3
  5
16E3
331
9EC
  5
9EC
331
B59
  5
B59
331
9F4
  5
9F4
331
A7B
  5
A7B
331
BF8
  5
BF8
331
D06
  5
D06
331
16AC
  5
16AC
331
CC7
  5
CC7
331
16ED
  5
16ED
331
B22
  5
B22
331
9FC
  5
9FC
331
C00
  5
C00
331
16B4
  5
16B4
331
D0E
  5
D0E
331
16F3
  5
16F3
331
C08
  5
C08
331
B2A
  5
B2A
331
16BC
  5
16BC
331
CD7
  5
CD7
331
D16
  5
D16
331
16FB
  5
16FB
331
A04
  5
A04
331
B61
  5
B61
331
C10
  5
C10
331
A8B
  5
A8B
331
11F2
  5
11F2
331
B32
  5
B32
331
1685
  5
1685
331
16C4
  5
16C4
331
CDF
  5
CDF
331
D1E
  5
D1E
331
1703
  5
1703
331
A0C
  5
A0C
331
B69
  5
B69
331
A14
  5
A14
331
B71
  5
B71
331
C18
  5
C18
331
170B
  5
170B
331
D26
  5
D26
331
168D
  5
168D
331
CE7
  5
CE7
331
16CC
  5
16CC
331
9D5
  5
9D5
331
B42
  5
B42
331
B79
  5
B79
331
9DD
  5
9DD
331
10F3
  5
10F3
331
A9B
  5
A9B
  0
XRECORD
  5
1CCD
102
{ACAD_REACTORS
330
18C5
102
}
330
18C5
100
AcDbXrecord
340
183D
  0
GROUP
  5
131F
102
{ACAD_REACTORS
330
D
102
}
330
D
100
AcDbGroup
300

 70
     1
 71
     1
  0
GROUP
  5
167C
102
{ACAD_REACTORS
330
D
102
}
330
D
100
AcDbGroup
300

 70
     1
 71
     1
  0
MLINESTYLE
  5
13
102
{ACAD_REACTORS
330
E
102
}
330
E
100
AcDbMlineStyle
  2
STANDARD
 70
     0
  3

 62
     0
 51
90.0
 52
90.0
 71
     2
 49
0.5
 62
   256
  6
BYLAYER
 49
-0.5
 62
   256
  6
BYLAYER
  0
PLOTSETTINGS
  5
134F
102
{ACAD_XDICTIONARY
360
1758
102
}
102
{ACAD_REACTORS
330
12A1
102
}
330
12A1
100
AcDbPlotSettings
  1
【A3用紙】RICOH IPSiO CX8200 RPCS
  2
RICOH IPSiO CX8200 RPCS
  4
A3
  6

 40
5.873749732971191
 41
5.873747825622557
 42
5.873748779296875
 43
5.873748779296875
 44
296.9259948730469
 45
419.9466552734373
 46
0.0
 47
0.0
 48
0.0
 49
0.0
140
0.0
141
0.0
142
1.0
143
1.0
 70
   688
 72
     1
 73
     1
 74
     5
  7
monochrome.ctb
 75
    16
147
1.0
148
0.0
149
0.0
  0
ACAD_ZOMBIE_OBJECT
  5
129F
102
{ACAD_REACTORS
330
129E
102
}
330
129E
100
AcDbZombieObject
 90
      499
 91
      508
 93
     1841
310
4214DD185B99185C9928000000000000F83F0000000000003E0FC00000000000004901028000000C1008070000C3001FDFF8000000C1003FBFF000000182007F7FE00000030400FEFFC00000060801FDFF8000000C1003FBFF000000182000000000000000C2020B0000001820100E000186003FBFF000000182007F7FE000
310
00030400FEFFC00000060801FDFF8000000C1003FBFF000000182007F7FE0000003040000000000000012404160000003040201C00030C007F7FE00000030400FEFFC00000060801FDFF8000000C1003FBFF000000182007F7FE00000030400FEFFC000000608000
340
10
340
10
340
10
 94
        0
1001
ACAD
1000
AcadProxyRoundTripData
1071
      502
1071
   851991
1070
     0
  0
DICTIONARY
  5
1758
330
134F
100
AcDbDictionary
  3
ACAD_XREC_ROUNDTRIP
350
1759
1001
ACAD
1000
TREAT_AS_HARD
1070
     1
  0
XRECORD
  5
1759
102
{ACAD_REACTORS
330
1758
102
}
330
1758
100
AcDbXrecord
102
SHADEPLOT
 70
     0
102
SHADEPLOTRESLEVEL
 70
     2
102
SHADEPLOTCUSTOMDPI
 70
   300
  0
ENDSEC
  0
EOF
